<?xml version="1.0" standalone="no"?>
<!DOCTYPE svg PUBLIC "-//W3C//DTD SVG 1.1//EN" "http://www.w3.org/Graphics/SVG/1.1/DTD/svg11.dtd" >
<svg xmlns="http://www.w3.org/2000/svg" xmlns:xlink="http://www.w3.org/1999/xlink" version="1.1">
<metadata>
Created by FontForge 20170731 at Mon Feb  7 20:28:34 2022
 By Aleksey,,,
Copyright 2015-2021 Google LLC. All Rights Reserved.
</metadata>
<defs>
<font id="NotoSans-Black" horiz-adv-x="0" >
  <font-face 
    font-family="Noto Sans Black"
    font-weight="900"
    font-stretch="normal"
    units-per-em="1000"
    panose-1="2 11 10 2 4 5 4 2 2 4"
    ascent="800"
    descent="-200"
    x-height="553"
    cap-height="714"
    bbox="-702 -395 2802 1347"
    underline-thickness="50"
    underline-position="-175"
    unicode-range="U+000D-FFFD"
  />
<missing-glyph horiz-adv-x="582" 
d="M85 0v714h411v-714h-411zM136 51h309v612h-309v-612z" />
    <glyph glyph-name="f_f" unicode="ff" horiz-adv-x="826" 
d="M404 410h-118v-410h-191v410h-73v94l77 47v9q0 107 44 156t144 49q43 0 78 -6.5t73 -19.5l-41 -124q-14 4 -31.5 7t-37.5 3q-42 0 -42 -57v-15h118v-143zM817 410h-118v-410h-191v410h-73v94l77 47v9q0 107 44 156t144 49q43 0 78 -6.5t73 -19.5l-41 -124q-14 4 -31.5 7
t-37.5 3q-42 0 -42 -57v-15h118v-143z" />
    <glyph glyph-name="fi" unicode="fi" horiz-adv-x="738" 
d="M404 410h-118v-410h-191v410h-73v94l77 47v9q0 107 44 156t144 49q43 0 78 -6.5t73 -19.5l-41 -124q-14 4 -31.5 7t-37.5 3q-42 0 -42 -57v-15h118v-143zM576 776q41 0 71.5 -17t30.5 -68q0 -49 -30.5 -66.5t-71.5 -17.5q-42 0 -71.5 17.5t-29.5 66.5q0 51 29.5 68
t71.5 17zM671 553v-553h-191v553h191z" />
    <glyph glyph-name="fl" unicode="fl" horiz-adv-x="736" 
d="M404 410h-118v-410h-191v410h-73v94l77 47v9q0 107 44 156t144 49q43 0 78 -6.5t73 -19.5l-41 -124q-14 4 -31.5 7t-37.5 3q-42 0 -42 -57v-15h118v-143zM670 0h-191v760h191v-760z" />
    <glyph glyph-name="f_f_i" unicode="ffi" horiz-adv-x="1151" 
d="M404 410h-118v-410h-191v410h-73v94l77 47v9q0 107 44 156t144 49q43 0 78 -6.5t73 -19.5l-41 -124q-14 4 -31.5 7t-37.5 3q-42 0 -42 -57v-15h118v-143zM817 410h-118v-410h-191v410h-73v94l77 47v9q0 107 44 156t144 49q43 0 78 -6.5t73 -19.5l-41 -124q-14 4 -31.5 7
t-37.5 3q-42 0 -42 -57v-15h118v-143zM989 776q41 0 71.5 -17t30.5 -68q0 -49 -30.5 -66.5t-71.5 -17.5q-42 0 -71.5 17.5t-29.5 66.5q0 51 29.5 68t71.5 17zM1084 553v-553h-191v553h191z" />
    <glyph glyph-name="f_f_l" unicode="ffl" horiz-adv-x="1149" 
d="M404 410h-118v-410h-191v410h-73v94l77 47v9q0 107 44 156t144 49q43 0 78 -6.5t73 -19.5l-41 -124q-14 4 -31.5 7t-37.5 3q-42 0 -42 -57v-15h118v-143zM817 410h-118v-410h-191v410h-73v94l77 47v9q0 107 44 156t144 49q43 0 78 -6.5t73 -19.5l-41 -124q-14 4 -31.5 7
t-37.5 3q-42 0 -42 -57v-15h118v-143zM1083 0h-191v760h191v-760z" />
    <glyph glyph-name=".notdef" horiz-adv-x="582" 
d="M85 0v714h411v-714h-411zM136 51h309v612h-309v-612z" />
    <glyph glyph-name=".null" 
 />
    <glyph glyph-name="nonmarkingreturn" horiz-adv-x="333" 
 />
    <glyph glyph-name="NULL" 
 />
    <glyph glyph-name="NULL" 
 />
    <glyph glyph-name="CR" unicode="&#xd;" horiz-adv-x="260" 
 />
    <glyph glyph-name="space" unicode=" " horiz-adv-x="260" 
 />
    <glyph glyph-name="exclam" unicode="!" horiz-adv-x="290" 
d="M226 252h-161l-25 462h211zM42 81q0 52 30.5 73t72.5 21q41 0 71 -21t30 -73q0 -49 -30 -71t-71 -22q-42 0 -72.5 22t-30.5 71z" />
    <glyph glyph-name="quotedbl" unicode="&#x22;" horiz-adv-x="524" 
d="M233 714l-20 -258h-134l-20 258h174zM465 714l-20 -258h-134l-20 258h174z" />
    <glyph glyph-name="numbersign" unicode="#" horiz-adv-x="662" 
d="M509 397l-15 -82h119v-124h-142l-36 -191h-131l36 191h-82l-35 -191h-130l35 191h-110v124h134l15 82h-116v127h140l35 190h131l-36 -190h81l35 190h131l-36 -190h112v-127h-135zM282 315h81l15 82h-81z" />
    <glyph glyph-name="dollar" unicode="$" horiz-adv-x="577" 
d="M242 22q-64 2 -111 12.5t-89 28.5v153q47 -21 100.5 -33.5t99.5 -16.5v123q-62 18 -111 43t-77 65.5t-28 104.5q0 91 59.5 136.5t156.5 52.5v69h92v-68q61 -3 111 -16t90 -30l-43 -134q-37 16 -77.5 25.5t-80.5 13.5v-121q70 -21 119 -44.5t75 -60t26 -95.5
q0 -81 -53 -137.5t-167 -68.5v-82h-92v80zM242 550q-55 -5 -55 -41q0 -19 12.5 -30.5t42.5 -21.5v93zM334 168q57 9 57 46q0 19 -12 30.5t-45 21.5v-98z" />
    <glyph glyph-name="percent" unicode="%" horiz-adv-x="948" 
d="M200 724q84 0 135 -58.5t51 -164.5t-47.5 -165.5t-138.5 -59.5q-82 0 -132 59.5t-50 165.5t47 164.5t135 58.5zM742 714l-396 -714h-145l396 714h145zM202 605q-21 0 -29 -28.5t-8 -77.5q0 -48 8 -77t29 -29t29 28.5t8 77.5t-8 77.5t-29 28.5zM743 440q84 0 135 -58.5
t51 -164.5t-47.5 -165.5t-138.5 -59.5q-82 0 -132 59.5t-50 165.5t47 164.5t135 58.5zM745 321q-21 0 -29 -28.5t-8 -77.5q0 -48 8 -77t29 -29t29 28.5t8 77.5q0 50 -8 78t-29 28z" />
    <glyph glyph-name="ampersand" unicode="&#x26;" horiz-adv-x="799" 
d="M330 723q101 0 159.5 -45t58.5 -125q0 -62 -36 -107t-93 -80l97 -92q36 55 51 127h198q-16 -73 -48 -140t-69 -111l156 -150h-247l-48 50q-27 -17 -53.5 -30.5t-64 -21.5t-97.5 -8q-83 0 -141 28t-88 75.5t-30 104.5q0 64 34.5 113.5t98.5 82.5q-30 35 -47 73t-17 86
q0 74 57.5 122t168.5 48zM327 598q-20 0 -35.5 -12t-15.5 -39q0 -22 13 -41t30 -35q28 16 42.5 38t14.5 44q0 24 -14 34.5t-35 10.5zM272 289q-21 -16 -30.5 -35t-9.5 -42q0 -31 22 -50.5t58 -19.5q28 0 49 7.5t32 16.5z" />
    <glyph glyph-name="quotesingle" unicode="'" horiz-adv-x="292" 
d="M233 714l-20 -258h-134l-20 258h174z" />
    <glyph glyph-name="parenleft" unicode="(" horiz-adv-x="359" 
d="M36 284q0 82 13 162.5t43.5 154t80.5 133.5h159q-67 -94 -97.5 -212t-30.5 -237q0 -77 13 -156t41.5 -152.5t72.5 -134.5h-158q-50 59 -80.5 131t-43.5 151.5t-13 159.5z" />
    <glyph glyph-name="parenright" unicode=")" horiz-adv-x="359" 
d="M323 284q0 -80 -13 -159.5t-43 -151.5t-81 -131h-158q45 61 73 134.5t41 152.5t13 156q0 119 -30 237t-98 212h159q51 -60 81 -133.5t43 -154t13 -162.5z" />
    <glyph glyph-name="asterisk" unicode="*" horiz-adv-x="537" 
d="M343 760l-19 -172l174 49l18 -144l-153 -10l101 -136l-127 -67l-70 138l-60 -137l-133 66l101 136l-153 12l22 142l170 -49l-19 172h148z" />
    <glyph glyph-name="plus" unicode="+" horiz-adv-x="586" 
d="M358 418h182v-131h-182v-176h-131v176h-182v131h182v179h131v-179z" />
    <glyph glyph-name="comma" unicode="," horiz-adv-x="309" 
d="M250 135q-9 -36 -23 -86t-30 -100.5t-33 -87.5h-136q10 46 19 96.5t17 99.5t12 89h167z" />
    <glyph glyph-name="hyphen" unicode="-" horiz-adv-x="318" 
d="M21 192v152h276v-152h-276z" />
    <glyph glyph-name="period" unicode="." horiz-adv-x="289" 
d="M42 81q0 52 30.5 73t73.5 21q41 0 70.5 -21t29.5 -73q0 -49 -29.5 -71t-70.5 -22q-43 0 -73.5 22t-30.5 71z" />
    <glyph glyph-name="slash" unicode="/" horiz-adv-x="442" 
d="M440 724l-266 -734h-169l266 734h169z" />
    <glyph glyph-name="slash" unicode="&#x2215;" horiz-adv-x="442" 
d="M440 724l-266 -734h-169l266 734h169z" />
    <glyph glyph-name="zero" unicode="0" horiz-adv-x="586" 
d="M551 356q0 -114 -24.5 -196t-81 -126t-152.5 -44q-134 0 -196 97t-62 269q0 116 24.5 198t81.5 126t152 44q134 0 196 -97t62 -271zM227 356q0 -105 13 -158.5t53 -53.5t53 53t13 159t-13 160t-53 54t-53 -54t-13 -160z" />
    <glyph glyph-name="one" unicode="1" horiz-adv-x="586" 
d="M460 0h-196v353v36t1 58t2 57q-13 -15 -23.5 -26t-21.5 -20l-81 -67l-100 123l245 200h174v-714z" />
    <glyph glyph-name="two" unicode="2" horiz-adv-x="586" 
d="M548 0h-518v127l174 176q54 57 84.5 91t42.5 58t12 50q0 32 -20.5 46t-48.5 14q-34 0 -68 -19t-78 -57l-106 124q32 29 68.5 55t85.5 42.5t120 16.5q73 0 126 -25.5t82.5 -69.5t29.5 -100q0 -62 -22.5 -110.5t-68 -97t-113.5 -110.5l-52 -47v-5h270v-159z" />
    <glyph glyph-name="three" unicode="3" horiz-adv-x="586" 
d="M524 559q0 -51 -22 -87.5t-57.5 -60t-78.5 -35.5v-3q86 -10 132.5 -51.5t46.5 -117.5q0 -58 -31.5 -107t-97 -78t-169.5 -29q-69 0 -118 10.5t-95 28.5v160q47 -24 96 -35.5t89 -11.5q71 0 96.5 20t25.5 54q0 24 -12.5 41.5t-45 26.5t-94.5 9h-44v145h45q82 0 114.5 21
t32.5 54q0 29 -22 42.5t-58 13.5q-32 0 -60.5 -9t-49.5 -19.5t-32 -17.5l-80 129q44 30 101.5 51t150.5 21q110 0 173.5 -44t63.5 -121z" />
    <glyph glyph-name="four" unicode="4" horiz-adv-x="586" 
d="M571 138h-79v-138h-190v138h-285v142l297 434h178v-432h79v-144zM302 365q0 15 1 39.5t2 44.5t1 21h-5q-10 -22 -17.5 -36t-20.5 -34l-79 -118h118v83z" />
    <glyph glyph-name="five" unicode="5" horiz-adv-x="586" 
d="M324 468q60 0 109 -27t78 -78t29 -125q0 -120 -72 -184t-218 -64q-124 0 -204 39v158q38 -17 91 -31t97 -14q53 0 82 23t29 67q0 41 -29.5 64t-88.5 23q-27 0 -52.5 -5.5t-45.5 -11.5l-71 35l27 377h407v-161h-243l-9 -94q16 3 32.5 6t51.5 3z" />
    <glyph glyph-name="six" unicode="6" horiz-adv-x="586" 
d="M34 302q0 61 9 122t32 115t65 95.5t107.5 65.5t160.5 24q21 0 51.5 -2.5t50.5 -5.5v-151q-20 4 -45 6.5t-61 2.5q-72 0 -114 -21.5t-60.5 -62t-21.5 -97.5h6q19 35 51.5 59t89.5 24q94 0 147 -60.5t53 -171.5q0 -120 -67.5 -187t-184.5 -67q-76 0 -137 33.5t-96.5 102.5
t-35.5 176zM299 143q31 0 50 23.5t19 73.5q0 41 -16 64t-51 23q-36 0 -55.5 -24t-19.5 -53q0 -25 7.5 -50t24 -41t41.5 -16z" />
    <glyph glyph-name="seven" unicode="7" horiz-adv-x="586" 
d="M102 0l245 554h-309v160h515v-114l-251 -600h-200z" />
    <glyph glyph-name="eight" unicode="8" horiz-adv-x="586" 
d="M295 724q106 0 172 -43t66 -131q0 -64 -34.5 -106t-88.5 -68q34 -19 67 -44.5t55 -60t22 -81.5q0 -57 -28 -102.5t-85.5 -71.5t-147.5 -26q-136 0 -198 55t-62 143q0 74 37 115.5t93 69.5q-45 30 -77 73t-32 105q0 58 31 96t85.5 57.5t124.5 19.5zM294 585
q-24 0 -41.5 -14t-17.5 -38q0 -23 16.5 -41.5t40.5 -32.5q21 12 40.5 29t19.5 45q0 24 -17.5 38t-40.5 14zM210 196q0 -30 21.5 -48.5t59.5 -18.5q44 0 65 17t21 46q0 22 -13 40t-30 31t-30 20l-13 8q-33 -17 -57 -40t-24 -55z" />
    <glyph glyph-name="nine" unicode="9" horiz-adv-x="586" 
d="M552 401q0 -127 -38 -219.5t-120 -142t-215 -49.5q-22 0 -51 1t-49 4v153q21 -4 42 -6t49 -2q81 0 125 23t62 64t21 94h-6q-19 -36 -51 -59.5t-93 -23.5q-90 0 -143.5 60.5t-53.5 172.5q0 119 67.5 186t185.5 67q75 0 135.5 -34t96.5 -105t36 -184zM289 570
q-34 0 -52.5 -23t-18.5 -74q0 -40 17.5 -63.5t51.5 -23.5q32 0 52.5 25t20.5 53q0 26 -7.5 50t-23 40t-40.5 16z" />
    <glyph glyph-name="colon" unicode=":" horiz-adv-x="289" 
d="M42 467q0 51 30.5 72t73.5 21q41 0 70.5 -21t29.5 -72q0 -50 -29.5 -72t-70.5 -22q-43 0 -73.5 22t-30.5 72zM42 81q0 52 30.5 73t73.5 21q41 0 70.5 -21t29.5 -73q0 -49 -29.5 -71t-70.5 -22q-43 0 -73.5 22t-30.5 71z" />
    <glyph glyph-name="semicolon" unicode=";" horiz-adv-x="297" 
d="M45 467q0 51 30 72t73 21q41 0 71 -21t30 -72q0 -50 -30 -72t-71 -22q-43 0 -73 22t-30 72zM250 135q-9 -36 -23 -86t-30 -100.5t-33 -87.5h-136q10 46 19 96.5t17 99.5t12 89h167z" />
    <glyph glyph-name="less" unicode="&#x3c;" horiz-adv-x="586" 
d="M539 87l-494 219v84l494 247v-145l-303 -138l303 -123v-144z" />
    <glyph glyph-name="equal" unicode="=" horiz-adv-x="586" 
d="M45 398v131h496v-131h-496zM45 175v132h496v-132h-496z" />
    <glyph glyph-name="greater" unicode="&#x3e;" horiz-adv-x="586" 
d="M45 231l303 123l-303 138v145l494 -247v-84l-494 -219v144z" />
    <glyph glyph-name="question" unicode="?" horiz-adv-x="505" 
d="M144 294q0 45 18.5 78.5t70.5 66.5q33 21 49 36.5t20.5 28.5t4.5 26q0 20 -18.5 32t-48.5 12q-73 0 -172 -52l-68 133q55 32 118 50.5t136 18.5q111 0 172 -49t61 -129q0 -58 -27 -101t-89 -83q-44 -28 -60.5 -45t-16.5 -40v-25h-150v42zM123 81q0 52 30 73t73 21
q41 0 71 -21t30 -73q0 -49 -30 -71t-71 -22q-43 0 -73 22t-30 71z" />
    <glyph glyph-name="at" unicode="@" horiz-adv-x="897" 
d="M857 369q0 -47 -12 -92.5t-35.5 -82t-58 -58.5t-79.5 -22q-36 0 -68 15t-51 43h-7q-22 -25 -54 -41.5t-73 -16.5q-93 0 -139 54.5t-46 143.5q0 66 28.5 118.5t84.5 83t137 30.5q49 0 96 -9.5t78 -20.5l-10 -206q0 -5 -0.5 -18.5t-0.5 -27.5q0 -23 7 -32.5t17 -9.5
q18 0 30.5 20.5t19.5 55t7 74.5q0 112 -63.5 178t-189.5 66q-99 0 -166.5 -41t-101.5 -112.5t-34 -164.5q0 -118 66.5 -189t199.5 -71q56 0 123.5 12.5t127.5 34.5v-112q-52 -22 -114.5 -34t-129.5 -12q-128 0 -219 45t-139 129t-48 199q0 90 30.5 167.5t87 135t136.5 90
t179 32.5q116 0 202 -43t134 -122t48 -189zM371 313q0 -49 18 -71t47 -22q40 0 57 32.5t21 105.5l5 76q-10 2 -17 2.5t-16 0.5q-60 0 -87.5 -37t-27.5 -87z" />
    <glyph glyph-name="A" unicode="A" horiz-adv-x="726" 
d="M515 0l-35 134h-232l-36 -134h-212l233 717h257l236 -717h-211zM409 409q-5 19 -14 54.5t-18 73.5t-14 62q-4 -24 -12.5 -60t-17 -71t-14.5 -59l-31 -117h152z" />
    <glyph glyph-name="B" unicode="B" horiz-adv-x="674" 
d="M326 714q155 0 221 -46t66 -132q0 -47 -17 -79.5t-42.5 -51.5t-52.5 -26v-5q29 -7 58 -24t48.5 -50.5t19.5 -90.5q0 -97 -73 -153t-199 -56h-278v714h249zM328 440q48 0 67.5 20t19.5 48q0 60 -91 60h-54v-128h58zM270 299v-150h68q50 0 70 21.5t20 54.5q0 29 -20 51.5
t-74 22.5h-64z" />
    <glyph glyph-name="C" unicode="C" horiz-adv-x="649" 
d="M395 566q-68 0 -107 -56t-39 -156q0 -101 39 -153.5t118 -52.5q47 0 91.5 13t89.5 32v-163q-47 -21 -96.5 -30.5t-105.5 -9.5q-116 0 -190 46t-109 128.5t-35 190.5t40 191t117.5 130.5t188.5 47.5q52 0 109 -12t112 -38l-59 -152q-39 19 -79 31.5t-85 12.5z" />
    <glyph glyph-name="D" unicode="D" horiz-adv-x="734" 
d="M683 372q0 -124 -46.5 -207t-130.5 -124t-198 -41h-231v714h247q173 0 266 -88t93 -254zM483 365q0 193 -157 193h-56v-400h43q88 0 129 51t41 156z" />
    <glyph glyph-name="E" unicode="E" horiz-adv-x="549" 
d="M501 0h-424v714h424v-155h-231v-112h214v-155h-214v-135h231v-157z" />
    <glyph glyph-name="F" unicode="F" horiz-adv-x="539" 
d="M267 0h-190v714h422v-155h-232v-136h214v-155h-214v-268z" />
    <glyph glyph-name="G" unicode="G" horiz-adv-x="740" 
d="M364 418h308v-385q-55 -19 -126.5 -31t-149.5 -12q-103 0 -180.5 40t-121 122t-43.5 207q0 112 43 194t126.5 126.5t205.5 44.5q67 0 127 -12.5t104 -32.5l-61 -151q-38 19 -80 28.5t-89 9.5q-64 0 -103 -29t-56.5 -77t-17.5 -106q0 -100 42 -152.5t120 -52.5
q17 0 41.5 2.5t37.5 5.5v112h-127v149z" />
    <glyph glyph-name="H" unicode="H" horiz-adv-x="766" 
d="M689 0h-194v291h-224v-291h-194v714h194v-265h224v265h194v-714z" />
    <glyph glyph-name="I" unicode="I" horiz-adv-x="440" 
d="M406 0h-372v110l89 34v427l-89 33v110h372v-110l-89 -33v-427l89 -34v-110z" />
    <glyph glyph-name="J" unicode="J" horiz-adv-x="352" 
d="M21 -224q-33 0 -57.5 3t-42.5 7v150q16 -3 33.5 -6.5t37.5 -3.5q52 0 70.5 31.5t18.5 95.5v661h194v-644q0 -107 -32.5 -172t-89.5 -93.5t-132 -28.5z" />
    <glyph glyph-name="K" unicode="K" horiz-adv-x="687" 
d="M687 0h-218l-141 273l-57 -34v-239h-194v714h194v-310q12 23 28 46.5t31 44.5l150 219h211l-225 -320z" />
    <glyph glyph-name="L" unicode="L" horiz-adv-x="582" 
d="M77 0v714h193v-558h275v-156h-468z" />
    <glyph glyph-name="M" unicode="M" horiz-adv-x="967" 
d="M388 0l-146 514h-4q2 -20 4 -54t4 -73.5t2 -76.5v-310h-171v714h257l149 -507h4l146 507h257v-714h-177v313q0 34 1 72.5t3 73t3 54.5h-4l-144 -513h-184z" />
    <glyph glyph-name="N" unicode="N" horiz-adv-x="834" 
d="M757 0h-253l-261 503h-4q2 -23 4 -55.5t3.5 -65.5t1.5 -60v-322h-171v714h252l260 -496h3q-1 23 -3 54t-3 63t-1 56v323h172v-714z" />
    <glyph glyph-name="O" unicode="O" horiz-adv-x="797" 
d="M745 358q0 -111 -35.5 -193.5t-112 -128.5t-199.5 -46q-120 0 -197 46t-113.5 129t-36.5 194t37 193.5t114 127.5t197 45q122 0 198.5 -45.5t112 -128t35.5 -193.5zM254 358q0 -97 33.5 -152t110.5 -55q80 0 112 55t32 152t-32 153t-111 56t-112 -56t-33 -153z" />
    <glyph glyph-name="P" unicode="P" horiz-adv-x="632" 
d="M324 714q136 0 203.5 -59t67.5 -168q0 -49 -14 -93.5t-45.5 -80t-83.5 -56t-128 -20.5h-54v-237h-193v714h247zM320 558h-50v-164h38q38 0 66 19.5t28 68.5q0 34 -20 55t-62 21z" />
    <glyph glyph-name="Q" unicode="Q" horiz-adv-x="797" 
d="M745 358q0 -112 -36 -197t-118 -130l174 -201h-240l-120 160h-7q-120 0 -197 46t-113.5 129t-36.5 194t37 193.5t114 127.5t197 45q122 0 198.5 -45.5t112 -128t35.5 -193.5zM254 358q0 -97 33.5 -152t110.5 -55q80 0 112 55t32 152t-32 153t-111 56t-112 -56t-33 -153z
" />
    <glyph glyph-name="R" unicode="R" horiz-adv-x="677" 
d="M311 714q291 0 291 -211q0 -65 -32.5 -112.5t-88.5 -79.5l208 -311h-219l-151 260h-49v-260h-193v714h234zM308 568h-38v-163h36q44 0 72.5 19.5t28.5 69.5q0 35 -23 54.5t-76 19.5z" />
    <glyph glyph-name="S" unicode="S" horiz-adv-x="577" 
d="M544 217q0 -58 -29.5 -110t-91 -84.5t-159.5 -32.5q-49 0 -85.5 4.5t-68.5 14.5t-66 26v172q58 -29 117 -44.5t107 -15.5q43 0 63 15t20 38q0 28 -29.5 45.5t-99.5 48.5q-53 25 -92 52.5t-60 67.5t-21 101q0 69 34 115.5t94.5 70t140.5 23.5q70 0 126 -15.5t100 -35.5
l-59 -149q-46 21 -90.5 33.5t-82.5 12.5q-37 0 -54.5 -13t-17.5 -33q0 -17 13 -30t43.5 -28.5t83.5 -39.5q52 -23 88.5 -50.5t56 -65t19.5 -93.5z" />
    <glyph glyph-name="T" unicode="T" horiz-adv-x="591" 
d="M392 0h-193v556h-174v158h541v-158h-174v-556z" />
    <glyph glyph-name="U" unicode="U" horiz-adv-x="757" 
d="M684 284q0 -135 -76.5 -214.5t-231.5 -79.5q-148 0 -225.5 75.5t-77.5 214.5v434h194v-419q0 -76 28.5 -110t83.5 -34q59 0 85.5 34.5t26.5 110.5v418h193v-430z" />
    <glyph glyph-name="V" unicode="V" horiz-adv-x="694" 
d="M694 714l-234 -714h-227l-233 714h217l97 -362q5 -20 12 -52t13.5 -64t7.5 -52q2 20 7.5 51.5t12 63t12.5 51.5l99 364h216z" />
    <glyph glyph-name="W" unicode="W" horiz-adv-x="1039" 
d="M1024 714l-176 -714h-228l-68 311q-2 9 -6 30t-9.5 48t-9.5 53t-6 44q-2 -18 -6.5 -44t-9.5 -53t-9.5 -48t-6.5 -30l-69 -311h-228l-177 714h186l78 -358q3 -13 8 -37.5t10.5 -52.5t10.5 -54.5t7 -44.5q4 30 10.5 69t14.5 78.5t15.5 73.5t12.5 56l63 270h179l61 -270
q5 -21 12.5 -55.5t15.5 -74.5t15 -79t10 -68q3 25 10 62t14 72.5t11 53.5l79 359h186z" />
    <glyph glyph-name="X" unicode="X" horiz-adv-x="723" 
d="M720 0h-223l-139 223l-138 -223h-218l237 365l-223 349h214l129 -221l124 221h220l-226 -364z" />
    <glyph glyph-name="Y" unicode="Y" horiz-adv-x="664" 
d="M332 449l123 265h209l-235 -435v-279h-194v273l-235 441h210z" />
    <glyph glyph-name="Z" unicode="Z" horiz-adv-x="611" 
d="M586 0h-556v119l309 439h-302v156h541v-119l-309 -439h317v-156z" />
    <glyph glyph-name="bracketleft" unicode="[" horiz-adv-x="324" 
d="M301 -168h-244v902h244v-124h-89v-654h89v-124z" />
    <glyph glyph-name="backslash" unicode="\" horiz-adv-x="442" 
d="M172 724l266 -734h-169l-266 734h169z" />
    <glyph glyph-name="bracketright" unicode="]" horiz-adv-x="324" 
d="M23 -44h89v654h-89v124h244v-902h-244v124z" />
    <glyph glyph-name="asciicircum" unicode="^" horiz-adv-x="525" 
d="M-8 245l215 472h83l248 -472h-144l-141 282l-121 -282h-140z" />
    <glyph glyph-name="underscore" unicode="_" horiz-adv-x="500" 
d="M502 -185h-504v120h504v-120z" />
    <glyph glyph-name="grave" unicode="`" horiz-adv-x="418" 
d="M250 766q17 -22 40.5 -49t47.5 -52.5t40 -44.5v-14h-127q-20 13 -48.5 32.5t-59 41t-58 42t-45.5 34.5v10h210z" />
    <glyph glyph-name="a" unicode="a" horiz-adv-x="623" 
d="M336 563q105 0 164 -52t59 -148v-363h-132l-37 73h-4q-23 -29 -47.5 -47.5t-56.5 -27t-78 -8.5q-72 0 -120 44t-48 135q0 89 61.5 132t178.5 48l92 3v8q0 37 -18 52.5t-49 15.5q-33 0 -73 -11.5t-81 -29.5l-55 126q48 25 108.5 37.5t135.5 12.5zM325 245
q-52 -2 -73.5 -18.5t-21.5 -46.5q0 -28 15 -41.5t40 -13.5q35 0 59.5 22t24.5 57v43z" />
    <glyph glyph-name="b" unicode="b" horiz-adv-x="643" 
d="M257 588q0 -29 -2 -56t-5 -50h7q21 34 56 57.5t91 23.5q86 0 141 -73t55 -212q0 -142 -56 -215t-146 -73q-58 0 -89 20.5t-52 43.5h-12l-30 -54h-149v760h191v-172zM334 413q-40 0 -58.5 -28t-18.5 -87v-27q0 -64 17.5 -95.5t61.5 -31.5q70 0 70 136q0 133 -72 133z" />
    <glyph glyph-name="c" unicode="c" horiz-adv-x="539" 
d="M318 -10q-126 0 -201 68t-75 216q0 101 38 164.5t103.5 94t149.5 30.5q51 0 96.5 -11t84.5 -31l-56 -141q-34 15 -63.5 24t-61.5 9q-43 0 -70 -34t-27 -104q0 -72 27.5 -102.5t70.5 -30.5q41 0 82.5 13t78.5 36v-152q-34 -22 -77 -35.5t-100 -13.5z" />
    <glyph glyph-name="d" unicode="d" horiz-adv-x="643" 
d="M238 -10q-85 0 -140.5 73t-55.5 213q0 142 56.5 214.5t146.5 72.5q56 0 89.5 -23t55.5 -58h4q-4 21 -6.5 58t-2.5 72v148h192v-760h-144l-41 70h-7q-20 -33 -55 -56.5t-92 -23.5zM316 141q46 0 65 29t20 89v15q0 65 -18.5 100t-68.5 35q-34 0 -56.5 -33t-22.5 -103
q0 -69 22.5 -100.5t58.5 -31.5z" />
    <glyph glyph-name="e" unicode="e" horiz-adv-x="618" 
d="M315 563q121 0 191 -63t70 -190v-85h-341q2 -43 32.5 -71t88.5 -28q52 0 95 10t89 32v-137q-40 -21 -87.5 -31t-119.5 -10q-84 0 -149.5 29.5t-103.5 92.5t-38 161q0 100 34.5 164t96 95t142.5 31zM322 433q-34 0 -56.5 -21t-26.5 -67h164q-1 37 -21.5 62.5t-59.5 25.5z
" />
    <glyph glyph-name="f" unicode="f" horiz-adv-x="413" 
d="M404 410h-118v-410h-191v410h-73v94l77 47v9q0 107 44 156t144 49q43 0 78 -6.5t73 -19.5l-41 -124q-14 4 -31.5 7t-37.5 3q-42 0 -42 -57v-15h118v-143z" />
    <glyph glyph-name="g" unicode="g" horiz-adv-x="643" 
d="M243 563q58 0 93.5 -22.5t57.5 -55.5h4l14 68h165v-554q0 -117 -72.5 -178t-222.5 -61q-67 0 -118 7t-98 25v159q50 -21 95 -31.5t110 -10.5q115 0 115 82v10q0 29 6 69h-6q-19 -33 -54 -56.5t-92 -23.5q-88 0 -143 73t-55 213t56 213.5t145 73.5zM315 415
q-79 0 -79 -142q0 -72 20 -103.5t62 -31.5q47 0 65 29.5t18 88.5v23q0 65 -17.5 100.5t-68.5 35.5z" />
    <glyph glyph-name="h" unicode="h" horiz-adv-x="670" 
d="M257 652q0 -61 -3 -103t-5 -64h9q27 43 65 60.5t87 17.5q55 0 99 -21t70.5 -65.5t26.5 -116.5v-360h-192v302q0 111 -66 111q-52 0 -71.5 -44t-19.5 -126v-243h-191v760h191v-108z" />
    <glyph glyph-name="i" unicode="i" horiz-adv-x="325" 
d="M163 776q41 0 71.5 -17t30.5 -68q0 -49 -30.5 -66.5t-71.5 -17.5q-42 0 -71.5 17.5t-29.5 66.5q0 51 29.5 68t71.5 17zM258 553v-553h-191v553h191z" />
    <glyph glyph-name="j" unicode="j" horiz-adv-x="324" 
d="M61 691q0 51 29.5 68t71.5 17q41 0 71.5 -17t30.5 -68q0 -49 -30.5 -66.5t-71.5 -17.5q-42 0 -71.5 17.5t-29.5 66.5zM52 -240q-23 0 -53 3.5t-50 8.5v149q16 -4 29.5 -6.5t29.5 -2.5q23 0 40.5 16.5t17.5 66.5v558h191v-598q0 -50 -19.5 -94.5t-64.5 -72.5t-121 -28z
" />
    <glyph glyph-name="k" unicode="k" horiz-adv-x="659" 
d="M258 461q0 -34 -3 -75t-8 -75h4q11 17 28.5 43t30.5 43l124 156h213l-192 -235l204 -318h-218l-121 198l-62 -47v-151h-192v760h192v-299z" />
    <glyph glyph-name="l" unicode="l" horiz-adv-x="323" 
d="M257 0h-191v760h191v-760z" />
    <glyph glyph-name="m" unicode="m" horiz-adv-x="1000" 
d="M741 563q95 0 145 -48t50 -155v-360h-191v301q0 63 -17 87.5t-50 24.5q-46 0 -64 -40.5t-18 -114.5v-258h-191v301q0 60 -16 86t-48 26q-49 0 -66.5 -44t-17.5 -127v-242h-191v553h144l28 -68h5q22 34 63.5 56t102.5 22t100.5 -20.5t64.5 -56.5h6q26 37 67.5 57t93.5 20z
" />
    <glyph glyph-name="n" unicode="n" horiz-adv-x="670" 
d="M412 563q86 0 140 -48t54 -155v-360h-191v302q0 55 -16 83t-51 28q-54 0 -72.5 -44t-18.5 -127v-242h-191v553h144l26 -73h7q26 39 68.5 61t100.5 22z" />
    <glyph glyph-name="o" unicode="o" horiz-adv-x="637" 
d="M594 278q0 -139 -74 -213.5t-203 -74.5q-80 0 -142 33.5t-97.5 98t-35.5 156.5q0 137 74 211t204 74q80 0 141.5 -33t97 -96.5t35.5 -155.5zM236 278q0 -71 19 -108.5t64 -37.5q44 0 62.5 37.5t18.5 108.5t-18.5 107t-63.5 36q-43 0 -62.5 -36t-19.5 -107z" />
    <glyph glyph-name="p" unicode="p" horiz-adv-x="643" 
d="M404 563q92 0 144 -73.5t52 -211.5q0 -94 -26.5 -158.5t-72 -97t-103.5 -32.5t-90.5 21t-50.5 43h-6q2 -19 4 -41t2 -51v-202h-191v793h155l27 -70h9q20 32 54.5 56t92.5 24zM332 413q-42 0 -57.5 -30t-17.5 -89v-15q0 -66 16 -100.5t60 -34.5q36 0 54.5 31.5t18.5 104.5
t-19 103t-55 30z" />
    <glyph glyph-name="q" unicode="q" horiz-adv-x="643" 
d="M386 -11q0 41 6 81h-6q-19 -33 -54 -56.5t-92 -23.5q-88 0 -143 73t-55 213t56 213.5t145 73.5q58 0 93.5 -22.5t57.5 -55.5h4l14 68h165v-793h-191v229zM318 138q47 0 65 29.5t18 88.5v23q0 65 -17.5 100.5t-68.5 35.5q-79 0 -79 -142q0 -72 20 -103.5t62 -31.5z" />
    <glyph glyph-name="r" unicode="r" horiz-adv-x="469" 
d="M400 563q16 0 33 -2t25 -4l-17 -180q-10 2 -24.5 4t-40.5 2q-24 0 -51.5 -7t-47.5 -30.5t-20 -73.5v-272h-191v553h142l30 -88h9q23 41 64.5 69.5t88.5 28.5z" />
    <glyph glyph-name="s" unicode="s" horiz-adv-x="517" 
d="M477 170q0 -52 -23.5 -93t-75 -64t-135.5 -23q-59 0 -105.5 6.5t-94.5 24.5v153q53 -24 107 -34.5t85 -10.5q62 0 62 28q0 12 -10 21t-35.5 20t-72.5 30q-69 29 -103 66.5t-34 105.5q0 81 62.5 122t165.5 41q55 0 103 -12t100 -35l-52 -123q-41 19 -83 30t-67 11
q-47 0 -47 -23q0 -10 8.5 -18t32.5 -18t70 -29q48 -19 79.5 -41.5t47 -54t15.5 -80.5z" />
    <glyph glyph-name="t" unicode="t" horiz-adv-x="460" 
d="M337 141q26 0 47.5 5.5t44.5 13.5v-139q-31 -13 -66 -22t-89 -9t-94.5 17t-63.5 58.5t-23 116.5v228h-67v78l85 60l49 116h125v-111h136v-143h-136v-215q0 -54 52 -54z" />
    <glyph glyph-name="u" unicode="u" horiz-adv-x="670" 
d="M604 553v-553h-144l-24 69h-11q-26 -42 -71 -60.5t-96 -18.5q-54 0 -98 21t-69.5 66t-25.5 116v360h191v-302q0 -54 15.5 -82t50.5 -28q54 0 72.5 44t18.5 126v242h191z" />
    <glyph glyph-name="v" unicode="v" horiz-adv-x="611" 
d="M211 0l-211 553h199l94 -327q2 -4 5.5 -22t3.5 -34h3q0 17 3.5 32t5.5 23l98 328h199l-211 -553h-189z" />
    <glyph glyph-name="w" unicode="w" horiz-adv-x="910" 
d="M484 242q-6 25 -12 58t-10.5 62.5t-6.5 44.5h-3q-2 -15 -7 -45t-11.5 -64t-13.5 -63l-56 -235h-201l-151 553h188l45 -212q5 -23 10 -55.5t9.5 -66t5.5 -60.5h3q1 20 5 46t8.5 52t8.5 46t5 27l51 223h211l47 -226q4 -19 9.5 -48.5t11 -61.5t7.5 -58h3q2 27 6 61.5t9 67
t10 53.5l49 212h184l-152 -553h-204z" />
    <glyph glyph-name="x" unicode="x" horiz-adv-x="630" 
d="M183 282l-169 271h217l84 -155l86 155h217l-173 -271l180 -282h-217l-93 168l-93 -168h-217z" />
    <glyph glyph-name="y" unicode="y" horiz-adv-x="610" 
d="M-1 553h201l94 -317q3 -10 5.5 -27t3.5 -33h4q2 20 5.5 34.5t6.5 24.5l96 318h195l-219 -588q-25 -67 -58.5 -113t-82.5 -69t-122 -23q-26 0 -45 2.5t-33 5.5v150q11 -2 26.5 -4t32.5 -2q47 0 69.5 27.5t36.5 63.5l2 5z" />
    <glyph glyph-name="z" unicode="z" horiz-adv-x="507" 
d="M482 0h-458v109l229 298h-216v146h434v-118l-219 -289h230v-146z" />
    <glyph glyph-name="braceleft" unicode="{" horiz-adv-x="433" 
d="M401 -168q-102 0 -156.5 17.5t-74.5 55t-20 95.5v121q0 30 -17.5 48.5t-45 26.5t-57.5 8v147q31 0 58.5 8t44.5 26.5t17 48.5v124q0 57 19.5 94t73.5 54.5t158 17.5v-136q-20 0 -41.5 -3t-36.5 -13.5t-15 -35.5v-132q0 -61 -30.5 -88t-86.5 -35v-6q57 -9 87 -36t30 -84
v-135q0 -24 15 -35t37 -13.5t41 -3.5v-136z" />
    <glyph glyph-name="bar" unicode="|" horiz-adv-x="509" 
d="M189 760h131v-978h-131v978z" />
    <glyph glyph-name="braceright" unicode="}" horiz-adv-x="433" 
d="M32 -32q20 1 41.5 3.5t36.5 13.5t15 35v135q0 57 30 84t87 36v6q-55 8 -86 35t-31 88v132q0 25 -15 35.5t-36.5 13.5t-41.5 3v136q104 0 158 -17.5t73.5 -54.5t19.5 -94v-124q0 -30 17 -48.5t44.5 -26.5t58.5 -8v-147q-30 0 -57.5 -8t-45 -26.5t-17.5 -48.5v-121
q0 -58 -20 -95.5t-74 -55t-157 -17.5v136z" />
    <glyph glyph-name="asciitilde" unicode="~" horiz-adv-x="586" 
d="M274 289q-37 16 -64.5 21.5t-50.5 5.5q-29 0 -58.5 -17t-55.5 -42v137q26 26 57.5 39.5t71.5 13.5q29 0 58.5 -5.5t78.5 -25.5q37 -16 65.5 -21.5t50.5 -5.5q28 0 58 17t55 42v-137q-51 -53 -129 -53q-29 0 -58.5 6t-78.5 25z" />
    <glyph glyph-name="uni00A0" unicode="&#xa0;" horiz-adv-x="260" 
 />
    <glyph glyph-name="exclamdown" unicode="&#xa1;" horiz-adv-x="290" 
d="M249 470q0 -52 -30.5 -73t-72.5 -21q-41 0 -71 21t-30 73q0 50 30 71.5t71 21.5q42 0 72.5 -21.5t30.5 -71.5zM65 299h161l25 -462h-211z" />
    <glyph glyph-name="cent" unicode="&#xa2;" horiz-adv-x="586" 
d="M377 649q44 -2 84 -13t74 -28l-56 -141q-34 15 -63.5 24t-61.5 9q-43 0 -70 -34t-27 -104q0 -72 27.5 -102.5t70.5 -30.5q41 0 82.5 13t78.5 36v-152q-28 -19 -62 -31t-77 -17v-88h-101v91q-99 15 -156 83.5t-57 196.5q0 126 59.5 194.5t153.5 87.5v81h101v-75z" />
    <glyph glyph-name="sterling" unicode="&#xa3;" horiz-adv-x="586" 
d="M353 725q53 0 104 -11t94 -29l-54 -141q-37 14 -68.5 20.5t-54.5 6.5t-39 -13.5t-16 -53.5v-52h168v-135h-168v-47q0 -32 -12 -53.5t-30 -35t-36 -22.5h328v-159h-518v153q27 16 44.5 29.5t26.5 33.5t9 53v48h-81v135h81v58q0 113 61.5 164t160.5 51z" />
    <glyph glyph-name="currency" unicode="&#xa4;" horiz-adv-x="566" 
d="M88 353q0 23 5.5 45t14.5 41l-61 58l88 89l60 -60q19 9 42 14.5t42 5.5q45 0 86 -22l59 62l90 -85l-62 -61q20 -37 20 -87q0 -47 -20 -86l59 -58l-87 -87l-59 58q-19 -8 -41 -13.5t-45 -5.5t-44.5 4t-41.5 14l-58 -56l-87 87l60 58q-20 39 -20 85zM213 353
q0 -28 19.5 -47t46.5 -19q29 0 49 19t20 47q0 29 -20 48t-49 19q-27 0 -46.5 -19t-19.5 -48z" />
    <glyph glyph-name="yen" unicode="&#xa5;" horiz-adv-x="586" 
d="M293 468l94 246h195l-177 -348h95v-103h-118v-57h118v-102h-118v-104h-178v104h-120v102h120v57h-120v103h93l-173 348h195z" />
    <glyph glyph-name="brokenbar" unicode="&#xa6;" horiz-adv-x="509" 
d="M189 760h131v-410h-131v410zM189 192h131v-410h-131v410z" />
    <glyph glyph-name="section" unicode="&#xa7;" horiz-adv-x="500" 
d="M52 392q0 38 25.5 67t54.5 47q-34 24 -51.5 53.5t-17.5 66.5q0 63 51.5 103.5t146.5 40.5q50 0 97 -12t84 -30l-48 -108q-32 17 -67.5 29.5t-66.5 12.5q-53 0 -53 -36q0 -16 17 -34t68 -39q86 -34 123.5 -74t37.5 -87q0 -50 -22.5 -78t-49.5 -48q27 -20 44 -50t17 -69
q0 -67 -53.5 -113t-159.5 -46q-100 0 -172 42v119q43 -23 91 -38t82 -15q38 0 53 13t15 34q0 20 -15 35.5t-68 38.5q-48 22 -84.5 44.5t-57.5 53.5t-21 77zM194 407q0 -25 20 -43.5t64 -41.5l13 -7q7 8 13.5 20.5t6.5 31.5q0 26 -19 47t-70 43q-10 -6 -19 -18t-9 -32z" />
    <glyph glyph-name="dieresis" unicode="&#xa8;" horiz-adv-x="602" 
d="M109 690q0 40 24 58.5t59 18.5q34 0 59 -18.5t25 -58.5q0 -39 -25 -57.5t-59 -18.5q-35 0 -59 18.5t-24 57.5zM343 690q0 40 24 58.5t60 18.5q34 0 59 -18.5t25 -58.5q0 -39 -25 -57.5t-59 -18.5q-36 0 -60 18.5t-24 57.5z" />
    <glyph glyph-name="copyright" unicode="&#xa9;" horiz-adv-x="824" 
d="M412 -10q-80 0 -147 27t-116.5 76.5t-76.5 116.5t-27 147t27 147t76.5 116.5t116.5 76.5t147 27t147 -27t116.5 -76.5t76.5 -116.5t27 -147t-27 -147t-76.5 -116.5t-116.5 -76.5t-147 -27zM412 70q82 0 144 36.5t97.5 101.5t35.5 149q0 85 -35.5 149.5t-97.5 101
t-144 36.5t-145 -36.5t-98.5 -101t-35.5 -149.5q0 -84 35.5 -149t98.5 -101.5t145 -36.5zM413 128q-108 0 -162.5 63t-54.5 168q0 102 53 164t159 62q45 0 83 -10t74 -28l-45 -100q-25 14 -49.5 20.5t-53.5 6.5q-39 0 -61.5 -30t-22.5 -87q0 -62 21.5 -90t65.5 -28
q32 0 64 8t62 25v-113q-31 -16 -62.5 -23.5t-70.5 -7.5z" />
    <glyph glyph-name="ordfeminine" unicode="&#xaa;" horiz-adv-x="397" 
d="M213 722q65 0 105 -35t40 -106v-219h-79l-22 62q-22 -34 -48.5 -51t-70.5 -17q-48 0 -81 28.5t-33 87.5q0 64 43.5 87.5t124.5 27.5l43 2v3q0 37 -50 37q-26 0 -48.5 -6.5t-54.5 -20.5l-37 81q37 18 73 28.5t95 10.5zM194 519q-30 -2 -38.5 -14.5t-8.5 -26.5
q0 -33 34 -33q27 0 40.5 20.5t13.5 45.5v11z" />
    <glyph glyph-name="guillemotleft" unicode="&#xab;" horiz-adv-x="681" 
d="M36 287l190 236l137 -73l-133 -169l133 -170l-137 -72l-190 235v13zM317 287l189 236l138 -73l-134 -169l134 -170l-138 -72l-189 235v13z" />
    <glyph glyph-name="logicalnot" unicode="&#xac;" horiz-adv-x="586" 
d="M540 418v-302h-132v171h-363v131h495z" />
    <glyph glyph-name="uni00AD" unicode="&#xad;" horiz-adv-x="318" 
d="M21 192v152h276v-152h-276z" />
    <glyph glyph-name="registered" unicode="&#xae;" horiz-adv-x="824" 
d="M412 -10q-80 0 -147 27t-116.5 76.5t-76.5 116.5t-27 147t27 147t76.5 116.5t116.5 76.5t147 27t147 -27t116.5 -76.5t76.5 -116.5t27 -147t-27 -147t-76.5 -116.5t-116.5 -76.5t-147 -27zM412 70q82 0 144 36.5t97.5 101.5t35.5 149q0 85 -35.5 149.5t-97.5 101
t-144 36.5t-145 -36.5t-98.5 -101t-35.5 -149.5q0 -84 35.5 -149t98.5 -101.5t145 -36.5zM253 153v427h136q104 0 148.5 -34.5t44.5 -97.5q0 -51 -20 -77.5t-49 -40.5l95 -177h-136l-71 156h-17v-156h-131zM389 395q29 0 45 10.5t16 37.5q0 26 -16 34t-44 8h-6v-90h5z" />
    <glyph glyph-name="overscore" unicode="&#xaf;" horiz-adv-x="500" 
d="M503 760h-506v120h506v-120z" />
    <glyph glyph-name="degree" unicode="&#xb0;" horiz-adv-x="422" 
d="M211 366q-52 0 -93 22.5t-64 63t-23 92.5t23 92.5t64 64t93 23.5q53 0 93.5 -23.5t63.5 -64t23 -92.5t-23 -92.5t-63.5 -63t-93.5 -22.5zM211 482q29 0 46.5 17t17.5 45q0 29 -17.5 47t-46.5 18t-46.5 -18t-17.5 -47q0 -28 17.5 -45t46.5 -17z" />
    <glyph glyph-name="plusminus" unicode="&#xb1;" horiz-adv-x="586" 
d="M358 461h182v-131h-182v-176h-131v176h-182v131h182v179h131v-179zM45 0v131h495v-131h-495z" />
    <glyph glyph-name="uni00B2" unicode="&#xb2;" horiz-adv-x="399" 
d="M366 416h-329v101l105 104q42 42 57.5 64t15.5 38q0 28 -32 28q-16 0 -36 -8.5t-48 -34.5l-69 81q33 30 74.5 48t106.5 18q72 0 108.5 -32t36.5 -84q0 -39 -18 -70.5t-47 -59.5t-62 -56l-32 -27h169v-110z" />
    <glyph glyph-name="uni00B3" unicode="&#xb3;" horiz-adv-x="399" 
d="M198 853q74 0 115 -29t41 -76q0 -37 -18 -64t-61 -43v-4q93 -24 93 -105q0 -60 -48.5 -92t-134.5 -32q-43 0 -82 8.5t-69 25.5v114q32 -22 69 -31t76 -9q26 0 41.5 7.5t15.5 25.5q0 14 -11 24.5t-55 10.5h-51v95h39q41 0 54.5 11t13.5 27q0 12 -10 22.5t-35 10.5
q-24 0 -45.5 -8t-47.5 -28l-57 83q30 23 72 39.5t95 16.5z" />
    <glyph glyph-name="acute" unicode="&#xb4;" horiz-adv-x="418" 
d="M378 756q-18 -14 -45 -34.5t-58 -42t-59.5 -41t-48.5 -32.5h-127v14q17 19 41 44.5t48 52.5t40 49h209v-10z" />
    <glyph glyph-name="uni00B5" unicode="&#xb5;" horiz-adv-x="672" 
d="M606 553v-553h-143l-26 74h-8q-16 -43 -44 -63.5t-60 -20.5q-27 0 -42.5 10t-29.5 31h-2q2 -21 4 -54t2 -61v-156h-191v793h191v-300q0 -56 16.5 -84t54.5 -28q49 0 67.5 44t18.5 126v242h192z" />
    <glyph glyph-name="paragraph" unicode="&#xb6;" horiz-adv-x="643" 
d="M579 -127h-93v775h-77v-775h-93v400q-15 -4 -27.5 -6.5t-33.5 -2.5q-62 0 -108 23t-71.5 77t-25.5 145q0 96 27.5 150.5t77.5 77.5t115 23h309v-887z" />
    <glyph glyph-name="periodcentered" unicode="&#xb7;" horiz-adv-x="289" 
d="M42 353q0 52 30.5 73t73.5 21q41 0 70.5 -21t29.5 -73q0 -49 -29.5 -71t-70.5 -22q-43 0 -73.5 22t-30.5 71z" />
    <glyph glyph-name="cedilla" unicode="&#xb8;" horiz-adv-x="288" 
d="M264 -123q0 -53 -36.5 -85t-97.5 -32q-34 0 -62 5t-46 12v94q17 -5 33 -8t32 -3q40 0 40 28q0 17 -16.5 27t-54.5 17l30 68h95l-9 -30q20 -4 41.5 -14t36 -28.5t14.5 -50.5z" />
    <glyph glyph-name="uni00B9" unicode="&#xb9;" horiz-adv-x="399" 
d="M301 844v-428h-138v174q0 11 1 33.5t2 44t2 28.5q-4 -9 -13 -18.5t-17 -16.5l-39 -34l-71 83l166 134h107z" />
    <glyph glyph-name="ordmasculine" unicode="&#xba;" horiz-adv-x="392" 
d="M369 539q0 -87 -47 -135t-127 -48q-75 0 -123 49t-48 134q0 88 46.5 135.5t126.5 47.5q49 0 87.5 -22t61.5 -62.5t23 -98.5zM147 539q0 -84 49 -84q48 0 48 84q0 85 -48 85q-49 0 -49 -85z" />
    <glyph glyph-name="guillemotright" unicode="&#xbb;" horiz-adv-x="681" 
d="M645 274l-189 -235l-139 72l134 170l-134 169l139 73l189 -236v-13zM364 274l-189 -235l-138 72l133 170l-133 169l138 73l189 -236v-13z" />
    <glyph glyph-name="onequarter" unicode="&#xbc;" horiz-adv-x="887" 
d="M174 0l368 714h147l-368 -714h-147zM129 460q0 14 1 46.5t4 59.5q-2 -4 -10 -13.5t-18 -19.5l-41 -36l-71 83l166 134h107v-428h-138v174zM683 0v68h-181v92l171 271h144v-265h61v-98h-61v-68h-134zM606 166h77v81q0 35 3 66q-10 -25 -17.5 -41t-12.5 -24z" />
    <glyph glyph-name="onehalf" unicode="&#xbd;" horiz-adv-x="926" 
d="M186 0l368 714h147l-368 -714h-147zM129 460q0 4 0.5 20t1.5 35t2 34t1 17q-2 -4 -11.5 -15t-19.5 -20l-38 -34l-71 83l166 134h107v-428h-138v174zM564 0v101l105 104q41 41 57 63t16 39q0 28 -32 28q-40 0 -84 -43l-69 81q39 36 81.5 51t99.5 15q69 0 107 -30.5
t38 -85.5q0 -40 -18.5 -71t-44.5 -57l-96 -85h169v-110h-329z" />
    <glyph glyph-name="threequarters" unicode="&#xbe;" horiz-adv-x="922" 
d="M195 278q-90 0 -151 34v114q56 -40 145 -40q57 0 57 33q0 20 -16 27.5t-50 7.5h-51v95h39q68 0 68 38q0 12 -10 22.5t-35 10.5q-24 0 -45.5 -8t-47.5 -28l-57 83q74 56 167 56q72 0 114 -28t42 -77q0 -38 -18 -64.5t-61 -42.5v-4q93 -24 93 -105q0 -59 -48 -91.5
t-135 -32.5zM227 0l368 714h147l-368 -714h-147zM718 0v68h-181v92l171 271h144v-265h61v-98h-61v-68h-134zM641 166h77v81q0 35 3 66q-10 -25 -17.5 -41t-12.5 -24z" />
    <glyph glyph-name="questiondown" unicode="&#xbf;" horiz-adv-x="505" 
d="M382 470q0 -52 -30 -73t-73 -21q-41 0 -71 21t-30 73q0 50 30 71.5t71 21.5q43 0 73 -21.5t30 -71.5zM361 257q0 -45 -18 -78.5t-71 -66.5q-33 -21 -49 -36.5t-20.5 -28t-4.5 -26.5q0 -20 18.5 -32t48.5 -12q73 0 172 52l68 -133q-55 -31 -117.5 -50t-136.5 -19
q-111 0 -172 49t-61 129q0 58 27 101t89 83q44 29 60.5 45.5t16.5 39.5v25h150v-42z" />
    <glyph glyph-name="Agrave" unicode="&#xc0;" horiz-adv-x="726" 
d="M515 0l-35 134h-232l-36 -134h-212l233 717h257l236 -717h-211zM409 409q-5 19 -14 54.5t-18 73.5t-14 62q-4 -24 -12.5 -60t-17 -71t-14.5 -59l-31 -117h152zM404 927q17 -22 40.5 -49t47.5 -52.5t40 -44.5v-14h-127q-20 13 -48.5 32.5t-59 41t-58 42t-45.5 34.5v10h210
z" />
    <glyph glyph-name="Aacute" unicode="&#xc1;" horiz-adv-x="726" 
d="M515 0l-35 134h-232l-36 -134h-212l233 717h257l236 -717h-211zM409 409q-5 19 -14 54.5t-18 73.5t-14 62q-4 -24 -12.5 -60t-17 -71t-14.5 -59l-31 -117h152zM602 917q-18 -14 -45 -34.5t-58 -42t-59.5 -41t-48.5 -32.5h-127v14q17 19 41 44.5t48 52.5t40 49h209v-10z
" />
    <glyph glyph-name="Acircumflex" unicode="&#xc2;" horiz-adv-x="726" 
d="M515 0l-35 134h-232l-36 -134h-212l233 717h257l236 -717h-211zM409 409q-5 19 -14 54.5t-18 73.5t-14 62q-4 -24 -12.5 -60t-17 -71t-14.5 -59l-31 -117h152zM460 927q16 -23 38.5 -50.5t46 -53t40.5 -42.5v-14h-124q-26 15 -49 33t-49 40q-26 -22 -47.5 -39t-47.5 -34
h-126v14q19 18 42.5 43.5t46 52.5t37.5 50h192z" />
    <glyph glyph-name="Atilde" unicode="&#xc3;" horiz-adv-x="726" 
d="M515 0l-35 134h-232l-36 -134h-212l233 717h257l236 -717h-211zM409 409q-5 19 -14 54.5t-18 73.5t-14 62q-4 -24 -12.5 -60t-17 -71t-14.5 -59l-31 -117h152zM158 765q6 92 37.5 129.5t85.5 37.5q25 0 53.5 -11.5t57 -23.5t53.5 -12q9 0 19.5 8.5t15.5 39.5h89
q-6 -90 -39 -128.5t-81 -38.5q-29 0 -58.5 12t-57 23.5t-52.5 11.5q-9 0 -19 -8t-16 -40h-88z" />
    <glyph glyph-name="Adieresis" unicode="&#xc4;" horiz-adv-x="726" 
d="M515 0l-35 134h-232l-36 -134h-212l233 717h257l236 -717h-211zM409 409q-5 19 -14 54.5t-18 73.5t-14 62q-4 -24 -12.5 -60t-17 -71t-14.5 -59l-31 -117h152zM162 851q0 40 24 58.5t59 18.5q34 0 59 -18.5t25 -58.5q0 -39 -25 -57.5t-59 -18.5q-35 0 -59 18.5t-24 57.5z
M396 851q0 40 24 58.5t60 18.5q34 0 59 -18.5t25 -58.5q0 -39 -25 -57.5t-59 -18.5q-36 0 -60 18.5t-24 57.5z" />
    <glyph glyph-name="Aring" unicode="&#xc5;" horiz-adv-x="726" 
d="M515 0l-35 134h-232l-36 -134h-212l233 717h257l236 -717h-211zM409 409q-5 19 -14 54.5t-18 73.5t-14 62q-4 -24 -12.5 -60t-17 -71t-14.5 -59l-31 -117h152zM360 636q-58 0 -93.5 33t-35.5 90q0 58 35.5 91t93.5 33q55 0 94 -33t39 -90q0 -58 -38.5 -91t-94.5 -33z
M360 718q17 0 29 11.5t12 29.5q0 19 -12 30t-29 11t-29 -11t-12 -30q0 -18 10.5 -29.5t30.5 -11.5z" />
    <glyph glyph-name="AE" unicode="&#xc6;" horiz-adv-x="946" 
d="M898 0h-425v134h-213l-49 -134h-216l307 714h596v-155h-231v-112h214v-155h-214v-135h231v-157zM319 294h154v257h-54z" />
    <glyph glyph-name="Ccedilla" unicode="&#xc7;" horiz-adv-x="649" 
d="M395 566q-68 0 -107 -56t-39 -156q0 -101 39 -153.5t118 -52.5q47 0 91.5 13t89.5 32v-163q-47 -21 -96.5 -30.5t-105.5 -9.5q-116 0 -190 46t-109 128.5t-35 190.5t40 191t117.5 130.5t188.5 47.5q52 0 109 -12t112 -38l-59 -152q-39 19 -79 31.5t-85 12.5zM494 -123
q0 -53 -36.5 -85t-97.5 -32q-34 0 -62 5t-46 12v94q17 -5 33 -8t32 -3q40 0 40 28q0 17 -16.5 27t-54.5 17l30 68h95l-9 -30q20 -4 41.5 -14t36 -28.5t14.5 -50.5z" />
    <glyph glyph-name="Egrave" unicode="&#xc8;" horiz-adv-x="549" 
d="M501 0h-424v714h424v-155h-231v-112h214v-155h-214v-135h231v-157zM330 927q17 -22 40.5 -49t47.5 -52.5t40 -44.5v-14h-127q-20 13 -48.5 32.5t-59 41t-58 42t-45.5 34.5v10h210z" />
    <glyph glyph-name="Eacute" unicode="&#xc9;" horiz-adv-x="549" 
d="M501 0h-424v714h424v-155h-231v-112h214v-155h-214v-135h231v-157zM528 917q-18 -14 -45 -34.5t-58 -42t-59.5 -41t-48.5 -32.5h-127v14q17 19 41 44.5t48 52.5t40 49h209v-10z" />
    <glyph glyph-name="Ecircumflex" unicode="&#xca;" horiz-adv-x="549" 
d="M501 0h-424v714h424v-155h-231v-112h214v-155h-214v-135h231v-157zM386 927q16 -23 38.5 -50.5t46 -53t40.5 -42.5v-14h-124q-26 15 -49 33t-49 40q-26 -22 -47.5 -39t-47.5 -34h-126v14q19 18 42.5 43.5t46 52.5t37.5 50h192z" />
    <glyph glyph-name="Edieresis" unicode="&#xcb;" horiz-adv-x="549" 
d="M501 0h-424v714h424v-155h-231v-112h214v-155h-214v-135h231v-157zM88 851q0 40 24 58.5t59 18.5q34 0 59 -18.5t25 -58.5q0 -39 -25 -57.5t-59 -18.5q-35 0 -59 18.5t-24 57.5zM322 851q0 40 24 58.5t60 18.5q34 0 59 -18.5t25 -58.5q0 -39 -25 -57.5t-59 -18.5
q-36 0 -60 18.5t-24 57.5z" />
    <glyph glyph-name="Igrave" unicode="&#xcc;" horiz-adv-x="440" 
d="M406 0h-372v110l89 34v427l-89 33v110h372v-110l-89 -33v-427l89 -34v-110zM261 927q17 -22 40.5 -49t47.5 -52.5t40 -44.5v-14h-127q-20 13 -48.5 32.5t-59 41t-58 42t-45.5 34.5v10h210z" />
    <glyph glyph-name="Iacute" unicode="&#xcd;" horiz-adv-x="440" 
d="M406 0h-372v110l89 34v427l-89 33v110h372v-110l-89 -33v-427l89 -34v-110zM459 917q-18 -14 -45 -34.5t-58 -42t-59.5 -41t-48.5 -32.5h-127v14q17 19 41 44.5t48 52.5t40 49h209v-10z" />
    <glyph glyph-name="Icircumflex" unicode="&#xce;" horiz-adv-x="440" 
d="M406 0h-372v110l89 34v427l-89 33v110h372v-110l-89 -33v-427l89 -34v-110zM317 927q16 -23 38.5 -50.5t46 -53t40.5 -42.5v-14h-124q-26 15 -49 33t-49 40q-26 -22 -47.5 -39t-47.5 -34h-126v14q19 18 42.5 43.5t46 52.5t37.5 50h192z" />
    <glyph glyph-name="Idieresis" unicode="&#xcf;" horiz-adv-x="440" 
d="M406 0h-372v110l89 34v427l-89 33v110h372v-110l-89 -33v-427l89 -34v-110zM19 851q0 40 24 58.5t59 18.5q34 0 59 -18.5t25 -58.5q0 -39 -25 -57.5t-59 -18.5q-35 0 -59 18.5t-24 57.5zM253 851q0 40 24 58.5t60 18.5q34 0 59 -18.5t25 -58.5q0 -39 -25 -57.5t-59 -18.5
q-36 0 -60 18.5t-24 57.5z" />
    <glyph glyph-name="Eth" unicode="&#xd0;" horiz-adv-x="734" 
d="M324 714q173 0 266 -88t93 -254q0 -124 -46.5 -207t-130.5 -124t-198 -41h-231v275h-62v156h62v283h247zM326 558h-56v-127h103v-156h-103v-117h43q88 0 129 51t41 156q0 193 -157 193z" />
    <glyph glyph-name="Ntilde" unicode="&#xd1;" horiz-adv-x="834" 
d="M757 0h-253l-261 503h-4q2 -23 4 -55.5t3.5 -65.5t1.5 -60v-322h-171v714h252l260 -496h3q-1 23 -3 54t-3 63t-1 56v323h172v-714zM212 765q6 92 37.5 129.5t85.5 37.5q25 0 53.5 -11.5t57 -23.5t53.5 -12q9 0 19.5 8.5t15.5 39.5h89q-6 -90 -39 -128.5t-81 -38.5
q-29 0 -58.5 12t-57 23.5t-52.5 11.5q-9 0 -19 -8t-16 -40h-88z" />
    <glyph glyph-name="Ograve" unicode="&#xd2;" horiz-adv-x="797" 
d="M745 358q0 -111 -35.5 -193.5t-112 -128.5t-199.5 -46q-120 0 -197 46t-113.5 129t-36.5 194t37 193.5t114 127.5t197 45q122 0 198.5 -45.5t112 -128t35.5 -193.5zM254 358q0 -97 33.5 -152t110.5 -55q80 0 112 55t32 152t-32 153t-111 56t-112 -56t-33 -153zM440 927
q17 -22 40.5 -49t47.5 -52.5t40 -44.5v-14h-127q-20 13 -48.5 32.5t-59 41t-58 42t-45.5 34.5v10h210z" />
    <glyph glyph-name="Oacute" unicode="&#xd3;" horiz-adv-x="797" 
d="M745 358q0 -111 -35.5 -193.5t-112 -128.5t-199.5 -46q-120 0 -197 46t-113.5 129t-36.5 194t37 193.5t114 127.5t197 45q122 0 198.5 -45.5t112 -128t35.5 -193.5zM254 358q0 -97 33.5 -152t110.5 -55q80 0 112 55t32 152t-32 153t-111 56t-112 -56t-33 -153zM638 917
q-18 -14 -45 -34.5t-58 -42t-59.5 -41t-48.5 -32.5h-127v14q17 19 41 44.5t48 52.5t40 49h209v-10z" />
    <glyph glyph-name="Ocircumflex" unicode="&#xd4;" horiz-adv-x="797" 
d="M745 358q0 -111 -35.5 -193.5t-112 -128.5t-199.5 -46q-120 0 -197 46t-113.5 129t-36.5 194t37 193.5t114 127.5t197 45q122 0 198.5 -45.5t112 -128t35.5 -193.5zM254 358q0 -97 33.5 -152t110.5 -55q80 0 112 55t32 152t-32 153t-111 56t-112 -56t-33 -153zM496 927
q16 -23 38.5 -50.5t46 -53t40.5 -42.5v-14h-124q-26 15 -49 33t-49 40q-26 -22 -47.5 -39t-47.5 -34h-126v14q19 18 42.5 43.5t46 52.5t37.5 50h192z" />
    <glyph glyph-name="Otilde" unicode="&#xd5;" horiz-adv-x="797" 
d="M745 358q0 -111 -35.5 -193.5t-112 -128.5t-199.5 -46q-120 0 -197 46t-113.5 129t-36.5 194t37 193.5t114 127.5t197 45q122 0 198.5 -45.5t112 -128t35.5 -193.5zM254 358q0 -97 33.5 -152t110.5 -55q80 0 112 55t32 152t-32 153t-111 56t-112 -56t-33 -153zM194 765
q6 92 37.5 129.5t85.5 37.5q25 0 53.5 -11.5t57 -23.5t53.5 -12q9 0 19.5 8.5t15.5 39.5h89q-6 -90 -39 -128.5t-81 -38.5q-29 0 -58.5 12t-57 23.5t-52.5 11.5q-9 0 -19 -8t-16 -40h-88z" />
    <glyph glyph-name="Odieresis" unicode="&#xd6;" horiz-adv-x="797" 
d="M745 358q0 -111 -35.5 -193.5t-112 -128.5t-199.5 -46q-120 0 -197 46t-113.5 129t-36.5 194t37 193.5t114 127.5t197 45q122 0 198.5 -45.5t112 -128t35.5 -193.5zM254 358q0 -97 33.5 -152t110.5 -55q80 0 112 55t32 152t-32 153t-111 56t-112 -56t-33 -153zM198 851
q0 40 24 58.5t59 18.5q34 0 59 -18.5t25 -58.5q0 -39 -25 -57.5t-59 -18.5q-35 0 -59 18.5t-24 57.5zM432 851q0 40 24 58.5t60 18.5q34 0 59 -18.5t25 -58.5q0 -39 -25 -57.5t-59 -18.5q-36 0 -60 18.5t-24 57.5z" />
    <glyph glyph-name="multiply" unicode="&#xd7;" horiz-adv-x="586" 
d="M424 576l92 -89l-134 -134l132 -133l-90 -90l-134 132l-132 -131l-88 91l129 131l-130 131l89 92l132 -130z" />
    <glyph glyph-name="Oslash" unicode="&#xd8;" horiz-adv-x="797" 
d="M745 358q0 -111 -35.5 -193.5t-112 -128.5t-199.5 -46q-85 0 -150 21l-41 -64l-94 61l41 61q-53 49 -78 122.5t-25 167.5q0 111 37 193.5t114 127.5t197 45q95 0 161 -27l37 58l93 -56l-40 -61q50 -48 72.5 -120t22.5 -161zM254 358q0 -34 3 -63.5t11 -53.5l197 312
q-14 6 -31 10t-35 4q-79 0 -112 -56t-33 -153zM542 358q0 61 -9 103l-192 -303q12 -3 26.5 -5t30.5 -2q80 0 112 55t32 152z" />
    <glyph glyph-name="Ugrave" unicode="&#xd9;" horiz-adv-x="757" 
d="M684 284q0 -135 -76.5 -214.5t-231.5 -79.5q-148 0 -225.5 75.5t-77.5 214.5v434h194v-419q0 -76 28.5 -110t83.5 -34q59 0 85.5 34.5t26.5 110.5v418h193v-430zM420 927q17 -22 40.5 -49t47.5 -52.5t40 -44.5v-14h-127q-20 13 -48.5 32.5t-59 41t-58 42t-45.5 34.5v10
h210z" />
    <glyph glyph-name="Uacute" unicode="&#xda;" horiz-adv-x="757" 
d="M684 284q0 -135 -76.5 -214.5t-231.5 -79.5q-148 0 -225.5 75.5t-77.5 214.5v434h194v-419q0 -76 28.5 -110t83.5 -34q59 0 85.5 34.5t26.5 110.5v418h193v-430zM618 917q-18 -14 -45 -34.5t-58 -42t-59.5 -41t-48.5 -32.5h-127v14q17 19 41 44.5t48 52.5t40 49h209v-10z
" />
    <glyph glyph-name="Ucircumflex" unicode="&#xdb;" horiz-adv-x="757" 
d="M684 284q0 -135 -76.5 -214.5t-231.5 -79.5q-148 0 -225.5 75.5t-77.5 214.5v434h194v-419q0 -76 28.5 -110t83.5 -34q59 0 85.5 34.5t26.5 110.5v418h193v-430zM476 927q16 -23 38.5 -50.5t46 -53t40.5 -42.5v-14h-124q-26 15 -49 33t-49 40q-26 -22 -47.5 -39
t-47.5 -34h-126v14q19 18 42.5 43.5t46 52.5t37.5 50h192z" />
    <glyph glyph-name="Udieresis" unicode="&#xdc;" horiz-adv-x="757" 
d="M684 284q0 -135 -76.5 -214.5t-231.5 -79.5q-148 0 -225.5 75.5t-77.5 214.5v434h194v-419q0 -76 28.5 -110t83.5 -34q59 0 85.5 34.5t26.5 110.5v418h193v-430zM178 851q0 40 24 58.5t59 18.5q34 0 59 -18.5t25 -58.5q0 -39 -25 -57.5t-59 -18.5q-35 0 -59 18.5
t-24 57.5zM412 851q0 40 24 58.5t60 18.5q34 0 59 -18.5t25 -58.5q0 -39 -25 -57.5t-59 -18.5q-36 0 -60 18.5t-24 57.5z" />
    <glyph glyph-name="Yacute" unicode="&#xdd;" horiz-adv-x="664" 
d="M332 449l123 265h209l-235 -435v-279h-194v273l-235 441h210zM571 917q-18 -14 -45 -34.5t-58 -42t-59.5 -41t-48.5 -32.5h-127v14q17 19 41 44.5t48 52.5t40 49h209v-10z" />
    <glyph glyph-name="Thorn" unicode="&#xde;" horiz-adv-x="627" 
d="M595 383q0 -49 -14 -93.5t-45.5 -80t-83.5 -56t-128 -20.5h-54v-133h-193v714h193v-104h54q136 0 203.5 -59t67.5 -168zM305 290q38 0 66.5 21.5t28.5 70.5q0 34 -19 53t-61 19h-50v-164h35z" />
    <glyph glyph-name="germandbls" unicode="&#xdf;" horiz-adv-x="750" 
d="M654 581q0 -42 -20 -72.5t-45.5 -51.5t-45.5 -35.5t-20 -25.5q0 -19 26 -31.5t75 -44.5q50 -31 73.5 -65t23.5 -92q0 -84 -56.5 -128.5t-164.5 -44.5q-67 0 -108 6.5t-73 22.5v142q17 -10 41 -19t49.5 -14.5t45.5 -5.5q28 0 47.5 11t19.5 31q0 11 -5.5 20.5t-25 22.5
t-60.5 34q-61 32 -85 60.5t-24 67.5q0 31 13.5 52.5t34 38t41 31t34 31t13.5 39.5q0 25 -24.5 41.5t-68.5 16.5q-55 0 -81.5 -26.5t-26.5 -75.5v-517h-191v537q0 74 39 124.5t106.5 77t153.5 26.5q84 0 149.5 -20.5t102.5 -61t37 -102.5z" />
    <glyph glyph-name="agrave" unicode="&#xe0;" horiz-adv-x="623" 
d="M336 563q105 0 164 -52t59 -148v-363h-132l-37 73h-4q-23 -29 -47.5 -47.5t-56.5 -27t-78 -8.5q-72 0 -120 44t-48 135q0 89 61.5 132t178.5 48l92 3v8q0 37 -18 52.5t-49 15.5q-33 0 -73 -11.5t-81 -29.5l-55 126q48 25 108.5 37.5t135.5 12.5zM325 245
q-52 -2 -73.5 -18.5t-21.5 -46.5q0 -28 15 -41.5t40 -13.5q35 0 59.5 22t24.5 57v43zM353 766q17 -22 40.5 -49t47.5 -52.5t40 -44.5v-14h-127q-20 13 -48.5 32.5t-59 41t-58 42t-45.5 34.5v10h210z" />
    <glyph glyph-name="aacute" unicode="&#xe1;" horiz-adv-x="623" 
d="M336 563q105 0 164 -52t59 -148v-363h-132l-37 73h-4q-23 -29 -47.5 -47.5t-56.5 -27t-78 -8.5q-72 0 -120 44t-48 135q0 89 61.5 132t178.5 48l92 3v8q0 37 -18 52.5t-49 15.5q-33 0 -73 -11.5t-81 -29.5l-55 126q48 25 108.5 37.5t135.5 12.5zM325 245
q-52 -2 -73.5 -18.5t-21.5 -46.5q0 -28 15 -41.5t40 -13.5q35 0 59.5 22t24.5 57v43zM551 756q-18 -14 -45 -34.5t-58 -42t-59.5 -41t-48.5 -32.5h-127v14q17 19 41 44.5t48 52.5t40 49h209v-10z" />
    <glyph glyph-name="acircumflex" unicode="&#xe2;" horiz-adv-x="623" 
d="M336 563q105 0 164 -52t59 -148v-363h-132l-37 73h-4q-23 -29 -47.5 -47.5t-56.5 -27t-78 -8.5q-72 0 -120 44t-48 135q0 89 61.5 132t178.5 48l92 3v8q0 37 -18 52.5t-49 15.5q-33 0 -73 -11.5t-81 -29.5l-55 126q48 25 108.5 37.5t135.5 12.5zM325 245
q-52 -2 -73.5 -18.5t-21.5 -46.5q0 -28 15 -41.5t40 -13.5q35 0 59.5 22t24.5 57v43zM409 766q16 -23 38.5 -50.5t46 -53t40.5 -42.5v-14h-124q-26 15 -49 33t-49 40q-26 -22 -47.5 -39t-47.5 -34h-126v14q19 18 42.5 43.5t46 52.5t37.5 50h192z" />
    <glyph glyph-name="atilde" unicode="&#xe3;" horiz-adv-x="623" 
d="M336 563q105 0 164 -52t59 -148v-363h-132l-37 73h-4q-23 -29 -47.5 -47.5t-56.5 -27t-78 -8.5q-72 0 -120 44t-48 135q0 89 61.5 132t178.5 48l92 3v8q0 37 -18 52.5t-49 15.5q-33 0 -73 -11.5t-81 -29.5l-55 126q48 25 108.5 37.5t135.5 12.5zM325 245
q-52 -2 -73.5 -18.5t-21.5 -46.5q0 -28 15 -41.5t40 -13.5q35 0 59.5 22t24.5 57v43zM107 604q6 92 37.5 129.5t85.5 37.5q25 0 53.5 -11.5t57 -23.5t53.5 -12q9 0 19.5 8.5t15.5 39.5h89q-6 -90 -39 -128.5t-81 -38.5q-29 0 -58.5 12t-57 23.5t-52.5 11.5q-9 0 -19 -8
t-16 -40h-88z" />
    <glyph glyph-name="adieresis" unicode="&#xe4;" horiz-adv-x="623" 
d="M336 563q105 0 164 -52t59 -148v-363h-132l-37 73h-4q-23 -29 -47.5 -47.5t-56.5 -27t-78 -8.5q-72 0 -120 44t-48 135q0 89 61.5 132t178.5 48l92 3v8q0 37 -18 52.5t-49 15.5q-33 0 -73 -11.5t-81 -29.5l-55 126q48 25 108.5 37.5t135.5 12.5zM325 245
q-52 -2 -73.5 -18.5t-21.5 -46.5q0 -28 15 -41.5t40 -13.5q35 0 59.5 22t24.5 57v43zM111 690q0 40 24 58.5t59 18.5q34 0 59 -18.5t25 -58.5q0 -39 -25 -57.5t-59 -18.5q-35 0 -59 18.5t-24 57.5zM345 690q0 40 24 58.5t60 18.5q34 0 59 -18.5t25 -58.5q0 -39 -25 -57.5
t-59 -18.5q-36 0 -60 18.5t-24 57.5z" />
    <glyph glyph-name="aring" unicode="&#xe5;" horiz-adv-x="623" 
d="M336 563q105 0 164 -52t59 -148v-363h-132l-37 73h-4q-23 -29 -47.5 -47.5t-56.5 -27t-78 -8.5q-72 0 -120 44t-48 135q0 89 61.5 132t178.5 48l92 3v8q0 37 -18 52.5t-49 15.5q-33 0 -73 -11.5t-81 -29.5l-55 126q48 25 108.5 37.5t135.5 12.5zM325 245
q-52 -2 -73.5 -18.5t-21.5 -46.5q0 -28 15 -41.5t40 -13.5q35 0 59.5 22t24.5 57v43zM310 604q-58 0 -93.5 33t-35.5 90q0 58 35.5 91t93.5 33q55 0 94 -33t39 -90q0 -58 -38.5 -91t-94.5 -33zM310 686q17 0 29 11.5t12 29.5q0 19 -12 30t-29 11t-29 -11t-12 -30
q0 -18 10.5 -29.5t30.5 -11.5z" />
    <glyph glyph-name="ae" unicode="&#xe6;" horiz-adv-x="935" 
d="M653 563q70 0 124 -28t85 -84.5t31 -141.5v-84h-340q2 -40 34 -69.5t93 -29.5q38 0 84.5 9t93.5 33v-137q-40 -21 -86 -31t-117 -10q-63 0 -117.5 22.5t-92.5 70.5q-34 -35 -64.5 -55.5t-69.5 -29t-99 -8.5q-46 0 -86 19.5t-65 60t-25 102.5t30.5 100t85 56.5t127.5 20.5
l89 3v9q0 40 -20 53.5t-46 13.5q-33 0 -73.5 -10.5t-79.5 -28.5l-54 125q47 25 104 37t118 12q97 0 164 -46q35 24 75 35t97 11zM642 433q-35 0 -58.5 -19.5t-27.5 -68.5h166q-1 36 -21.5 62t-58.5 26zM328 245q-56 -1 -76.5 -20t-20.5 -51q0 -27 15 -38t40 -11
q34 0 58.5 22t24.5 57v43z" />
    <glyph glyph-name="ccedilla" unicode="&#xe7;" horiz-adv-x="539" 
d="M318 -10q-126 0 -201 68t-75 216q0 101 38 164.5t103.5 94t149.5 30.5q51 0 96.5 -11t84.5 -31l-56 -141q-34 15 -63.5 24t-61.5 9q-43 0 -70 -34t-27 -104q0 -72 27.5 -102.5t70.5 -30.5q41 0 82.5 13t78.5 36v-152q-34 -22 -77 -35.5t-100 -13.5zM430 -123
q0 -53 -36.5 -85t-97.5 -32q-34 0 -62 5t-46 12v94q17 -5 33 -8t32 -3q40 0 40 28q0 17 -16.5 27t-54.5 17l30 68h95l-9 -30q20 -4 41.5 -14t36 -28.5t14.5 -50.5z" />
    <glyph glyph-name="egrave" unicode="&#xe8;" horiz-adv-x="618" 
d="M315 563q121 0 191 -63t70 -190v-85h-341q2 -43 32.5 -71t88.5 -28q52 0 95 10t89 32v-137q-40 -21 -87.5 -31t-119.5 -10q-84 0 -149.5 29.5t-103.5 92.5t-38 161q0 100 34.5 164t96 95t142.5 31zM322 433q-34 0 -56.5 -21t-26.5 -67h164q-1 37 -21.5 62.5t-59.5 25.5z
M350 766q17 -22 40.5 -49t47.5 -52.5t40 -44.5v-14h-127q-20 13 -48.5 32.5t-59 41t-58 42t-45.5 34.5v10h210z" />
    <glyph glyph-name="eacute" unicode="&#xe9;" horiz-adv-x="618" 
d="M315 563q121 0 191 -63t70 -190v-85h-341q2 -43 32.5 -71t88.5 -28q52 0 95 10t89 32v-137q-40 -21 -87.5 -31t-119.5 -10q-84 0 -149.5 29.5t-103.5 92.5t-38 161q0 100 34.5 164t96 95t142.5 31zM322 433q-34 0 -56.5 -21t-26.5 -67h164q-1 37 -21.5 62.5t-59.5 25.5z
M548 756q-18 -14 -45 -34.5t-58 -42t-59.5 -41t-48.5 -32.5h-127v14q17 19 41 44.5t48 52.5t40 49h209v-10z" />
    <glyph glyph-name="ecircumflex" unicode="&#xea;" horiz-adv-x="618" 
d="M315 563q121 0 191 -63t70 -190v-85h-341q2 -43 32.5 -71t88.5 -28q52 0 95 10t89 32v-137q-40 -21 -87.5 -31t-119.5 -10q-84 0 -149.5 29.5t-103.5 92.5t-38 161q0 100 34.5 164t96 95t142.5 31zM322 433q-34 0 -56.5 -21t-26.5 -67h164q-1 37 -21.5 62.5t-59.5 25.5z
M406 766q16 -23 38.5 -50.5t46 -53t40.5 -42.5v-14h-124q-26 15 -49 33t-49 40q-26 -22 -47.5 -39t-47.5 -34h-126v14q19 18 42.5 43.5t46 52.5t37.5 50h192z" />
    <glyph glyph-name="edieresis" unicode="&#xeb;" horiz-adv-x="618" 
d="M315 563q121 0 191 -63t70 -190v-85h-341q2 -43 32.5 -71t88.5 -28q52 0 95 10t89 32v-137q-40 -21 -87.5 -31t-119.5 -10q-84 0 -149.5 29.5t-103.5 92.5t-38 161q0 100 34.5 164t96 95t142.5 31zM322 433q-34 0 -56.5 -21t-26.5 -67h164q-1 37 -21.5 62.5t-59.5 25.5z
M108 690q0 40 24 58.5t59 18.5q34 0 59 -18.5t25 -58.5q0 -39 -25 -57.5t-59 -18.5q-35 0 -59 18.5t-24 57.5zM342 690q0 40 24 58.5t60 18.5q34 0 59 -18.5t25 -58.5q0 -39 -25 -57.5t-59 -18.5q-36 0 -60 18.5t-24 57.5z" />
    <glyph glyph-name="igrave" unicode="&#xec;" horiz-adv-x="325" 
d="M258 0h-191v553h191v-553zM204 766q17 -22 40.5 -49t47.5 -52.5t40 -44.5v-14h-127q-20 13 -48.5 32.5t-59 41t-58 42t-45.5 34.5v10h210z" />
    <glyph glyph-name="iacute" unicode="&#xed;" horiz-adv-x="325" 
d="M258 0h-191v553h191v-553zM402 756q-18 -14 -45 -34.5t-58 -42t-59.5 -41t-48.5 -32.5h-127v14q17 19 41 44.5t48 52.5t40 49h209v-10z" />
    <glyph glyph-name="icircumflex" unicode="&#xee;" horiz-adv-x="325" 
d="M258 0h-191v553h191v-553zM260 766q16 -23 38.5 -50.5t46 -53t40.5 -42.5v-14h-124q-26 15 -49 33t-49 40q-26 -22 -47.5 -39t-47.5 -34h-126v14q19 18 42.5 43.5t46 52.5t37.5 50h192z" />
    <glyph glyph-name="idieresis" unicode="&#xef;" horiz-adv-x="325" 
d="M258 0h-191v553h191v-553zM-38 690q0 40 24 58.5t59 18.5q34 0 59 -18.5t25 -58.5q0 -39 -25 -57.5t-59 -18.5q-35 0 -59 18.5t-24 57.5zM196 690q0 40 24 58.5t60 18.5q34 0 59 -18.5t25 -58.5q0 -39 -25 -57.5t-59 -18.5q-36 0 -60 18.5t-24 57.5z" />
    <glyph glyph-name="eth" unicode="&#xf0;" horiz-adv-x="641" 
d="M234 768q39 -16 71 -32t59 -34l102 67l56 -89l-71 -47q71 -69 107 -151t36 -199q0 -90 -34 -156t-96 -101.5t-147 -35.5q-79 0 -141 29t-97.5 85.5t-35.5 138.5q0 83 31 139t84 84.5t119 28.5q49 0 77.5 -10.5t41.5 -30.5l4 2q-14 27 -30 52t-40 49l-89 -58l-57 90l70 45
q-15 10 -34.5 22t-38.5 23zM319 358q-45 0 -62.5 -27.5t-17.5 -86.5q0 -53 18 -85.5t62 -32.5t62 35t18 105q0 35 -19.5 63.5t-60.5 28.5z" />
    <glyph glyph-name="ntilde" unicode="&#xf1;" horiz-adv-x="670" 
d="M412 563q86 0 140 -48t54 -155v-360h-191v302q0 55 -16 83t-51 28q-54 0 -72.5 -44t-18.5 -127v-242h-191v553h144l26 -73h7q26 39 68.5 61t100.5 22zM130 604q6 92 37.5 129.5t85.5 37.5q25 0 53.5 -11.5t57 -23.5t53.5 -12q9 0 19.5 8.5t15.5 39.5h89
q-6 -90 -39 -128.5t-81 -38.5q-29 0 -58.5 12t-57 23.5t-52.5 11.5q-9 0 -19 -8t-16 -40h-88z" />
    <glyph glyph-name="ograve" unicode="&#xf2;" horiz-adv-x="637" 
d="M594 278q0 -139 -74 -213.5t-203 -74.5q-80 0 -142 33.5t-97.5 98t-35.5 156.5q0 137 74 211t204 74q80 0 141.5 -33t97 -96.5t35.5 -155.5zM236 278q0 -71 19 -108.5t64 -37.5q44 0 62.5 37.5t18.5 108.5t-18.5 107t-63.5 36q-43 0 -62.5 -36t-19.5 -107zM360 766
q17 -22 40.5 -49t47.5 -52.5t40 -44.5v-14h-127q-20 13 -48.5 32.5t-59 41t-58 42t-45.5 34.5v10h210z" />
    <glyph glyph-name="oacute" unicode="&#xf3;" horiz-adv-x="637" 
d="M594 278q0 -139 -74 -213.5t-203 -74.5q-80 0 -142 33.5t-97.5 98t-35.5 156.5q0 137 74 211t204 74q80 0 141.5 -33t97 -96.5t35.5 -155.5zM236 278q0 -71 19 -108.5t64 -37.5q44 0 62.5 37.5t18.5 108.5t-18.5 107t-63.5 36q-43 0 -62.5 -36t-19.5 -107zM558 756
q-18 -14 -45 -34.5t-58 -42t-59.5 -41t-48.5 -32.5h-127v14q17 19 41 44.5t48 52.5t40 49h209v-10z" />
    <glyph glyph-name="ocircumflex" unicode="&#xf4;" horiz-adv-x="637" 
d="M594 278q0 -139 -74 -213.5t-203 -74.5q-80 0 -142 33.5t-97.5 98t-35.5 156.5q0 137 74 211t204 74q80 0 141.5 -33t97 -96.5t35.5 -155.5zM236 278q0 -71 19 -108.5t64 -37.5q44 0 62.5 37.5t18.5 108.5t-18.5 107t-63.5 36q-43 0 -62.5 -36t-19.5 -107zM416 766
q16 -23 38.5 -50.5t46 -53t40.5 -42.5v-14h-124q-26 15 -49 33t-49 40q-26 -22 -47.5 -39t-47.5 -34h-126v14q19 18 42.5 43.5t46 52.5t37.5 50h192z" />
    <glyph glyph-name="otilde" unicode="&#xf5;" horiz-adv-x="637" 
d="M594 278q0 -139 -74 -213.5t-203 -74.5q-80 0 -142 33.5t-97.5 98t-35.5 156.5q0 137 74 211t204 74q80 0 141.5 -33t97 -96.5t35.5 -155.5zM236 278q0 -71 19 -108.5t64 -37.5q44 0 62.5 37.5t18.5 108.5t-18.5 107t-63.5 36q-43 0 -62.5 -36t-19.5 -107zM114 604
q6 92 37.5 129.5t85.5 37.5q25 0 53.5 -11.5t57 -23.5t53.5 -12q9 0 19.5 8.5t15.5 39.5h89q-6 -90 -39 -128.5t-81 -38.5q-29 0 -58.5 12t-57 23.5t-52.5 11.5q-9 0 -19 -8t-16 -40h-88z" />
    <glyph glyph-name="odieresis" unicode="&#xf6;" horiz-adv-x="637" 
d="M594 278q0 -139 -74 -213.5t-203 -74.5q-80 0 -142 33.5t-97.5 98t-35.5 156.5q0 137 74 211t204 74q80 0 141.5 -33t97 -96.5t35.5 -155.5zM236 278q0 -71 19 -108.5t64 -37.5q44 0 62.5 37.5t18.5 108.5t-18.5 107t-63.5 36q-43 0 -62.5 -36t-19.5 -107zM118 690
q0 40 24 58.5t59 18.5q34 0 59 -18.5t25 -58.5q0 -39 -25 -57.5t-59 -18.5q-35 0 -59 18.5t-24 57.5zM352 690q0 40 24 58.5t60 18.5q34 0 59 -18.5t25 -58.5q0 -39 -25 -57.5t-59 -18.5q-36 0 -60 18.5t-24 57.5z" />
    <glyph glyph-name="divide" unicode="&#xf7;" horiz-adv-x="586" 
d="M292 460q-31 0 -53.5 20t-22.5 63q0 47 22.5 65t53.5 18q30 0 53.5 -18t23.5 -65q0 -43 -23.5 -63t-53.5 -20zM45 287v131h495v-131h-495zM292 79q-31 0 -53.5 20t-22.5 63q0 47 22.5 65t53.5 18q30 0 53.5 -18t23.5 -65q0 -43 -23.5 -63t-53.5 -20z" />
    <glyph glyph-name="oslash" unicode="&#xf8;" horiz-adv-x="665" 
d="M622 278q0 -139 -77.5 -213.5t-213.5 -74.5q-59 0 -112 17l-41 -64l-83 52l39 60q-43 37 -67.5 93t-24.5 130q0 137 78 211t214 74q31 0 60 -5t54 -14l35 54l82 -51l-33 -51q42 -36 66 -91t24 -127zM225 278q0 -21 1 -38.5t5 -33.5l141 219q-18 6 -40 6q-59 0 -83 -38.5
t-24 -114.5zM439 278q0 18 -1 34.5t-4 29.5l-138 -216q15 -4 37 -4q61 0 83.5 40t22.5 116z" />
    <glyph glyph-name="ugrave" unicode="&#xf9;" horiz-adv-x="670" 
d="M604 553v-553h-144l-24 69h-11q-26 -42 -71 -60.5t-96 -18.5q-54 0 -98 21t-69.5 66t-25.5 116v360h191v-302q0 -54 15.5 -82t50.5 -28q54 0 72.5 44t18.5 126v242h191zM376 766q17 -22 40.5 -49t47.5 -52.5t40 -44.5v-14h-127q-20 13 -48.5 32.5t-59 41t-58 42
t-45.5 34.5v10h210z" />
    <glyph glyph-name="uacute" unicode="&#xfa;" horiz-adv-x="670" 
d="M604 553v-553h-144l-24 69h-11q-26 -42 -71 -60.5t-96 -18.5q-54 0 -98 21t-69.5 66t-25.5 116v360h191v-302q0 -54 15.5 -82t50.5 -28q54 0 72.5 44t18.5 126v242h191zM574 756q-18 -14 -45 -34.5t-58 -42t-59.5 -41t-48.5 -32.5h-127v14q17 19 41 44.5t48 52.5t40 49
h209v-10z" />
    <glyph glyph-name="ucircumflex" unicode="&#xfb;" horiz-adv-x="670" 
d="M604 553v-553h-144l-24 69h-11q-26 -42 -71 -60.5t-96 -18.5q-54 0 -98 21t-69.5 66t-25.5 116v360h191v-302q0 -54 15.5 -82t50.5 -28q54 0 72.5 44t18.5 126v242h191zM432 766q16 -23 38.5 -50.5t46 -53t40.5 -42.5v-14h-124q-26 15 -49 33t-49 40q-26 -22 -47.5 -39
t-47.5 -34h-126v14q19 18 42.5 43.5t46 52.5t37.5 50h192z" />
    <glyph glyph-name="udieresis" unicode="&#xfc;" horiz-adv-x="670" 
d="M604 553v-553h-144l-24 69h-11q-26 -42 -71 -60.5t-96 -18.5q-54 0 -98 21t-69.5 66t-25.5 116v360h191v-302q0 -54 15.5 -82t50.5 -28q54 0 72.5 44t18.5 126v242h191zM134 690q0 40 24 58.5t59 18.5q34 0 59 -18.5t25 -58.5q0 -39 -25 -57.5t-59 -18.5q-35 0 -59 18.5
t-24 57.5zM368 690q0 40 24 58.5t60 18.5q34 0 59 -18.5t25 -58.5q0 -39 -25 -57.5t-59 -18.5q-36 0 -60 18.5t-24 57.5z" />
    <glyph glyph-name="yacute" unicode="&#xfd;" horiz-adv-x="610" 
d="M-1 553h201l94 -317q3 -10 5.5 -27t3.5 -33h4q2 20 5.5 34.5t6.5 24.5l96 318h195l-219 -588q-25 -67 -58.5 -113t-82.5 -69t-122 -23q-26 0 -45 2.5t-33 5.5v150q11 -2 26.5 -4t32.5 -2q47 0 69.5 27.5t36.5 63.5l2 5zM544 756q-18 -14 -45 -34.5t-58 -42t-59.5 -41
t-48.5 -32.5h-127v14q17 19 41 44.5t48 52.5t40 49h209v-10z" />
    <glyph glyph-name="thorn" unicode="&#xfe;" horiz-adv-x="643" 
d="M600 278q0 -94 -26.5 -158.5t-72 -97t-104.5 -32.5q-52 0 -85.5 19.5t-54.5 43.5h-7q3 -15 5 -36.5t2 -37.5v-219h-191v1000h191v-168q0 -40 -3 -67.5t-6 -42.5h9q19 34 55.5 57.5t91.5 23.5q86 0 141 -72.5t55 -212.5zM406 280q0 65 -16 99t-57 34t-57.5 -30t-18.5 -90
v-14q0 -66 17.5 -100.5t61.5 -34.5q39 0 54.5 34.5t15.5 101.5z" />
    <glyph glyph-name="ydieresis" unicode="&#xff;" horiz-adv-x="610" 
d="M-1 553h201l94 -317q3 -10 5.5 -27t3.5 -33h4q2 20 5.5 34.5t6.5 24.5l96 318h195l-219 -588q-25 -67 -58.5 -113t-82.5 -69t-122 -23q-26 0 -45 2.5t-33 5.5v150q11 -2 26.5 -4t32.5 -2q47 0 69.5 27.5t36.5 63.5l2 5zM104 690q0 40 24 58.5t59 18.5q34 0 59 -18.5
t25 -58.5q0 -39 -25 -57.5t-59 -18.5q-35 0 -59 18.5t-24 57.5zM338 690q0 40 24 58.5t60 18.5q34 0 59 -18.5t25 -58.5q0 -39 -25 -57.5t-59 -18.5q-36 0 -60 18.5t-24 57.5z" />
    <glyph glyph-name="Amacron" unicode="&#x100;" horiz-adv-x="726" 
d="M515 0l-35 134h-232l-36 -134h-212l233 717h257l236 -717h-211zM409 409q-5 19 -14 54.5t-18 73.5t-14 62q-4 -24 -12.5 -60t-17 -71t-14.5 -59l-31 -117h152zM541 882v-115h-355v115h355z" />
    <glyph glyph-name="amacron" unicode="&#x101;" horiz-adv-x="623" 
d="M336 563q105 0 164 -52t59 -148v-363h-132l-37 73h-4q-23 -29 -47.5 -47.5t-56.5 -27t-78 -8.5q-72 0 -120 44t-48 135q0 89 61.5 132t178.5 48l92 3v8q0 37 -18 52.5t-49 15.5q-33 0 -73 -11.5t-81 -29.5l-55 126q48 25 108.5 37.5t135.5 12.5zM325 245
q-52 -2 -73.5 -18.5t-21.5 -46.5q0 -28 15 -41.5t40 -13.5q35 0 59.5 22t24.5 57v43zM490 721v-115h-355v115h355z" />
    <glyph glyph-name="Abreve" unicode="&#x102;" horiz-adv-x="726" 
d="M515 0l-35 134h-232l-36 -134h-212l233 717h257l236 -717h-211zM409 409q-5 19 -14 54.5t-18 73.5t-14 62q-4 -24 -12.5 -60t-17 -71t-14.5 -59l-31 -117h152zM560 948q-5 -82 -56.5 -131.5t-142.5 -49.5q-95 0 -143.5 48.5t-52.5 132.5h103q11 -42 31.5 -53t61.5 -11
q32 0 57 12.5t35 51.5h107z" />
    <glyph glyph-name="abreve" unicode="&#x103;" horiz-adv-x="623" 
d="M336 563q105 0 164 -52t59 -148v-363h-132l-37 73h-4q-23 -29 -47.5 -47.5t-56.5 -27t-78 -8.5q-72 0 -120 44t-48 135q0 89 61.5 132t178.5 48l92 3v8q0 37 -18 52.5t-49 15.5q-33 0 -73 -11.5t-81 -29.5l-55 126q48 25 108.5 37.5t135.5 12.5zM325 245
q-52 -2 -73.5 -18.5t-21.5 -46.5q0 -28 15 -41.5t40 -13.5q35 0 59.5 22t24.5 57v43zM509 787q-5 -82 -56.5 -131.5t-142.5 -49.5q-95 0 -143.5 48.5t-52.5 132.5h103q11 -42 31.5 -53t61.5 -11q32 0 57 12.5t35 51.5h107z" />
    <glyph glyph-name="Aogonek" unicode="&#x104;" horiz-adv-x="726" 
d="M515 0l-35 134h-232l-36 -134h-212l233 717h257l236 -717h-211zM409 409q-5 19 -14 54.5t-18 73.5t-14 62q-4 -24 -12.5 -60t-17 -71t-14.5 -59l-31 -117h152zM613 -97q0 -18 10.5 -25.5t27.5 -7.5q13 0 30.5 3.5t27.5 7.5v-108q-16 -5 -37 -9t-48 -4q-57 0 -96 30.5
t-39 82.5q0 34 23.5 70.5t90.5 81.5l75 -25q-34 -32 -49.5 -53t-15.5 -44z" />
    <glyph glyph-name="aogonek" unicode="&#x105;" horiz-adv-x="623" 
d="M336 563q105 0 164 -52t59 -148v-363h-132l-37 73h-4q-23 -29 -47.5 -47.5t-56.5 -27t-78 -8.5q-72 0 -120 44t-48 135q0 89 61.5 132t178.5 48l92 3v8q0 37 -18 52.5t-49 15.5q-33 0 -73 -11.5t-81 -29.5l-55 126q48 25 108.5 37.5t135.5 12.5zM325 245
q-52 -2 -73.5 -18.5t-21.5 -46.5q0 -28 15 -41.5t40 -13.5q35 0 59.5 22t24.5 57v43zM466 -97q0 -18 10.5 -25.5t27.5 -7.5q13 0 30.5 3.5t27.5 7.5v-108q-16 -5 -37 -9t-48 -4q-57 0 -96 30.5t-39 82.5q0 34 23.5 70.5t90.5 81.5l75 -25q-34 -32 -49.5 -53t-15.5 -44z" />
    <glyph glyph-name="Cacute" unicode="&#x106;" horiz-adv-x="649" 
d="M395 566q-68 0 -107 -56t-39 -156q0 -101 39 -153.5t118 -52.5q47 0 91.5 13t89.5 32v-163q-47 -21 -96.5 -30.5t-105.5 -9.5q-116 0 -190 46t-109 128.5t-35 190.5t40 191t117.5 130.5t188.5 47.5q52 0 109 -12t112 -38l-59 -152q-39 19 -79 31.5t-85 12.5zM604 917
q-18 -14 -45 -34.5t-58 -42t-59.5 -41t-48.5 -32.5h-127v14q17 19 41 44.5t48 52.5t40 49h209v-10z" />
    <glyph glyph-name="cacute" unicode="&#x107;" horiz-adv-x="539" 
d="M318 -10q-126 0 -201 68t-75 216q0 101 38 164.5t103.5 94t149.5 30.5q51 0 96.5 -11t84.5 -31l-56 -141q-34 15 -63.5 24t-61.5 9q-43 0 -70 -34t-27 -104q0 -72 27.5 -102.5t70.5 -30.5q41 0 82.5 13t78.5 36v-152q-34 -22 -77 -35.5t-100 -13.5zM532 756
q-18 -14 -45 -34.5t-58 -42t-59.5 -41t-48.5 -32.5h-127v14q17 19 41 44.5t48 52.5t40 49h209v-10z" />
    <glyph glyph-name="Ccircumflex" unicode="&#x108;" horiz-adv-x="649" 
d="M395 566q-68 0 -107 -56t-39 -156q0 -101 39 -153.5t118 -52.5q47 0 91.5 13t89.5 32v-163q-47 -21 -96.5 -30.5t-105.5 -9.5q-116 0 -190 46t-109 128.5t-35 190.5t40 191t117.5 130.5t188.5 47.5q52 0 109 -12t112 -38l-59 -152q-39 19 -79 31.5t-85 12.5zM462 927
q16 -23 38.5 -50.5t46 -53t40.5 -42.5v-14h-124q-26 15 -49 33t-49 40q-26 -22 -47.5 -39t-47.5 -34h-126v14q19 18 42.5 43.5t46 52.5t37.5 50h192z" />
    <glyph glyph-name="ccircumflex" unicode="&#x109;" horiz-adv-x="539" 
d="M318 -10q-126 0 -201 68t-75 216q0 101 38 164.5t103.5 94t149.5 30.5q51 0 96.5 -11t84.5 -31l-56 -141q-34 15 -63.5 24t-61.5 9q-43 0 -70 -34t-27 -104q0 -72 27.5 -102.5t70.5 -30.5q41 0 82.5 13t78.5 36v-152q-34 -22 -77 -35.5t-100 -13.5zM390 766
q16 -23 38.5 -50.5t46 -53t40.5 -42.5v-14h-124q-26 15 -49 33t-49 40q-26 -22 -47.5 -39t-47.5 -34h-126v14q19 18 42.5 43.5t46 52.5t37.5 50h192z" />
    <glyph glyph-name="Cdotaccent" unicode="&#x10a;" horiz-adv-x="649" 
d="M395 566q-68 0 -107 -56t-39 -156q0 -101 39 -153.5t118 -52.5q47 0 91.5 13t89.5 32v-163q-47 -21 -96.5 -30.5t-105.5 -9.5q-116 0 -190 46t-109 128.5t-35 190.5t40 191t117.5 130.5t188.5 47.5q52 0 109 -12t112 -38l-59 -152q-39 19 -79 31.5t-85 12.5zM365 937
q41 0 71.5 -17t30.5 -68q0 -49 -30.5 -66.5t-71.5 -17.5q-42 0 -71.5 17.5t-29.5 66.5q0 51 29.5 68t71.5 17z" />
    <glyph glyph-name="cdotaccent" unicode="&#x10b;" horiz-adv-x="539" 
d="M318 -10q-126 0 -201 68t-75 216q0 101 38 164.5t103.5 94t149.5 30.5q51 0 96.5 -11t84.5 -31l-56 -141q-34 15 -63.5 24t-61.5 9q-43 0 -70 -34t-27 -104q0 -72 27.5 -102.5t70.5 -30.5q41 0 82.5 13t78.5 36v-152q-34 -22 -77 -35.5t-100 -13.5zM293 776
q41 0 71.5 -17t30.5 -68q0 -49 -30.5 -66.5t-71.5 -17.5q-42 0 -71.5 17.5t-29.5 66.5q0 51 29.5 68t71.5 17z" />
    <glyph glyph-name="Ccaron" unicode="&#x10c;" horiz-adv-x="649" 
d="M395 566q-68 0 -107 -56t-39 -156q0 -101 39 -153.5t118 -52.5q47 0 91.5 13t89.5 32v-163q-47 -21 -96.5 -30.5t-105.5 -9.5q-116 0 -190 46t-109 128.5t-35 190.5t40 191t117.5 130.5t188.5 47.5q52 0 109 -12t112 -38l-59 -152q-39 19 -79 31.5t-85 12.5zM270 767
q-15 23 -37.5 50t-46 52.5t-42.5 43.5v14h126q26 -16 47.5 -33t47.5 -40q26 23 49 40.5t49 32.5h124v-14q-17 -17 -40.5 -42.5t-46 -53t-38.5 -50.5h-192z" />
    <glyph glyph-name="ccaron" unicode="&#x10d;" horiz-adv-x="539" 
d="M318 -10q-126 0 -201 68t-75 216q0 101 38 164.5t103.5 94t149.5 30.5q51 0 96.5 -11t84.5 -31l-56 -141q-34 15 -63.5 24t-61.5 9q-43 0 -70 -34t-27 -104q0 -72 27.5 -102.5t70.5 -30.5q41 0 82.5 13t78.5 36v-152q-34 -22 -77 -35.5t-100 -13.5zM198 606
q-15 23 -37.5 50t-46 52.5t-42.5 43.5v14h126q26 -16 47.5 -33t47.5 -40q26 23 49 40.5t49 32.5h124v-14q-17 -17 -40.5 -42.5t-46 -53t-38.5 -50.5h-192z" />
    <glyph glyph-name="Dcaron" unicode="&#x10e;" horiz-adv-x="734" 
d="M683 372q0 -124 -46.5 -207t-130.5 -124t-198 -41h-231v714h247q173 0 266 -88t93 -254zM483 365q0 193 -157 193h-56v-400h43q88 0 129 51t41 156zM272 767q-15 23 -37.5 50t-46 52.5t-42.5 43.5v14h126q26 -16 47.5 -33t47.5 -40q26 23 49 40.5t49 32.5h124v-14
q-17 -17 -40.5 -42.5t-46 -53t-38.5 -50.5h-192z" />
    <glyph glyph-name="dcaron" unicode="&#x10f;" horiz-adv-x="643" 
d="M814 749q-21 -37 -40 -71t-47 -78h-114v14q8 29 16 71.5t12 74.5h173v-11zM238 -10q-85 0 -140.5 73t-55.5 213q0 142 56.5 214.5t146.5 72.5q56 0 89.5 -23t55.5 -58h4q-4 21 -6.5 58t-2.5 72v148h192v-760h-144l-41 70h-7q-20 -33 -55 -56.5t-92 -23.5zM316 141
q46 0 65 29t20 89v15q0 65 -18.5 100t-68.5 35q-34 0 -56.5 -33t-22.5 -103q0 -69 22.5 -100.5t58.5 -31.5z" />
    <glyph glyph-name="Dcroat" unicode="&#x110;" horiz-adv-x="734" 
d="M324 714q173 0 266 -88t93 -254q0 -124 -46.5 -207t-130.5 -124t-198 -41h-231v275h-62v156h62v283h247zM326 558h-56v-127h103v-156h-103v-117h43q88 0 129 51t41 156q0 193 -157 193z" />
    <glyph glyph-name="dcroat" unicode="&#x111;" horiz-adv-x="663" 
d="M230 -10q-82 0 -135 67t-53 194q0 135 58 199t148 64q56 0 91 -23t57 -57h4q-3 12 -9 49t-6 82v5h-113v118h113v72h192v-72h76v-118h-76v-570h-156l-43 70h-7q-21 -33 -54.5 -56.5t-86.5 -23.5zM326 141q41 0 57.5 24t17.5 73v12q0 53 -21.5 81.5t-56.5 28.5
q-30 0 -50 -24.5t-20 -86.5q0 -42 17.5 -75t55.5 -33z" />
    <glyph glyph-name="Emacron" unicode="&#x112;" horiz-adv-x="549" 
d="M501 0h-424v714h424v-155h-231v-112h214v-155h-214v-135h231v-157zM467 882v-115h-355v115h355z" />
    <glyph glyph-name="emacron" unicode="&#x113;" horiz-adv-x="618" 
d="M315 563q121 0 191 -63t70 -190v-85h-341q2 -43 32.5 -71t88.5 -28q52 0 95 10t89 32v-137q-40 -21 -87.5 -31t-119.5 -10q-84 0 -149.5 29.5t-103.5 92.5t-38 161q0 100 34.5 164t96 95t142.5 31zM322 433q-34 0 -56.5 -21t-26.5 -67h164q-1 37 -21.5 62.5t-59.5 25.5z
M487 721v-115h-355v115h355z" />
    <glyph glyph-name="Ebreve" unicode="&#x114;" horiz-adv-x="549" 
d="M501 0h-424v714h424v-155h-231v-112h214v-155h-214v-135h231v-157zM486 948q-5 -82 -56.5 -131.5t-142.5 -49.5q-95 0 -143.5 48.5t-52.5 132.5h103q11 -42 31.5 -53t61.5 -11q32 0 57 12.5t35 51.5h107z" />
    <glyph glyph-name="ebreve" unicode="&#x115;" horiz-adv-x="618" 
d="M315 563q121 0 191 -63t70 -190v-85h-341q2 -43 32.5 -71t88.5 -28q52 0 95 10t89 32v-137q-40 -21 -87.5 -31t-119.5 -10q-84 0 -149.5 29.5t-103.5 92.5t-38 161q0 100 34.5 164t96 95t142.5 31zM322 433q-34 0 -56.5 -21t-26.5 -67h164q-1 37 -21.5 62.5t-59.5 25.5z
M506 787q-5 -82 -56.5 -131.5t-142.5 -49.5q-95 0 -143.5 48.5t-52.5 132.5h103q11 -42 31.5 -53t61.5 -11q32 0 57 12.5t35 51.5h107z" />
    <glyph glyph-name="Edotaccent" unicode="&#x116;" horiz-adv-x="549" 
d="M501 0h-424v714h424v-155h-231v-112h214v-155h-214v-135h231v-157zM289 937q41 0 71.5 -17t30.5 -68q0 -49 -30.5 -66.5t-71.5 -17.5q-42 0 -71.5 17.5t-29.5 66.5q0 51 29.5 68t71.5 17z" />
    <glyph glyph-name="edotaccent" unicode="&#x117;" horiz-adv-x="618" 
d="M315 563q121 0 191 -63t70 -190v-85h-341q2 -43 32.5 -71t88.5 -28q52 0 95 10t89 32v-137q-40 -21 -87.5 -31t-119.5 -10q-84 0 -149.5 29.5t-103.5 92.5t-38 161q0 100 34.5 164t96 95t142.5 31zM322 433q-34 0 -56.5 -21t-26.5 -67h164q-1 37 -21.5 62.5t-59.5 25.5z
M309 776q41 0 71.5 -17t30.5 -68q0 -49 -30.5 -66.5t-71.5 -17.5q-42 0 -71.5 17.5t-29.5 66.5q0 51 29.5 68t71.5 17z" />
    <glyph glyph-name="Eogonek" unicode="&#x118;" horiz-adv-x="549" 
d="M501 0h-424v714h424v-155h-231v-112h214v-155h-214v-135h231v-157zM407 -97q0 -18 10.5 -25.5t27.5 -7.5q13 0 30.5 3.5t27.5 7.5v-108q-16 -5 -37 -9t-48 -4q-57 0 -96 30.5t-39 82.5q0 34 23.5 70.5t90.5 81.5l75 -25q-34 -32 -49.5 -53t-15.5 -44z" />
    <glyph glyph-name="eogonek" unicode="&#x119;" horiz-adv-x="618" 
d="M447 -91q0 -19 12 -29t29 -10q15 0 30 3.5t25 7.5v-108q-16 -5 -37 -9t-48 -4q-57 0 -96 30.5t-39 82.5q0 27 15 56t55 63q-27 -2 -60 -2q-84 0 -149.5 29.5t-103.5 92.5t-38 161q0 100 34.5 164t96 95t142.5 31q121 0 191 -63t70 -190v-85h-341q2 -43 32.5 -71t88.5 -28
q52 0 95 10t89 32v-137q-40 -34 -60 -56t-26.5 -36.5t-6.5 -29.5zM322 433q-34 0 -56.5 -21t-26.5 -67h164q-1 37 -21.5 62.5t-59.5 25.5z" />
    <glyph glyph-name="Ecaron" unicode="&#x11a;" horiz-adv-x="549" 
d="M501 0h-424v714h424v-155h-231v-112h214v-155h-214v-135h231v-157zM194 767q-15 23 -37.5 50t-46 52.5t-42.5 43.5v14h126q26 -16 47.5 -33t47.5 -40q26 23 49 40.5t49 32.5h124v-14q-17 -17 -40.5 -42.5t-46 -53t-38.5 -50.5h-192z" />
    <glyph glyph-name="ecaron" unicode="&#x11b;" horiz-adv-x="618" 
d="M315 563q121 0 191 -63t70 -190v-85h-341q2 -43 32.5 -71t88.5 -28q52 0 95 10t89 32v-137q-40 -21 -87.5 -31t-119.5 -10q-84 0 -149.5 29.5t-103.5 92.5t-38 161q0 100 34.5 164t96 95t142.5 31zM322 433q-34 0 -56.5 -21t-26.5 -67h164q-1 37 -21.5 62.5t-59.5 25.5z
M214 606q-15 23 -37.5 50t-46 52.5t-42.5 43.5v14h126q26 -16 47.5 -33t47.5 -40q26 23 49 40.5t49 32.5h124v-14q-17 -17 -40.5 -42.5t-46 -53t-38.5 -50.5h-192z" />
    <glyph glyph-name="Gcircumflex" unicode="&#x11c;" horiz-adv-x="740" 
d="M364 418h308v-385q-55 -19 -126.5 -31t-149.5 -12q-103 0 -180.5 40t-121 122t-43.5 207q0 112 43 194t126.5 126.5t205.5 44.5q67 0 127 -12.5t104 -32.5l-61 -151q-38 19 -80 28.5t-89 9.5q-64 0 -103 -29t-56.5 -77t-17.5 -106q0 -100 42 -152.5t120 -52.5
q17 0 41.5 2.5t37.5 5.5v112h-127v149zM498 927q16 -23 38.5 -50.5t46 -53t40.5 -42.5v-14h-124q-26 15 -49 33t-49 40q-26 -22 -47.5 -39t-47.5 -34h-126v14q19 18 42.5 43.5t46 52.5t37.5 50h192z" />
    <glyph glyph-name="gcircumflex" unicode="&#x11d;" horiz-adv-x="643" 
d="M243 563q58 0 93.5 -22.5t57.5 -55.5h4l14 68h165v-554q0 -117 -72.5 -178t-222.5 -61q-67 0 -118 7t-98 25v159q50 -21 95 -31.5t110 -10.5q115 0 115 82v10q0 29 6 69h-6q-19 -33 -54 -56.5t-92 -23.5q-88 0 -143 73t-55 213t56 213.5t145 73.5zM315 415
q-79 0 -79 -142q0 -72 20 -103.5t62 -31.5q47 0 65 29.5t18 88.5v23q0 65 -17.5 100.5t-68.5 35.5zM411 766q16 -23 38.5 -50.5t46 -53t40.5 -42.5v-14h-124q-26 15 -49 33t-49 40q-26 -22 -47.5 -39t-47.5 -34h-126v14q19 18 42.5 43.5t46 52.5t37.5 50h192z" />
    <glyph glyph-name="Gbreve" unicode="&#x11e;" horiz-adv-x="740" 
d="M364 418h308v-385q-55 -19 -126.5 -31t-149.5 -12q-103 0 -180.5 40t-121 122t-43.5 207q0 112 43 194t126.5 126.5t205.5 44.5q67 0 127 -12.5t104 -32.5l-61 -151q-38 19 -80 28.5t-89 9.5q-64 0 -103 -29t-56.5 -77t-17.5 -106q0 -100 42 -152.5t120 -52.5
q17 0 41.5 2.5t37.5 5.5v112h-127v149zM598 948q-5 -82 -56.5 -131.5t-142.5 -49.5q-95 0 -143.5 48.5t-52.5 132.5h103q11 -42 31.5 -53t61.5 -11q32 0 57 12.5t35 51.5h107z" />
    <glyph glyph-name="gbreve" unicode="&#x11f;" horiz-adv-x="643" 
d="M243 563q58 0 93.5 -22.5t57.5 -55.5h4l14 68h165v-554q0 -117 -72.5 -178t-222.5 -61q-67 0 -118 7t-98 25v159q50 -21 95 -31.5t110 -10.5q115 0 115 82v10q0 29 6 69h-6q-19 -33 -54 -56.5t-92 -23.5q-88 0 -143 73t-55 213t56 213.5t145 73.5zM315 415
q-79 0 -79 -142q0 -72 20 -103.5t62 -31.5q47 0 65 29.5t18 88.5v23q0 65 -17.5 100.5t-68.5 35.5zM511 787q-5 -82 -56.5 -131.5t-142.5 -49.5q-95 0 -143.5 48.5t-52.5 132.5h103q11 -42 31.5 -53t61.5 -11q32 0 57 12.5t35 51.5h107z" />
    <glyph glyph-name="Gdotaccent" unicode="&#x120;" horiz-adv-x="740" 
d="M364 418h308v-385q-55 -19 -126.5 -31t-149.5 -12q-103 0 -180.5 40t-121 122t-43.5 207q0 112 43 194t126.5 126.5t205.5 44.5q67 0 127 -12.5t104 -32.5l-61 -151q-38 19 -80 28.5t-89 9.5q-64 0 -103 -29t-56.5 -77t-17.5 -106q0 -100 42 -152.5t120 -52.5
q17 0 41.5 2.5t37.5 5.5v112h-127v149zM401 937q41 0 71.5 -17t30.5 -68q0 -49 -30.5 -66.5t-71.5 -17.5q-42 0 -71.5 17.5t-29.5 66.5q0 51 29.5 68t71.5 17z" />
    <glyph glyph-name="gdotaccent" unicode="&#x121;" horiz-adv-x="643" 
d="M243 563q58 0 93.5 -22.5t57.5 -55.5h4l14 68h165v-554q0 -117 -72.5 -178t-222.5 -61q-67 0 -118 7t-98 25v159q50 -21 95 -31.5t110 -10.5q115 0 115 82v10q0 29 6 69h-6q-19 -33 -54 -56.5t-92 -23.5q-88 0 -143 73t-55 213t56 213.5t145 73.5zM315 415
q-79 0 -79 -142q0 -72 20 -103.5t62 -31.5q47 0 65 29.5t18 88.5v23q0 65 -17.5 100.5t-68.5 35.5zM314 776q41 0 71.5 -17t30.5 -68q0 -49 -30.5 -66.5t-71.5 -17.5q-42 0 -71.5 17.5t-29.5 66.5q0 51 29.5 68t71.5 17z" />
    <glyph glyph-name="uni0122" unicode="&#x122;" horiz-adv-x="740" 
d="M364 418h308v-385q-55 -19 -126.5 -31t-149.5 -12q-103 0 -180.5 40t-121 122t-43.5 207q0 112 43 194t126.5 126.5t205.5 44.5q67 0 127 -12.5t104 -32.5l-61 -151q-38 19 -80 28.5t-89 9.5q-64 0 -103 -29t-56.5 -77t-17.5 -106q0 -100 42 -152.5t120 -52.5
q17 0 41.5 2.5t37.5 5.5v112h-127v149zM478 -72q-17 -40 -35 -74t-47 -75h-114v14q8 32 15 75t8 71h173v-11z" />
    <glyph glyph-name="uni0123" unicode="&#x123;" horiz-adv-x="643" 
d="M414 752q-6 -31 -12.5 -72.5t-9.5 -73.5h-174v11q21 37 39.5 71t43.5 78h113v-14zM243 563q58 0 93.5 -22.5t57.5 -55.5h4l14 68h165v-554q0 -117 -72.5 -178t-222.5 -61q-67 0 -118 7t-98 25v159q50 -21 95 -31.5t110 -10.5q115 0 115 82v10q0 29 6 69h-6
q-19 -33 -54 -56.5t-92 -23.5q-88 0 -143 73t-55 213t56 213.5t145 73.5zM315 415q-79 0 -79 -142q0 -72 20 -103.5t62 -31.5q47 0 65 29.5t18 88.5v23q0 65 -17.5 100.5t-68.5 35.5z" />
    <glyph glyph-name="Hcircumflex" unicode="&#x124;" horiz-adv-x="766" 
d="M689 0h-194v291h-224v-291h-194v714h194v-265h224v265h194v-714zM480 927q16 -23 38.5 -50.5t46 -53t40.5 -42.5v-14h-124q-26 15 -49 33t-49 40q-26 -22 -47.5 -39t-47.5 -34h-126v14q19 18 42.5 43.5t46 52.5t37.5 50h192z" />
    <glyph glyph-name="hcircumflex" unicode="&#x125;" horiz-adv-x="670" 
d="M257 652q0 -61 -3 -103t-5 -64h9q27 43 65 60.5t87 17.5q55 0 99 -21t70.5 -65.5t26.5 -116.5v-360h-192v302q0 111 -66 111q-52 0 -71.5 -44t-19.5 -126v-243h-191v760h191v-108zM261 973q16 -23 38.5 -50.5t46 -53t40.5 -42.5v-14h-124q-26 15 -49 33t-49 40
q-26 -22 -47.5 -39t-47.5 -34h-126v14q19 18 42.5 43.5t46 52.5t37.5 50h192z" />
    <glyph glyph-name="Hbar" unicode="&#x126;" horiz-adv-x="782" 
d="M85 0v521h-85v114h85v79h193v-79h225v79h194v-79h85v-114h-85v-521h-194v291h-225v-291h-193zM278 449h225v72h-225v-72z" />
    <glyph glyph-name="hbar" unicode="&#x127;" horiz-adv-x="680" 
d="M267 760v-72h114v-118h-115v-20q0 -23 -2.5 -57t-4.5 -57h11q27 42 64 60t87 18q55 0 99 -21t70 -65.5t26 -115.5v-312h-192v253q0 111 -66 111q-52 0 -71.5 -44t-19.5 -127v-193h-191v570h-76v118h76v72h191z" />
    <glyph glyph-name="Itilde" unicode="&#x128;" horiz-adv-x="440" 
d="M406 0h-372v110l89 34v427l-89 33v110h372v-110l-89 -33v-427l89 -34v-110zM15 765q6 92 37.5 129.5t85.5 37.5q25 0 53.5 -11.5t57 -23.5t53.5 -12q9 0 19.5 8.5t15.5 39.5h89q-6 -90 -39 -128.5t-81 -38.5q-29 0 -58.5 12t-57 23.5t-52.5 11.5q-9 0 -19 -8t-16 -40h-88
z" />
    <glyph glyph-name="itilde" unicode="&#x129;" horiz-adv-x="325" 
d="M258 0h-191v553h191v-553zM-42 604q6 92 37.5 129.5t85.5 37.5q25 0 53.5 -11.5t57 -23.5t53.5 -12q9 0 19.5 8.5t15.5 39.5h89q-6 -90 -39 -128.5t-81 -38.5q-29 0 -58.5 12t-57 23.5t-52.5 11.5q-9 0 -19 -8t-16 -40h-88z" />
    <glyph glyph-name="Imacron" unicode="&#x12a;" horiz-adv-x="440" 
d="M406 0h-372v110l89 34v427l-89 33v110h372v-110l-89 -33v-427l89 -34v-110zM398 882v-115h-355v115h355z" />
    <glyph glyph-name="imacron" unicode="&#x12b;" horiz-adv-x="325" 
d="M258 0h-191v553h191v-553zM341 721v-115h-355v115h355z" />
    <glyph glyph-name="Ibreve" unicode="&#x12c;" horiz-adv-x="440" 
d="M406 0h-372v110l89 34v427l-89 33v110h372v-110l-89 -33v-427l89 -34v-110zM417 948q-5 -82 -56.5 -131.5t-142.5 -49.5q-95 0 -143.5 48.5t-52.5 132.5h103q11 -42 31.5 -53t61.5 -11q32 0 57 12.5t35 51.5h107z" />
    <glyph glyph-name="ibreve" unicode="&#x12d;" horiz-adv-x="325" 
d="M258 0h-191v553h191v-553zM360 787q-5 -82 -56.5 -131.5t-142.5 -49.5q-95 0 -143.5 48.5t-52.5 132.5h103q11 -42 31.5 -53t61.5 -11q32 0 57 12.5t35 51.5h107z" />
    <glyph glyph-name="Iogonek" unicode="&#x12e;" horiz-adv-x="440" 
d="M406 0h-372v110l89 34v427l-89 33v110h372v-110l-89 -33v-427l89 -34v-110zM320 -97q0 -18 10.5 -25.5t27.5 -7.5q13 0 30.5 3.5t27.5 7.5v-108q-16 -5 -37 -9t-48 -4q-57 0 -96 30.5t-39 82.5q0 34 23.5 70.5t90.5 81.5l75 -25q-34 -32 -49.5 -53t-15.5 -44z" />
    <glyph glyph-name="iogonek" unicode="&#x12f;" horiz-adv-x="325" 
d="M163 776q41 0 71.5 -17t30.5 -68q0 -49 -30.5 -66.5t-71.5 -17.5q-42 0 -71.5 17.5t-29.5 66.5q0 51 29.5 68t71.5 17zM258 553v-553h-191v553h191zM174 -97q0 -18 10.5 -25.5t27.5 -7.5q13 0 30.5 3.5t27.5 7.5v-108q-16 -5 -37 -9t-48 -4q-57 0 -96 30.5t-39 82.5
q0 34 23.5 70.5t90.5 81.5l75 -25q-34 -32 -49.5 -53t-15.5 -44z" />
    <glyph glyph-name="Idotaccent" unicode="&#x130;" horiz-adv-x="440" 
d="M406 0h-372v110l89 34v427l-89 33v110h372v-110l-89 -33v-427l89 -34v-110zM220 937q41 0 71.5 -17t30.5 -68q0 -49 -30.5 -66.5t-71.5 -17.5q-42 0 -71.5 17.5t-29.5 66.5q0 51 29.5 68t71.5 17z" />
    <glyph glyph-name="dotlessi" unicode="&#x131;" horiz-adv-x="325" 
d="M258 0h-191v553h191v-553z" />
    <glyph glyph-name="IJ" unicode="&#x132;" horiz-adv-x="792" 
d="M406 0h-372v110l89 34v427l-89 33v110h372v-110l-89 -33v-427l89 -34v-110zM461 -224q-33 0 -57.5 3t-42.5 7v150q16 -3 33.5 -6.5t37.5 -3.5q52 0 70.5 31.5t18.5 95.5v661h194v-644q0 -107 -32.5 -172t-89.5 -93.5t-132 -28.5z" />
    <glyph glyph-name="ij" unicode="&#x133;" horiz-adv-x="649" 
d="M163 776q41 0 71.5 -17t30.5 -68q0 -49 -30.5 -66.5t-71.5 -17.5q-42 0 -71.5 17.5t-29.5 66.5q0 51 29.5 68t71.5 17zM258 553v-553h-191v553h191zM386 691q0 51 29.5 68t71.5 17q41 0 71.5 -17t30.5 -68q0 -49 -30.5 -66.5t-71.5 -17.5q-42 0 -71.5 17.5t-29.5 66.5z
M377 -240q-23 0 -53 3.5t-50 8.5v149q16 -4 29.5 -6.5t29.5 -2.5q23 0 40.5 16.5t17.5 66.5v558h191v-598q0 -50 -19.5 -94.5t-64.5 -72.5t-121 -28z" />
    <glyph glyph-name="Jcircumflex" unicode="&#x134;" horiz-adv-x="352" 
d="M21 -224q-33 0 -57.5 3t-42.5 7v150q16 -3 33.5 -6.5t37.5 -3.5q52 0 70.5 31.5t18.5 95.5v661h194v-644q0 -107 -32.5 -172t-89.5 -93.5t-132 -28.5zM273 927q16 -23 38.5 -50.5t46 -53t40.5 -42.5v-14h-124q-26 15 -49 33t-49 40q-26 -22 -47.5 -39t-47.5 -34h-126v14
q19 18 42.5 43.5t46 52.5t37.5 50h192z" />
    <glyph glyph-name="jcircumflex" unicode="&#x135;" horiz-adv-x="324" 
d="M52 -240q-23 0 -53 3.5t-50 8.5v149q16 -4 29.5 -6.5t29.5 -2.5q23 0 40.5 16.5t17.5 66.5v558h191v-598q0 -50 -19.5 -94.5t-64.5 -72.5t-121 -28zM259 766q16 -23 38.5 -50.5t46 -53t40.5 -42.5v-14h-124q-26 15 -49 33t-49 40q-26 -22 -47.5 -39t-47.5 -34h-126v14
q19 18 42.5 43.5t46 52.5t37.5 50h192z" />
    <glyph glyph-name="uni0136" unicode="&#x136;" horiz-adv-x="687" 
d="M687 0h-218l-141 273l-57 -34v-239h-194v714h194v-310q12 23 28 46.5t31 44.5l150 219h211l-225 -320zM458 -72q-17 -40 -35 -74t-47 -75h-114v14q8 32 15 75t8 71h173v-11z" />
    <glyph glyph-name="uni0137" unicode="&#x137;" horiz-adv-x="659" 
d="M258 461q0 -34 -3 -75t-8 -75h4q11 17 28.5 43t30.5 43l124 156h213l-192 -235l204 -318h-218l-121 198l-62 -47v-151h-192v760h192v-299zM428 -72q-17 -40 -35 -74t-47 -75h-114v14q8 32 15 75t8 71h173v-11z" />
    <glyph glyph-name="kgreenlandic" unicode="&#x138;" horiz-adv-x="659" 
d="M650 553l-198 -242l207 -311h-215l-123 195l-63 -48v-147h-192v553h192v-120q0 -41 -1.5 -70.5t-3.5 -48.5h4q9 13 24 36t35 49l120 154h214z" />
    <glyph glyph-name="Lacute" unicode="&#x139;" horiz-adv-x="582" 
d="M77 0v714h193v-558h275v-156h-468zM409 917q-18 -14 -45 -34.5t-58 -42t-59.5 -41t-48.5 -32.5h-127v14q17 19 41 44.5t48 52.5t40 49h209v-10z" />
    <glyph glyph-name="lacute" unicode="&#x13a;" horiz-adv-x="323" 
d="M257 0h-191v760h191v-760zM401 963q-18 -14 -45 -34.5t-58 -42t-59.5 -41t-48.5 -32.5h-127v14q17 19 41 44.5t48 52.5t40 49h209v-10z" />
    <glyph glyph-name="uni013B" unicode="&#x13b;" horiz-adv-x="582" 
d="M77 0v714h193v-558h275v-156h-468zM407 -72q-17 -40 -35 -74t-47 -75h-114v14q8 32 15 75t8 71h173v-11z" />
    <glyph glyph-name="uni013C" unicode="&#x13c;" horiz-adv-x="323" 
d="M257 0h-191v760h191v-760zM260 -72q-17 -40 -35 -74t-47 -75h-114v14q8 32 15 75t8 71h173v-11z" />
    <glyph glyph-name="Lcaron" unicode="&#x13d;" horiz-adv-x="582" 
d="M575 703q-21 -37 -40 -71t-47 -78h-114v14q8 29 16 71.5t12 74.5h173v-11zM77 0v714h193v-558h275v-156h-468z" />
    <glyph glyph-name="lcaron" unicode="&#x13e;" horiz-adv-x="323" 
d="M489 749q-21 -37 -40 -71t-47 -78h-114v14q8 29 16 71.5t12 74.5h173v-11zM257 0h-191v760h191v-760z" />
    <glyph glyph-name="Ldot" unicode="&#x13f;" horiz-adv-x="582" 
d="M77 0v714h193v-558h275v-156h-468zM447 481q41 0 71.5 -17t30.5 -68q0 -49 -30.5 -66.5t-71.5 -17.5q-42 0 -71.5 17.5t-29.5 66.5q0 51 29.5 68t71.5 17z" />
    <glyph glyph-name="ldot" unicode="&#x140;" horiz-adv-x="433" 
d="M257 0h-191v760h191v-760zM377 464q41 0 71.5 -17t30.5 -68q0 -49 -30.5 -66.5t-71.5 -17.5q-42 0 -71.5 17.5t-29.5 66.5q0 51 29.5 68t71.5 17z" />
    <glyph glyph-name="Lslash" unicode="&#x141;" horiz-adv-x="609" 
d="M104 0v235l-50 -28l-69 121l119 71v315h193v-196l103 64l72 -119l-175 -109v-198h275v-156h-468z" />
    <glyph glyph-name="lslash" unicode="&#x142;" horiz-adv-x="417" 
d="M114 0v197l-61 -33l-68 121l129 74v401h191v-286l56 34l71 -121l-127 -75v-312h-191z" />
    <glyph glyph-name="Nacute" unicode="&#x143;" horiz-adv-x="834" 
d="M757 0h-253l-261 503h-4q2 -23 4 -55.5t3.5 -65.5t1.5 -60v-322h-171v714h252l260 -496h3q-1 23 -3 54t-3 63t-1 56v323h172v-714zM656 917q-18 -14 -45 -34.5t-58 -42t-59.5 -41t-48.5 -32.5h-127v14q17 19 41 44.5t48 52.5t40 49h209v-10z" />
    <glyph glyph-name="nacute" unicode="&#x144;" horiz-adv-x="670" 
d="M412 563q86 0 140 -48t54 -155v-360h-191v302q0 55 -16 83t-51 28q-54 0 -72.5 -44t-18.5 -127v-242h-191v553h144l26 -73h7q26 39 68.5 61t100.5 22zM574 756q-18 -14 -45 -34.5t-58 -42t-59.5 -41t-48.5 -32.5h-127v14q17 19 41 44.5t48 52.5t40 49h209v-10z" />
    <glyph glyph-name="uni0145" unicode="&#x145;" horiz-adv-x="834" 
d="M757 0h-253l-261 503h-4q2 -23 4 -55.5t3.5 -65.5t1.5 -60v-322h-171v714h252l260 -496h3q-1 23 -3 54t-3 63t-1 56v323h172v-714zM515 -72q-17 -40 -35 -74t-47 -75h-114v14q8 32 15 75t8 71h173v-11z" />
    <glyph glyph-name="uni0146" unicode="&#x146;" horiz-adv-x="670" 
d="M412 563q86 0 140 -48t54 -155v-360h-191v302q0 55 -16 83t-51 28q-54 0 -72.5 -44t-18.5 -127v-242h-191v553h144l26 -73h7q26 39 68.5 61t100.5 22zM433 -72q-17 -40 -35 -74t-47 -75h-114v14q8 32 15 75t8 71h173v-11z" />
    <glyph glyph-name="Ncaron" unicode="&#x147;" horiz-adv-x="834" 
d="M757 0h-253l-261 503h-4q2 -23 4 -55.5t3.5 -65.5t1.5 -60v-322h-171v714h252l260 -496h3q-1 23 -3 54t-3 63t-1 56v323h172v-714zM322 767q-15 23 -37.5 50t-46 52.5t-42.5 43.5v14h126q26 -16 47.5 -33t47.5 -40q26 23 49 40.5t49 32.5h124v-14q-17 -17 -40.5 -42.5
t-46 -53t-38.5 -50.5h-192z" />
    <glyph glyph-name="ncaron" unicode="&#x148;" horiz-adv-x="670" 
d="M412 563q86 0 140 -48t54 -155v-360h-191v302q0 55 -16 83t-51 28q-54 0 -72.5 -44t-18.5 -127v-242h-191v553h144l26 -73h7q26 39 68.5 61t100.5 22zM240 606q-15 23 -37.5 50t-46 52.5t-42.5 43.5v14h126q26 -16 47.5 -33t47.5 -40q26 23 49 40.5t49 32.5h124v-14
q-17 -17 -40.5 -42.5t-46 -53t-38.5 -50.5h-192z" />
    <glyph glyph-name="napostrophe" unicode="&#x149;" horiz-adv-x="830" 
d="M572 563q86 0 140 -48t54 -155v-360h-191v302q0 55 -16 83t-51 28q-54 0 -72.5 -44t-18.5 -127v-242h-191v553h144l26 -73h7q26 39 68.5 61t100.5 22zM222 702q-9 -36 -23 -86t-30 -100.5t-33 -87.5h-136q10 46 19 96.5t17 99.5t12 89h167z" />
    <glyph glyph-name="Eng" unicode="&#x14a;" horiz-adv-x="834" 
d="M502 -239q-36 0 -63 3t-46 7v150q19 -3 39 -6.5t45 -3.5q58 0 86 22.5t32 66.5l-352 503h-4q2 -19 4 -53t3.5 -73.5t1.5 -76.5v-300h-171v714h232l280 -395h4q-1 19 -3 55t-3.5 77t-1.5 74v189h172v-718q0 -76 -32.5 -128.5t-90 -79.5t-132.5 -27z" />
    <glyph glyph-name="eng" unicode="&#x14b;" horiz-adv-x="670" 
d="M405 -240q-22 0 -52.5 3.5t-50.5 8.5v149q17 -4 29 -6.5t28 -2.5q22 0 38.5 16.5t16.5 66.5v325q0 93 -66 93q-54 0 -72.5 -44t-18.5 -127v-242h-191v553h144l24 -68h12q26 42 72 60t95 18q54 0 97.5 -21t69.5 -66t26 -116v-405q0 -50 -19.5 -94.5t-63.5 -72.5t-118 -28z
" />
    <glyph glyph-name="Omacron" unicode="&#x14c;" horiz-adv-x="797" 
d="M745 358q0 -111 -35.5 -193.5t-112 -128.5t-199.5 -46q-120 0 -197 46t-113.5 129t-36.5 194t37 193.5t114 127.5t197 45q122 0 198.5 -45.5t112 -128t35.5 -193.5zM254 358q0 -97 33.5 -152t110.5 -55q80 0 112 55t32 152t-32 153t-111 56t-112 -56t-33 -153zM577 882
v-115h-355v115h355z" />
    <glyph glyph-name="omacron" unicode="&#x14d;" horiz-adv-x="637" 
d="M594 278q0 -139 -74 -213.5t-203 -74.5q-80 0 -142 33.5t-97.5 98t-35.5 156.5q0 137 74 211t204 74q80 0 141.5 -33t97 -96.5t35.5 -155.5zM236 278q0 -71 19 -108.5t64 -37.5q44 0 62.5 37.5t18.5 108.5t-18.5 107t-63.5 36q-43 0 -62.5 -36t-19.5 -107zM497 721v-115
h-355v115h355z" />
    <glyph glyph-name="Obreve" unicode="&#x14e;" horiz-adv-x="797" 
d="M745 358q0 -111 -35.5 -193.5t-112 -128.5t-199.5 -46q-120 0 -197 46t-113.5 129t-36.5 194t37 193.5t114 127.5t197 45q122 0 198.5 -45.5t112 -128t35.5 -193.5zM254 358q0 -97 33.5 -152t110.5 -55q80 0 112 55t32 152t-32 153t-111 56t-112 -56t-33 -153zM596 948
q-5 -82 -56.5 -131.5t-142.5 -49.5q-95 0 -143.5 48.5t-52.5 132.5h103q11 -42 31.5 -53t61.5 -11q32 0 57 12.5t35 51.5h107z" />
    <glyph glyph-name="obreve" unicode="&#x14f;" horiz-adv-x="637" 
d="M594 278q0 -139 -74 -213.5t-203 -74.5q-80 0 -142 33.5t-97.5 98t-35.5 156.5q0 137 74 211t204 74q80 0 141.5 -33t97 -96.5t35.5 -155.5zM236 278q0 -71 19 -108.5t64 -37.5q44 0 62.5 37.5t18.5 108.5t-18.5 107t-63.5 36q-43 0 -62.5 -36t-19.5 -107zM516 787
q-5 -82 -56.5 -131.5t-142.5 -49.5q-95 0 -143.5 48.5t-52.5 132.5h103q11 -42 31.5 -53t61.5 -11q32 0 57 12.5t35 51.5h107z" />
    <glyph glyph-name="Ohungarumlaut" unicode="&#x150;" horiz-adv-x="797" 
d="M745 358q0 -111 -35.5 -193.5t-112 -128.5t-199.5 -46q-120 0 -197 46t-113.5 129t-36.5 194t37 193.5t114 127.5t197 45q122 0 198.5 -45.5t112 -128t35.5 -193.5zM254 358q0 -97 33.5 -152t110.5 -55q80 0 112 55t32 152t-32 153t-111 56t-112 -56t-33 -153zM653 917
q-8 -13 -30 -33t-50.5 -42t-56 -42t-47.5 -33h-99v14q14 19 33 44.5t37.5 52.5t30.5 49h182v-10zM426 917q-8 -13 -30 -33t-50.5 -42t-56 -42t-46.5 -33h-99v14q14 19 32.5 44.5t37 52.5t31.5 49h181v-10z" />
    <glyph glyph-name="ohungarumlaut" unicode="&#x151;" horiz-adv-x="637" 
d="M594 278q0 -139 -74 -213.5t-203 -74.5q-80 0 -142 33.5t-97.5 98t-35.5 156.5q0 137 74 211t204 74q80 0 141.5 -33t97 -96.5t35.5 -155.5zM236 278q0 -71 19 -108.5t64 -37.5q44 0 62.5 37.5t18.5 108.5t-18.5 107t-63.5 36q-43 0 -62.5 -36t-19.5 -107zM573 756
q-8 -13 -30 -33t-50.5 -42t-56 -42t-47.5 -33h-99v14q14 19 33 44.5t37.5 52.5t30.5 49h182v-10zM346 756q-8 -13 -30 -33t-50.5 -42t-56 -42t-46.5 -33h-99v14q14 19 32.5 44.5t37 52.5t31.5 49h181v-10z" />
    <glyph glyph-name="OE" unicode="&#x152;" horiz-adv-x="957" 
d="M379 725q27 0 63.5 -3t58.5 -8h408v-155h-231v-112h213v-155h-213v-135h231v-157h-412q-21 -4 -57 -7t-62 -3q-108 0 -180.5 46t-109.5 129t-37 194t36 193t109 127.5t183 45.5zM380 567q-64 0 -95 -56t-31 -153t30.5 -152t94.5 -55q31 0 59.5 5.5t46.5 15.5v371
q-16 11 -45 17.5t-60 6.5z" />
    <glyph glyph-name="oe" unicode="&#x153;" horiz-adv-x="980" 
d="M698 563q70 0 124 -28t85 -84.5t31 -141.5v-84h-340q2 -40 34 -69.5t93 -29.5q38 0 84.5 9t93.5 33v-137q-40 -21 -86 -31t-117 -10q-54 0 -102 16.5t-85 50.5q-73 -67 -196 -67q-80 0 -142 33.5t-97.5 98t-35.5 156.5q0 137 74 211t204 74q110 0 183 -62q36 29 83 45.5
t112 16.5zM687 433q-35 0 -58.5 -19.5t-27.5 -68.5h166q-1 36 -21.5 62t-58.5 26zM318 421q-43 0 -62 -36t-19 -107t18.5 -108.5t63.5 -37.5q44 0 62.5 37.5t18.5 108.5t-18.5 107t-63.5 36z" />
    <glyph glyph-name="Racute" unicode="&#x154;" horiz-adv-x="677" 
d="M311 714q291 0 291 -211q0 -65 -32.5 -112.5t-88.5 -79.5l208 -311h-219l-151 260h-49v-260h-193v714h234zM308 568h-38v-163h36q44 0 72.5 19.5t28.5 69.5q0 35 -23 54.5t-76 19.5zM578 917q-18 -14 -45 -34.5t-58 -42t-59.5 -41t-48.5 -32.5h-127v14q17 19 41 44.5
t48 52.5t40 49h209v-10z" />
    <glyph glyph-name="racute" unicode="&#x155;" horiz-adv-x="469" 
d="M400 563q16 0 33 -2t25 -4l-17 -180q-10 2 -24.5 4t-40.5 2q-24 0 -51.5 -7t-47.5 -30.5t-20 -73.5v-272h-191v553h142l30 -88h9q23 41 64.5 69.5t88.5 28.5zM490 756q-18 -14 -45 -34.5t-58 -42t-59.5 -41t-48.5 -32.5h-127v14q17 19 41 44.5t48 52.5t40 49h209v-10z
" />
    <glyph glyph-name="uni0156" unicode="&#x156;" horiz-adv-x="677" 
d="M311 714q291 0 291 -211q0 -65 -32.5 -112.5t-88.5 -79.5l208 -311h-219l-151 260h-49v-260h-193v714h234zM308 568h-38v-163h36q44 0 72.5 19.5t28.5 69.5q0 35 -23 54.5t-76 19.5zM452 -72q-17 -40 -35 -74t-47 -75h-114v14q8 32 15 75t8 71h173v-11z" />
    <glyph glyph-name="uni0157" unicode="&#x157;" horiz-adv-x="469" 
d="M400 563q16 0 33 -2t25 -4l-17 -180q-10 2 -24.5 4t-40.5 2q-24 0 -51.5 -7t-47.5 -30.5t-20 -73.5v-272h-191v553h142l30 -88h9q23 41 64.5 69.5t88.5 28.5zM263 -72q-17 -40 -35 -74t-47 -75h-114v14q8 32 15 75t8 71h173v-11z" />
    <glyph glyph-name="Rcaron" unicode="&#x158;" horiz-adv-x="677" 
d="M311 714q291 0 291 -211q0 -65 -32.5 -112.5t-88.5 -79.5l208 -311h-219l-151 260h-49v-260h-193v714h234zM308 568h-38v-163h36q44 0 72.5 19.5t28.5 69.5q0 35 -23 54.5t-76 19.5zM244 767q-15 23 -37.5 50t-46 52.5t-42.5 43.5v14h126q26 -16 47.5 -33t47.5 -40
q26 23 49 40.5t49 32.5h124v-14q-17 -17 -40.5 -42.5t-46 -53t-38.5 -50.5h-192z" />
    <glyph glyph-name="rcaron" unicode="&#x159;" horiz-adv-x="469" 
d="M400 563q16 0 33 -2t25 -4l-17 -180q-10 2 -24.5 4t-40.5 2q-24 0 -51.5 -7t-47.5 -30.5t-20 -73.5v-272h-191v553h142l30 -88h9q23 41 64.5 69.5t88.5 28.5zM156 606q-15 23 -37.5 50t-46 52.5t-42.5 43.5v14h126q26 -16 47.5 -33t47.5 -40q26 23 49 40.5t49 32.5h124
v-14q-17 -17 -40.5 -42.5t-46 -53t-38.5 -50.5h-192z" />
    <glyph glyph-name="Sacute" unicode="&#x15a;" horiz-adv-x="577" 
d="M544 217q0 -58 -29.5 -110t-91 -84.5t-159.5 -32.5q-49 0 -85.5 4.5t-68.5 14.5t-66 26v172q58 -29 117 -44.5t107 -15.5q43 0 63 15t20 38q0 28 -29.5 45.5t-99.5 48.5q-53 25 -92 52.5t-60 67.5t-21 101q0 69 34 115.5t94.5 70t140.5 23.5q70 0 126 -15.5t100 -35.5
l-59 -149q-46 21 -90.5 33.5t-82.5 12.5q-37 0 -54.5 -13t-17.5 -33q0 -17 13 -30t43.5 -28.5t83.5 -39.5q52 -23 88.5 -50.5t56 -65t19.5 -93.5zM528 917q-18 -14 -45 -34.5t-58 -42t-59.5 -41t-48.5 -32.5h-127v14q17 19 41 44.5t48 52.5t40 49h209v-10z" />
    <glyph glyph-name="sacute" unicode="&#x15b;" horiz-adv-x="517" 
d="M477 170q0 -52 -23.5 -93t-75 -64t-135.5 -23q-59 0 -105.5 6.5t-94.5 24.5v153q53 -24 107 -34.5t85 -10.5q62 0 62 28q0 12 -10 21t-35.5 20t-72.5 30q-69 29 -103 66.5t-34 105.5q0 81 62.5 122t165.5 41q55 0 103 -12t100 -35l-52 -123q-41 19 -83 30t-67 11
q-47 0 -47 -23q0 -10 8.5 -18t32.5 -18t70 -29q48 -19 79.5 -41.5t47 -54t15.5 -80.5zM490 756q-18 -14 -45 -34.5t-58 -42t-59.5 -41t-48.5 -32.5h-127v14q17 19 41 44.5t48 52.5t40 49h209v-10z" />
    <glyph glyph-name="Scircumflex" unicode="&#x15c;" horiz-adv-x="577" 
d="M544 217q0 -58 -29.5 -110t-91 -84.5t-159.5 -32.5q-49 0 -85.5 4.5t-68.5 14.5t-66 26v172q58 -29 117 -44.5t107 -15.5q43 0 63 15t20 38q0 28 -29.5 45.5t-99.5 48.5q-53 25 -92 52.5t-60 67.5t-21 101q0 69 34 115.5t94.5 70t140.5 23.5q70 0 126 -15.5t100 -35.5
l-59 -149q-46 21 -90.5 33.5t-82.5 12.5q-37 0 -54.5 -13t-17.5 -33q0 -17 13 -30t43.5 -28.5t83.5 -39.5q52 -23 88.5 -50.5t56 -65t19.5 -93.5zM386 927q16 -23 38.5 -50.5t46 -53t40.5 -42.5v-14h-124q-26 15 -49 33t-49 40q-26 -22 -47.5 -39t-47.5 -34h-126v14
q19 18 42.5 43.5t46 52.5t37.5 50h192z" />
    <glyph glyph-name="scircumflex" unicode="&#x15d;" horiz-adv-x="517" 
d="M477 170q0 -52 -23.5 -93t-75 -64t-135.5 -23q-59 0 -105.5 6.5t-94.5 24.5v153q53 -24 107 -34.5t85 -10.5q62 0 62 28q0 12 -10 21t-35.5 20t-72.5 30q-69 29 -103 66.5t-34 105.5q0 81 62.5 122t165.5 41q55 0 103 -12t100 -35l-52 -123q-41 19 -83 30t-67 11
q-47 0 -47 -23q0 -10 8.5 -18t32.5 -18t70 -29q48 -19 79.5 -41.5t47 -54t15.5 -80.5zM348 766q16 -23 38.5 -50.5t46 -53t40.5 -42.5v-14h-124q-26 15 -49 33t-49 40q-26 -22 -47.5 -39t-47.5 -34h-126v14q19 18 42.5 43.5t46 52.5t37.5 50h192z" />
    <glyph glyph-name="Scedilla" unicode="&#x15e;" horiz-adv-x="577" 
d="M544 217q0 -58 -29.5 -110t-91 -84.5t-159.5 -32.5q-49 0 -85.5 4.5t-68.5 14.5t-66 26v172q58 -29 117 -44.5t107 -15.5q43 0 63 15t20 38q0 28 -29.5 45.5t-99.5 48.5q-53 25 -92 52.5t-60 67.5t-21 101q0 69 34 115.5t94.5 70t140.5 23.5q70 0 126 -15.5t100 -35.5
l-59 -149q-46 21 -90.5 33.5t-82.5 12.5q-37 0 -54.5 -13t-17.5 -33q0 -17 13 -30t43.5 -28.5t83.5 -39.5q52 -23 88.5 -50.5t56 -65t19.5 -93.5zM410 -123q0 -53 -36.5 -85t-97.5 -32q-34 0 -62 5t-46 12v94q17 -5 33 -8t32 -3q40 0 40 28q0 17 -16.5 27t-54.5 17l30 68h95
l-9 -30q20 -4 41.5 -14t36 -28.5t14.5 -50.5z" />
    <glyph glyph-name="scedilla" unicode="&#x15f;" horiz-adv-x="517" 
d="M477 170q0 -52 -23.5 -93t-75 -64t-135.5 -23q-59 0 -105.5 6.5t-94.5 24.5v153q53 -24 107 -34.5t85 -10.5q62 0 62 28q0 12 -10 21t-35.5 20t-72.5 30q-69 29 -103 66.5t-34 105.5q0 81 62.5 122t165.5 41q55 0 103 -12t100 -35l-52 -123q-41 19 -83 30t-67 11
q-47 0 -47 -23q0 -10 8.5 -18t32.5 -18t70 -29q48 -19 79.5 -41.5t47 -54t15.5 -80.5zM372 -123q0 -53 -36.5 -85t-97.5 -32q-34 0 -62 5t-46 12v94q17 -5 33 -8t32 -3q40 0 40 28q0 17 -16.5 27t-54.5 17l30 68h95l-9 -30q20 -4 41.5 -14t36 -28.5t14.5 -50.5z" />
    <glyph glyph-name="Scaron" unicode="&#x160;" horiz-adv-x="577" 
d="M544 217q0 -58 -29.5 -110t-91 -84.5t-159.5 -32.5q-49 0 -85.5 4.5t-68.5 14.5t-66 26v172q58 -29 117 -44.5t107 -15.5q43 0 63 15t20 38q0 28 -29.5 45.5t-99.5 48.5q-53 25 -92 52.5t-60 67.5t-21 101q0 69 34 115.5t94.5 70t140.5 23.5q70 0 126 -15.5t100 -35.5
l-59 -149q-46 21 -90.5 33.5t-82.5 12.5q-37 0 -54.5 -13t-17.5 -33q0 -17 13 -30t43.5 -28.5t83.5 -39.5q52 -23 88.5 -50.5t56 -65t19.5 -93.5zM194 767q-15 23 -37.5 50t-46 52.5t-42.5 43.5v14h126q26 -16 47.5 -33t47.5 -40q26 23 49 40.5t49 32.5h124v-14
q-17 -17 -40.5 -42.5t-46 -53t-38.5 -50.5h-192z" />
    <glyph glyph-name="scaron" unicode="&#x161;" horiz-adv-x="517" 
d="M477 170q0 -52 -23.5 -93t-75 -64t-135.5 -23q-59 0 -105.5 6.5t-94.5 24.5v153q53 -24 107 -34.5t85 -10.5q62 0 62 28q0 12 -10 21t-35.5 20t-72.5 30q-69 29 -103 66.5t-34 105.5q0 81 62.5 122t165.5 41q55 0 103 -12t100 -35l-52 -123q-41 19 -83 30t-67 11
q-47 0 -47 -23q0 -10 8.5 -18t32.5 -18t70 -29q48 -19 79.5 -41.5t47 -54t15.5 -80.5zM156 606q-15 23 -37.5 50t-46 52.5t-42.5 43.5v14h126q26 -16 47.5 -33t47.5 -40q26 23 49 40.5t49 32.5h124v-14q-17 -17 -40.5 -42.5t-46 -53t-38.5 -50.5h-192z" />
    <glyph glyph-name="uni0162" unicode="&#x162;" horiz-adv-x="591" 
d="M392 0h-193v556h-174v158h541v-158h-174v-556zM411 -123q0 -53 -36.5 -85t-97.5 -32q-34 0 -62 5t-46 12v94q17 -5 33 -8t32 -3q40 0 40 28q0 17 -16.5 27t-54.5 17l30 68h95l-9 -30q20 -4 41.5 -14t36 -28.5t14.5 -50.5z" />
    <glyph glyph-name="uni0163" unicode="&#x163;" horiz-adv-x="460" 
d="M337 141q26 0 47.5 5.5t44.5 13.5v-139q-31 -13 -66 -22t-89 -9t-94.5 17t-63.5 58.5t-23 116.5v228h-67v78l85 60l49 116h125v-111h136v-143h-136v-215q0 -54 52 -54zM379 -123q0 -53 -36.5 -85t-97.5 -32q-34 0 -62 5t-46 12v94q17 -5 33 -8t32 -3q40 0 40 28
q0 17 -16.5 27t-54.5 17l30 68h95l-9 -30q20 -4 41.5 -14t36 -28.5t14.5 -50.5z" />
    <glyph glyph-name="Tcaron" unicode="&#x164;" horiz-adv-x="591" 
d="M392 0h-193v556h-174v158h541v-158h-174v-556zM201 767q-15 23 -37.5 50t-46 52.5t-42.5 43.5v14h126q26 -16 47.5 -33t47.5 -40q26 23 49 40.5t49 32.5h124v-14q-17 -17 -40.5 -42.5t-46 -53t-38.5 -50.5h-192z" />
    <glyph glyph-name="tcaron" unicode="&#x165;" horiz-adv-x="460" 
d="M632 749q-21 -37 -40 -71t-47 -78h-114v14q8 29 16 71.5t12 74.5h173v-11zM337 141q26 0 47.5 5.5t44.5 13.5v-139q-31 -13 -66 -22t-89 -9t-94.5 17t-63.5 58.5t-23 116.5v228h-67v78l85 60l49 116h125v-111h136v-143h-136v-215q0 -54 52 -54z" />
    <glyph glyph-name="Tbar" unicode="&#x166;" horiz-adv-x="591" 
d="M199 0v267h-101v159h101v130h-174v158h541v-158h-174v-130h103v-159h-103v-267h-193z" />
    <glyph glyph-name="tbar" unicode="&#x167;" horiz-adv-x="480" 
d="M36 217v119h57v74h-67v78l85 60l49 116h125v-111h136v-143h-136v-74h119v-119h-119v-22q0 -54 52 -54q26 0 47.5 5.5t44.5 13.5v-139q-31 -13 -66 -22t-89 -9t-94.5 17t-63.5 58.5t-23 116.5v35h-57z" />
    <glyph glyph-name="Utilde" unicode="&#x168;" horiz-adv-x="757" 
d="M684 284q0 -135 -76.5 -214.5t-231.5 -79.5q-148 0 -225.5 75.5t-77.5 214.5v434h194v-419q0 -76 28.5 -110t83.5 -34q59 0 85.5 34.5t26.5 110.5v418h193v-430zM174 765q6 92 37.5 129.5t85.5 37.5q25 0 53.5 -11.5t57 -23.5t53.5 -12q9 0 19.5 8.5t15.5 39.5h89
q-6 -90 -39 -128.5t-81 -38.5q-29 0 -58.5 12t-57 23.5t-52.5 11.5q-9 0 -19 -8t-16 -40h-88z" />
    <glyph glyph-name="utilde" unicode="&#x169;" horiz-adv-x="670" 
d="M604 553v-553h-144l-24 69h-11q-26 -42 -71 -60.5t-96 -18.5q-54 0 -98 21t-69.5 66t-25.5 116v360h191v-302q0 -54 15.5 -82t50.5 -28q54 0 72.5 44t18.5 126v242h191zM130 604q6 92 37.5 129.5t85.5 37.5q25 0 53.5 -11.5t57 -23.5t53.5 -12q9 0 19.5 8.5t15.5 39.5h89
q-6 -90 -39 -128.5t-81 -38.5q-29 0 -58.5 12t-57 23.5t-52.5 11.5q-9 0 -19 -8t-16 -40h-88z" />
    <glyph glyph-name="Umacron" unicode="&#x16a;" horiz-adv-x="757" 
d="M684 284q0 -135 -76.5 -214.5t-231.5 -79.5q-148 0 -225.5 75.5t-77.5 214.5v434h194v-419q0 -76 28.5 -110t83.5 -34q59 0 85.5 34.5t26.5 110.5v418h193v-430zM557 882v-115h-355v115h355z" />
    <glyph glyph-name="umacron" unicode="&#x16b;" horiz-adv-x="670" 
d="M604 553v-553h-144l-24 69h-11q-26 -42 -71 -60.5t-96 -18.5q-54 0 -98 21t-69.5 66t-25.5 116v360h191v-302q0 -54 15.5 -82t50.5 -28q54 0 72.5 44t18.5 126v242h191zM513 721v-115h-355v115h355z" />
    <glyph glyph-name="Ubreve" unicode="&#x16c;" horiz-adv-x="757" 
d="M684 284q0 -135 -76.5 -214.5t-231.5 -79.5q-148 0 -225.5 75.5t-77.5 214.5v434h194v-419q0 -76 28.5 -110t83.5 -34q59 0 85.5 34.5t26.5 110.5v418h193v-430zM576 948q-5 -82 -56.5 -131.5t-142.5 -49.5q-95 0 -143.5 48.5t-52.5 132.5h103q11 -42 31.5 -53t61.5 -11
q32 0 57 12.5t35 51.5h107z" />
    <glyph glyph-name="ubreve" unicode="&#x16d;" horiz-adv-x="670" 
d="M604 553v-553h-144l-24 69h-11q-26 -42 -71 -60.5t-96 -18.5q-54 0 -98 21t-69.5 66t-25.5 116v360h191v-302q0 -54 15.5 -82t50.5 -28q54 0 72.5 44t18.5 126v242h191zM532 787q-5 -82 -56.5 -131.5t-142.5 -49.5q-95 0 -143.5 48.5t-52.5 132.5h103q11 -42 31.5 -53
t61.5 -11q32 0 57 12.5t35 51.5h107z" />
    <glyph glyph-name="Uring" unicode="&#x16e;" horiz-adv-x="757" 
d="M684 284q0 -135 -76.5 -214.5t-231.5 -79.5q-148 0 -225.5 75.5t-77.5 214.5v434h194v-419q0 -76 28.5 -110t83.5 -34q59 0 85.5 34.5t26.5 110.5v418h193v-430zM377 765q-58 0 -93.5 33t-35.5 90q0 58 35.5 91t93.5 33q55 0 94 -33t39 -90q0 -58 -38.5 -91t-94.5 -33z
M377 847q17 0 29 11.5t12 29.5q0 19 -12 30t-29 11t-29 -11t-12 -30q0 -18 10.5 -29.5t30.5 -11.5z" />
    <glyph glyph-name="uring" unicode="&#x16f;" horiz-adv-x="670" 
d="M604 553v-553h-144l-24 69h-11q-26 -42 -71 -60.5t-96 -18.5q-54 0 -98 21t-69.5 66t-25.5 116v360h191v-302q0 -54 15.5 -82t50.5 -28q54 0 72.5 44t18.5 126v242h191zM333 604q-58 0 -93.5 33t-35.5 90q0 58 35.5 91t93.5 33q55 0 94 -33t39 -90q0 -58 -38.5 -91
t-94.5 -33zM333 686q17 0 29 11.5t12 29.5q0 19 -12 30t-29 11t-29 -11t-12 -30q0 -18 10.5 -29.5t30.5 -11.5z" />
    <glyph glyph-name="Uhungarumlaut" unicode="&#x170;" horiz-adv-x="757" 
d="M684 284q0 -135 -76.5 -214.5t-231.5 -79.5q-148 0 -225.5 75.5t-77.5 214.5v434h194v-419q0 -76 28.5 -110t83.5 -34q59 0 85.5 34.5t26.5 110.5v418h193v-430zM633 917q-8 -13 -30 -33t-50.5 -42t-56 -42t-47.5 -33h-99v14q14 19 33 44.5t37.5 52.5t30.5 49h182v-10z
M406 917q-8 -13 -30 -33t-50.5 -42t-56 -42t-46.5 -33h-99v14q14 19 32.5 44.5t37 52.5t31.5 49h181v-10z" />
    <glyph glyph-name="uhungarumlaut" unicode="&#x171;" horiz-adv-x="670" 
d="M604 553v-553h-144l-24 69h-11q-26 -42 -71 -60.5t-96 -18.5q-54 0 -98 21t-69.5 66t-25.5 116v360h191v-302q0 -54 15.5 -82t50.5 -28q54 0 72.5 44t18.5 126v242h191zM589 756q-8 -13 -30 -33t-50.5 -42t-56 -42t-47.5 -33h-99v14q14 19 33 44.5t37.5 52.5t30.5 49h182
v-10zM362 756q-8 -13 -30 -33t-50.5 -42t-56 -42t-46.5 -33h-99v14q14 19 32.5 44.5t37 52.5t31.5 49h181v-10z" />
    <glyph glyph-name="Uogonek" unicode="&#x172;" horiz-adv-x="757" 
d="M519 -88q0 -25 10.5 -33.5t27.5 -8.5q13 0 30.5 3.5t27.5 7.5v-108q-16 -5 -37 -9t-48 -4q-57 0 -96 31.5t-39 90.5q0 25 10 53t35 59q-30 -4 -64 -4q-148 0 -225.5 75.5t-77.5 214.5v434h194v-419q0 -76 28.5 -110t83.5 -34q59 0 85.5 34.5t26.5 110.5v418h193v-430
q0 -70 -20.5 -125.5t-61.5 -93.5q-38 -46 -60.5 -80t-22.5 -73z" />
    <glyph glyph-name="uogonek" unicode="&#x173;" horiz-adv-x="670" 
d="M604 553v-553h-144l-24 69h-11q-26 -42 -71 -60.5t-96 -18.5q-54 0 -98 21t-69.5 66t-25.5 116v360h191v-302q0 -54 15.5 -82t50.5 -28q54 0 72.5 44t18.5 126v242h191zM501 -97q0 -18 10.5 -25.5t27.5 -7.5q13 0 30.5 3.5t27.5 7.5v-108q-16 -5 -37 -9t-48 -4
q-57 0 -96 30.5t-39 82.5q0 34 23.5 70.5t90.5 81.5l75 -25q-34 -32 -49.5 -53t-15.5 -44z" />
    <glyph glyph-name="Wcircumflex" unicode="&#x174;" horiz-adv-x="1039" 
d="M1024 714l-176 -714h-228l-68 311q-2 9 -6 30t-9.5 48t-9.5 53t-6 44q-2 -18 -6.5 -44t-9.5 -53t-9.5 -48t-6.5 -30l-69 -311h-228l-177 714h186l78 -358q3 -13 8 -37.5t10.5 -52.5t10.5 -54.5t7 -44.5q4 30 10.5 69t14.5 78.5t15.5 73.5t12.5 56l63 270h179l61 -270
q5 -21 12.5 -55.5t15.5 -74.5t15 -79t10 -68q3 25 10 62t14 72.5t11 53.5l79 359h186zM617 927q16 -23 38.5 -50.5t46 -53t40.5 -42.5v-14h-124q-26 15 -49 33t-49 40q-26 -22 -47.5 -39t-47.5 -34h-126v14q19 18 42.5 43.5t46 52.5t37.5 50h192z" />
    <glyph glyph-name="wcircumflex" unicode="&#x175;" horiz-adv-x="910" 
d="M484 242q-6 25 -12 58t-10.5 62.5t-6.5 44.5h-3q-2 -15 -7 -45t-11.5 -64t-13.5 -63l-56 -235h-201l-151 553h188l45 -212q5 -23 10 -55.5t9.5 -66t5.5 -60.5h3q1 20 5 46t8.5 52t8.5 46t5 27l51 223h211l47 -226q4 -19 9.5 -48.5t11 -61.5t7.5 -58h3q2 27 6 61.5t9 67
t10 53.5l49 212h184l-152 -553h-204zM552 766q16 -23 38.5 -50.5t46 -53t40.5 -42.5v-14h-124q-26 15 -49 33t-49 40q-26 -22 -47.5 -39t-47.5 -34h-126v14q19 18 42.5 43.5t46 52.5t37.5 50h192z" />
    <glyph glyph-name="Ycircumflex" unicode="&#x176;" horiz-adv-x="664" 
d="M332 449l123 265h209l-235 -435v-279h-194v273l-235 441h210zM429 927q16 -23 38.5 -50.5t46 -53t40.5 -42.5v-14h-124q-26 15 -49 33t-49 40q-26 -22 -47.5 -39t-47.5 -34h-126v14q19 18 42.5 43.5t46 52.5t37.5 50h192z" />
    <glyph glyph-name="ycircumflex" unicode="&#x177;" horiz-adv-x="610" 
d="M-1 553h201l94 -317q3 -10 5.5 -27t3.5 -33h4q2 20 5.5 34.5t6.5 24.5l96 318h195l-219 -588q-25 -67 -58.5 -113t-82.5 -69t-122 -23q-26 0 -45 2.5t-33 5.5v150q11 -2 26.5 -4t32.5 -2q47 0 69.5 27.5t36.5 63.5l2 5zM402 766q16 -23 38.5 -50.5t46 -53t40.5 -42.5v-14
h-124q-26 15 -49 33t-49 40q-26 -22 -47.5 -39t-47.5 -34h-126v14q19 18 42.5 43.5t46 52.5t37.5 50h192z" />
    <glyph glyph-name="Ydieresis" unicode="&#x178;" horiz-adv-x="664" 
d="M332 449l123 265h209l-235 -435v-279h-194v273l-235 441h210zM131 851q0 40 24 58.5t59 18.5q34 0 59 -18.5t25 -58.5q0 -39 -25 -57.5t-59 -18.5q-35 0 -59 18.5t-24 57.5zM365 851q0 40 24 58.5t60 18.5q34 0 59 -18.5t25 -58.5q0 -39 -25 -57.5t-59 -18.5
q-36 0 -60 18.5t-24 57.5z" />
    <glyph glyph-name="Zacute" unicode="&#x179;" horiz-adv-x="611" 
d="M586 0h-556v119l309 439h-302v156h541v-119l-309 -439h317v-156zM554 917q-18 -14 -45 -34.5t-58 -42t-59.5 -41t-48.5 -32.5h-127v14q17 19 41 44.5t48 52.5t40 49h209v-10z" />
    <glyph glyph-name="zacute" unicode="&#x17a;" horiz-adv-x="507" 
d="M482 0h-458v109l229 298h-216v146h434v-118l-219 -289h230v-146zM493 756q-18 -14 -45 -34.5t-58 -42t-59.5 -41t-48.5 -32.5h-127v14q17 19 41 44.5t48 52.5t40 49h209v-10z" />
    <glyph glyph-name="Zdotaccent" unicode="&#x17b;" horiz-adv-x="611" 
d="M586 0h-556v119l309 439h-302v156h541v-119l-309 -439h317v-156zM315 937q41 0 71.5 -17t30.5 -68q0 -49 -30.5 -66.5t-71.5 -17.5q-42 0 -71.5 17.5t-29.5 66.5q0 51 29.5 68t71.5 17z" />
    <glyph glyph-name="zdotaccent" unicode="&#x17c;" horiz-adv-x="507" 
d="M482 0h-458v109l229 298h-216v146h434v-118l-219 -289h230v-146zM254 776q41 0 71.5 -17t30.5 -68q0 -49 -30.5 -66.5t-71.5 -17.5q-42 0 -71.5 17.5t-29.5 66.5q0 51 29.5 68t71.5 17z" />
    <glyph glyph-name="Zcaron" unicode="&#x17d;" horiz-adv-x="611" 
d="M586 0h-556v119l309 439h-302v156h541v-119l-309 -439h317v-156zM220 767q-15 23 -37.5 50t-46 52.5t-42.5 43.5v14h126q26 -16 47.5 -33t47.5 -40q26 23 49 40.5t49 32.5h124v-14q-17 -17 -40.5 -42.5t-46 -53t-38.5 -50.5h-192z" />
    <glyph glyph-name="zcaron" unicode="&#x17e;" horiz-adv-x="507" 
d="M482 0h-458v109l229 298h-216v146h434v-118l-219 -289h230v-146zM159 606q-15 23 -37.5 50t-46 52.5t-42.5 43.5v14h126q26 -16 47.5 -33t47.5 -40q26 23 49 40.5t49 32.5h124v-14q-17 -17 -40.5 -42.5t-46 -53t-38.5 -50.5h-192z" />
    <glyph glyph-name="longs" unicode="&#x17f;" horiz-adv-x="403" 
d="M310 628q-32 0 -42.5 -18t-10.5 -55v-555h-191v559q0 87 25 131t70.5 59.5t107.5 15.5q52 0 90.5 -7.5t63.5 -18.5l-37 -127q-18 5 -35.5 10.5t-40.5 5.5z" />
    <glyph glyph-name="uni0180" unicode="&#x180;" horiz-adv-x="650" 
d="M408 -10q-41 0 -67 9.5t-43 24t-31 27.5h-12l-30 -51h-152v567h-76v123h76v70h194v-70h120v-123h-120v3q0 -55 -7 -97h7q18 27 52.5 51t93.5 24q55 0 100 -25.5t71.5 -84.5t26.5 -160q0 -99 -27 -163t-73 -94.5t-103 -30.5zM347 146q27 0 46.5 34t19.5 100q0 65 -20 90
t-49 25q-28 0 -51.5 -25.5t-25.5 -81.5v-5q0 -66 17 -101.5t63 -35.5z" />
    <glyph glyph-name="uni0181" unicode="&#x181;" horiz-adv-x="830" 
d="M228 0v554h-26q-23 0 -34.5 -13.5t-11.5 -30.5t3.5 -27t6.5 -18h-150q-4 7 -8.5 22t-4.5 37q0 51 19 94t63.5 69.5t122.5 26.5h253q99 0 166.5 -16t102.5 -55.5t35 -109.5q0 -61 -24.5 -103t-68.5 -50v-6q26 -7 51.5 -23.5t42.5 -50t17 -92.5q0 -94 -70.5 -151
t-196.5 -57h-288zM481 447q50 0 66.5 15t16.5 42q0 28 -20.5 39t-68.5 11h-51v-107h57zM492 161q55 0 71.5 20.5t16.5 48.5q0 16 -6.5 30.5t-26 23.5t-57.5 9h-66v-132h68z" />
    <glyph glyph-name="uni0182" unicode="&#x182;" horiz-adv-x="647" 
d="M77 0v714h470v-155h-277v-97h70q137 0 202.5 -61t65.5 -159q0 -112 -76 -177t-212 -65h-243zM323 153q92 0 92 80q0 37 -25 56.5t-63 19.5h-57v-156h53z" />
    <glyph glyph-name="uni0183" unicode="&#x183;" horiz-adv-x="650" 
d="M408 -10q-41 0 -67 9.5t-43 24t-31 27.5h-12l-30 -51h-152v760h486v-144h-292v-41q0 -37 -2.5 -62.5t-4.5 -39.5h7q18 27 52.5 51t93.5 24q55 0 100 -25.5t71.5 -84.5t26.5 -160q0 -99 -27 -163t-73 -94.5t-103 -30.5zM347 146q27 0 46.5 34t19.5 100q0 65 -20 90t-49 25
q-28 0 -51.5 -25.5t-25.5 -81.5v-5q0 -66 17 -101.5t63 -35.5z" />
    <glyph glyph-name="uni0184" unicode="&#x184;" horiz-adv-x="688" 
d="M362 -15q-135 0 -209.5 53t-74.5 174v502h196v-256h65q109 0 177.5 -31.5t101 -84.5t32.5 -118q0 -109 -70.5 -174t-217.5 -65zM355 145q41 0 69 18t28 61q0 49 -37.5 61.5t-102.5 12.5h-38v-78q0 -75 81 -75z" />
    <glyph glyph-name="uni0185" unicode="&#x185;" horiz-adv-x="652" 
d="M346 -10q-86 0 -148 34t-95.5 97t-33.5 150v489h194v-169q0 -34 -2 -58t-5 -44h7q20 27 56.5 50.5t94.5 23.5q56 0 100.5 -32.5t71 -96t26.5 -158.5q0 -101 -36.5 -164t-97 -92.5t-132.5 -29.5zM341 145q35 0 54.5 27.5t19.5 103.5q0 68 -20.5 101t-49.5 33
q-43 0 -62.5 -27.5t-19.5 -80.5v-34q0 -70 22.5 -96.5t55.5 -26.5z" />
    <glyph glyph-name="uni0186" unicode="&#x186;" horiz-adv-x="649" 
d="M250 -10q-53 0 -99.5 10.5t-90.5 29.5v163q45 -19 88.5 -32t90.5 -13q161 0 161 205q0 100 -39 156.5t-107 56.5q-45 0 -89.5 -11t-83.5 -30l-47 149q55 26 118 38t115 12q112 0 185 -44t109.5 -124t36.5 -188t-38.5 -193.5t-115.5 -135t-194 -49.5z" />
    <glyph glyph-name="uni0187" unicode="&#x187;" horiz-adv-x="644" 
d="M633 888q24 0 46 -5.5t30 -10.5v-147q-9 3 -24 6.5t-32 3.5q-22 0 -34 -11.5t-12 -39.5v-29l-62 -144q-40 18 -80 34.5t-78 16.5q-63 0 -96 -55t-33 -153q0 -100 30 -151t103 -51q43 0 87.5 12t101.5 33v-165q-52 -22 -98.5 -32t-105.5 -10q-113 0 -183.5 45.5
t-103.5 127.5t-33 192q0 108 37 191t111 130.5t184 47.5q17 0 33 -2t32 -5v-5q0 62 25 100.5t66 57t89 18.5z" />
    <glyph glyph-name="uni0188" unicode="&#x188;" horiz-adv-x="532" 
d="M300 -10q-82 0 -140.5 28t-89.5 90.5t-31 165.5q0 107 36.5 170.5t99 91t140.5 27.5h17t16 -2v3q0 74 23 117.5t64 63t94 19.5q24 0 45.5 -6t29.5 -11v-147q-9 3 -24 6.5t-32 3.5q-22 0 -34 -11.5t-12 -39.5v-46l-58 -141q-35 16 -65.5 26.5t-62.5 10.5q-41 0 -60 -33
t-19 -101q0 -73 22.5 -101t59.5 -28q51 0 88 14.5t73 41.5v-164q-38 -26 -77 -37t-103 -11z" />
    <glyph glyph-name="Dtail" unicode="&#x189;" horiz-adv-x="734" 
d="M324 714q173 0 266 -88t93 -254q0 -124 -46.5 -207t-130.5 -124t-198 -41h-231v275h-62v156h62v283h247zM326 558h-56v-127h103v-156h-103v-117h43q88 0 129 51t41 156q0 193 -157 193z" />
    <glyph glyph-name="uni018A" unicode="&#x18a;" horiz-adv-x="893" 
d="M228 0v554h-26q-23 0 -34.5 -13.5t-11.5 -30.5t3.5 -27t6.5 -18h-150q-4 7 -8.5 22t-4.5 37q0 51 19 94t63.5 69.5t122.5 26.5h258q111 0 196 -40t132.5 -117.5t47.5 -192.5q0 -120 -48 -201t-137 -122t-213 -41h-216zM465 161q89 0 131.5 50t42.5 148q0 103 -40 149
t-116 46h-59v-393h41z" />
    <glyph glyph-name="uni018B" unicode="&#x18b;" horiz-adv-x="643" 
d="M313 0q-136 0 -207 57t-71 169q0 65 31.5 118.5t93.5 85.5t153 32h60v92h-274v160h467v-714h-253zM320 153h53v156h-57q-37 0 -62.5 -21.5t-25.5 -58.5q0 -76 92 -76z" />
    <glyph glyph-name="uni018C" unicode="&#x18c;" horiz-adv-x="650" 
d="M236 -10q-55 0 -100 32.5t-71 97t-26 158.5q0 87 27 147t73 91.5t103 31.5q59 0 95.5 -24t53.5 -50h5q-2 6 -5 24t-5.5 40t-2.5 40v38h-292v144h486v-760h-151l-37 66h-6q-18 -28 -52.5 -52t-94.5 -24zM312 143q44 0 63.5 26.5t21.5 84.5v19q0 56 -19 88t-69 32
q-32 0 -53 -31t-21 -87q0 -65 21.5 -98.5t55.5 -33.5z" />
    <glyph glyph-name="uni018D" unicode="&#x18d;" horiz-adv-x="636" 
d="M334 563q79 0 140 -28.5t95.5 -81t34.5 -124.5q0 -78 -39 -139.5t-134 -94.5q49 -28 72.5 -63.5t23.5 -85.5q0 -73 -57.5 -115.5t-174.5 -42.5q-61 0 -120 15.5t-101 50.5l71 134q35 -32 71.5 -47t69.5 -15q32 0 45.5 11t13.5 27q0 12 -6.5 21t-24.5 20.5t-52 30.5
q-79 45 -124.5 86.5t-64 88.5t-18.5 108q0 70 33.5 125t96 87t149.5 32zM331 421q-41 0 -62.5 -30.5t-21.5 -78.5q0 -46 21 -77.5t56 -50.5q43 17 67 49.5t24 80.5q0 50 -23 78.5t-61 28.5z" />
    <glyph glyph-name="uni018E" unicode="&#x18e;" horiz-adv-x="549" 
d="M48 0v157h231v135h-214v155h214v112h-231v155h424v-714h-424z" />
    <glyph glyph-name="uni018F" unicode="&#x18f;" horiz-adv-x="793" 
d="M367 566q-71 0 -138.5 -20t-133.5 -64v169q50 32 128.5 52.5t166.5 20.5q72 0 136 -21t113 -65.5t77 -112.5t28 -163q0 -129 -44.5 -211t-125 -121.5t-187.5 -39.5q-168 0 -254.5 100t-86.5 293v30h492q-2 41 -20 76t-54.5 56t-96.5 21zM393 138q57 0 98 37.5t47 103.5
h-292q5 -61 43 -101t104 -40z" />
    <glyph glyph-name="uni0190" unicode="&#x190;" horiz-adv-x="636" 
d="M331 726q92 0 155.5 -22t119.5 -58l-79 -129q-35 22 -78 37.5t-94 15.5q-53 0 -77 -16t-24 -39q0 -20 16.5 -36t58 -24.5t114.5 -8.5h34v-150h-46q-93 0 -147 -17t-54 -58q0 -36 31.5 -58t117.5 -22q49 0 107 12.5t101 34.5v-162q-44 -18 -108 -28t-149 -10
q-103 0 -168 27.5t-95.5 74.5t-30.5 107q0 76 54.5 123t149.5 51v3q-50 6 -89.5 24t-62.5 52t-23 86q0 83 67.5 136.5t198.5 53.5z" />
    <glyph glyph-name="uni0191" unicode="&#x191;" horiz-adv-x="704" 
d="M213 -242q-110 0 -167.5 52t-57.5 140q0 32 9.5 58t22.5 44l136 -48q-14 -29 -14 -57q0 -26 14.5 -39.5t36.5 -13.5q25 0 39.5 18t14.5 53v749h397v-159h-207v-111h190v-159h-190v-317q0 -72 -30 -118.5t-81 -69t-113 -22.5z" />
    <glyph glyph-name="fhook" unicode="&#x192;" horiz-adv-x="553" 
d="M204 -242q-106 0 -157.5 49.5t-51.5 133.5q0 32 8.5 57t18.5 42l140 -47q-7 -15 -10 -27.5t-3 -27.5q0 -22 11.5 -33t28.5 -11q46 0 46 65v451h-73v94l77 47v9q0 107 44 156t144 49q43 0 78 -6.5t73 -19.5l-41 -124q-14 4 -31.5 7t-37.5 3q-42 0 -42 -57v-15h118v-143
h-118v-450q0 -71 -30 -116t-80 -65.5t-112 -20.5z" />
    <glyph glyph-name="uni0193" unicode="&#x193;" horiz-adv-x="724" 
d="M673 888q24 0 46 -5.5t30 -10.5v-147q-9 3 -24 6.5t-32 3.5q-22 0 -33.5 -11.5t-11.5 -39.5v-18l-65 -142q-27 14 -66.5 25.5t-83.5 11.5q-79 0 -127 -56.5t-48 -150.5q0 -53 11.5 -99t40 -74t78.5 -28q24 0 37.5 1.5t26.5 0.5v103h-100v161h292v-389q-58 -18 -120 -29
t-144 -11q-154 0 -239 93t-85 276q0 174 98 269.5t279 95.5q15 0 30 -0.5t30 -1.5v-8q0 62 25 100t66 56t89 18z" />
    <glyph glyph-name="Gammalatin" unicode="&#x194;" horiz-adv-x="672" 
d="M334 -240q-83 0 -127 46t-44 125q0 57 24 112t52 110l-239 561h206l95 -271q12 -34 19.5 -59.5t14.5 -58.5q8 34 16.5 59.5t21.5 56.5l107 273h206l-259 -564q29 -49 55 -103.5t26 -116.5q0 -74 -45.5 -122t-128.5 -48zM335 -106q29 0 29 46q0 43 -29 95q-28 -48 -28 -96
q0 -45 28 -45z" />
    <glyph glyph-name="uni0195" unicode="&#x195;" horiz-adv-x="1021" 
d="M683 -15q-143 0 -206 53.5t-63 168.5v101q0 49 -15.5 75.5t-47.5 26.5q-48 0 -66 -44.5t-18 -124.5v-241h-194v760h194v-115q0 -79 -9 -157h10q51 75 144 75q56 0 100.5 -22t70 -68t25.5 -120v-115q0 -98 72 -98q41 0 58.5 29.5t17.5 102.5v276h195v-293
q0 -139 -66.5 -204.5t-201.5 -65.5z" />
    <glyph glyph-name="Iotalatin" unicode="&#x196;" horiz-adv-x="442" 
d="M285 -10q-55 0 -101 17.5t-73.5 62t-27.5 126.5v518h207v-503q0 -26 16 -42t38 -16q27 0 47 5t43 14v-152q-26 -13 -65 -21.5t-84 -8.5z" />
    <glyph glyph-name="uni0197" unicode="&#x197;" horiz-adv-x="427" 
d="M405 714v-110l-93 -54v-118h93v-162h-93v-106l93 -54v-110h-382v110l92 54v106h-92v162h92v118l-92 54v110h382z" />
    <glyph glyph-name="uni0198" unicode="&#x198;" horiz-adv-x="701" 
d="M585 727q32 0 55.5 -6t36.5 -13v-151q-9 4 -22.5 7.5t-30.5 3.5q-22 0 -40.5 -12.5t-28.5 -27.5l-84 -136l230 -392h-222l-147 267l-51 -29v-238h-196v714h196v-310q13 24 28.5 52t29.5 52l30 50q28 47 59 85t69.5 61t87.5 23z" />
    <glyph glyph-name="uni0199" unicode="&#x199;" horiz-adv-x="681" 
d="M275 768q27 0 52 -6.5t36 -11.5v-145q-7 3 -22.5 6.5t-32.5 3.5q-19 0 -30 -10t-11 -36v-130q0 -28 -3 -57t-7 -56h2q13 23 30.5 46.5t36.5 43.5l127 137h217l-220 -242l231 -311h-223l-137 200l-54 -39v-161h-194v572q0 73 25.5 115.5t71.5 61.5t105 19z" />
    <glyph glyph-name="uni019A" unicode="&#x19a;" horiz-adv-x="323" 
d="M66 0v298h-59v132h59v330h191v-330h60v-132h-60v-298h-191z" />
    <glyph glyph-name="uni019B" unicode="&#x19b;" horiz-adv-x="665" 
d="M0 0l238 516l-2 6l-97 -30l-32 100l78 21q-8 9 -24 13.5t-34 4.5q-16 0 -30 -2t-30 -6v135q9 2 26 4t35.5 3t30.5 1q74 0 122 -21t79 -72l88 30l32 -105l-73 -23l128 -358q18 -50 36 -63.5t45 -13.5q11 0 21 1.5t19 3.5v-136q-13 -5 -35.5 -10.5t-58.5 -5.5
q-77 0 -119.5 35.5t-66.5 103.5l-31 87q-10 30 -16.5 53t-9.5 40h-4q-7 -24 -14.5 -47.5t-14.5 -40.5l-88 -224h-198z" />
    <glyph glyph-name="uni019C" unicode="&#x19c;" horiz-adv-x="1057" 
d="M286 -10q-58 0 -104 20t-72.5 63.5t-26.5 114.5v526h197v-465q0 -96 56 -96q50 0 70 40.5t20 110.5v410h196v-465q0 -96 57 -96q54 0 72 44.5t18 120.5v396h198v-714h-148l-26 74h-11q-28 -43 -74.5 -63.5t-93.5 -20.5q-53 0 -92.5 20.5t-66.5 58.5h-9q-29 -40 -71 -59.5
t-89 -19.5z" />
    <glyph glyph-name="uni019D" unicode="&#x19d;" horiz-adv-x="854" 
d="M63 -267q-28 0 -49 6.5t-32 10.5v145q7 -2 22.5 -6t32.5 -4q20 0 34 13t14 41v775h254l260 -491h3q0 8 -1.5 31t-3 54.5t-2.5 64.5t-1 61v280h175v-714h-256l-260 498h-4q2 -19 4 -53.5t4 -77.5t2 -88v-347q0 -106 -54.5 -152.5t-141.5 -46.5z" />
    <glyph glyph-name="uni019E" unicode="&#x19e;" horiz-adv-x="670" 
d="M410 -240v555q0 45 -15.5 71.5t-50.5 26.5q-51 0 -69 -44t-18 -127v-242h-191v553h144l24 -68h11q26 42 70.5 60t92.5 18q54 0 98 -21t69.5 -66t25.5 -116v-600h-191z" />
    <glyph glyph-name="uni019F" unicode="&#x19f;" horiz-adv-x="797" 
d="M745 358q0 -111 -35.5 -193.5t-112 -128.5t-199.5 -46q-120 0 -197 46t-113.5 129t-36.5 194t37 193.5t114 127.5t197 45q122 0 198.5 -45.5t112 -128t35.5 -193.5zM399 577q-73 0 -111 -37.5t-47 -106.5h314q-8 69 -45 106.5t-111 37.5zM398 141q80 0 117 40t43 110
h-320q6 -70 45 -110t115 -40z" />
    <glyph glyph-name="Ohorn" unicode="&#x1a0;" horiz-adv-x="845" 
d="M746 358q0 -111 -36 -193.5t-112.5 -128.5t-199.5 -46q-119 0 -196 46t-114 129t-37 194t37.5 193.5t115 127.5t197.5 45q89 0 155 -24.5t107 -70.5q13 24 22.5 54t9.5 76h183l7 -11q-20 -97 -57.5 -149t-100.5 -79q19 -72 19 -163zM254 358q0 -97 34 -152t110 -55
q79 0 112 55t33 152q0 98 -33 153.5t-111 55.5q-77 0 -111 -55.5t-34 -153.5z" />
    <glyph glyph-name="ohorn" unicode="&#x1a1;" horiz-adv-x="722" 
d="M594 278q0 -139 -74 -213.5t-203 -74.5q-80 0 -142 33.5t-97.5 98t-35.5 156.5q0 137 74 211t204 74q56 0 108 -16.5t88 -49.5q24 11 37.5 47.5t13.5 90.5h184l7 -11q-9 -50 -26 -94.5t-53 -78t-103 -51.5q18 -54 18 -122zM237 278q0 -67 19 -101.5t63 -34.5
q43 0 62 34.5t19 101.5q0 68 -19 100.5t-63 32.5q-43 0 -62 -32.5t-19 -100.5z" />
    <glyph glyph-name="uni01A2" unicode="&#x1a2;" horiz-adv-x="1161" 
d="M739 358q0 -114 -35.5 -196.5t-111 -127t-195.5 -44.5q-119 0 -194.5 45t-111 127.5t-35.5 196.5q0 111 35.5 193.5t111.5 127.5t195 45q82 0 143 -22t102 -63q40 36 91.5 60.5t124.5 24.5q63 0 113 -25t79 -78.5t29 -140.5v-481h-197v465q0 47 -20.5 72.5t-60.5 25.5
q-37 0 -57.5 -7.5t-35.5 -15.5q16 -39 23 -85t7 -97zM262 358q0 -98 31.5 -151.5t103.5 -53.5q74 0 105 54t31 151q0 63 -12 109t-41.5 71.5t-81.5 25.5q-73 0 -104.5 -53.5t-31.5 -152.5z" />
    <glyph glyph-name="uni01A3" unicode="&#x1a3;" horiz-adv-x="964" 
d="M566 278q0 -143 -73 -215.5t-192 -72.5q-75 0 -134 31t-93.5 95t-34.5 162q0 141 72.5 213t192.5 72q61 0 110 -20.5t86 -64.5q38 48 86 66.5t103 18.5q62 0 109.5 -21t74.5 -66.5t27 -119.5v-596h-194v543q0 51 -18 79t-59 28q-52 0 -74 -29q5 -23 8 -48.5t3 -54.5z
M237 278q0 -71 15 -102.5t51 -31.5q35 0 50 31t15 103q0 71 -15 101t-51 30q-37 0 -51 -31.5t-14 -99.5z" />
    <glyph glyph-name="uni01A4" unicode="&#x1a4;" horiz-adv-x="786" 
d="M228 0v554h-26q-23 0 -34.5 -13.5t-11.5 -30.5t3.5 -27t6.5 -18h-150q-4 7 -8.5 22t-4.5 37q0 51 19 94t63.5 69.5t122.5 26.5h272q143 0 206 -63t63 -168q0 -43 -11.5 -86.5t-42 -80t-85.5 -58.5t-141 -22h-45v-236h-196zM453 396q44 0 71.5 21t27.5 60q0 77 -81 77h-47
v-158h29z" />
    <glyph glyph-name="uni01A5" unicode="&#x1a5;" horiz-adv-x="650" 
d="M270 765q28 0 51.5 -6t32.5 -11v-146q-4 2 -18.5 6t-31.5 4q-16 0 -26.5 -9t-10.5 -30v-6q0 -20 -2 -37t-4 -44h6q20 29 54.5 53t89.5 24q57 0 102 -32.5t71.5 -95.5t26.5 -157q0 -98 -26.5 -162t-71.5 -95t-101 -31q-58 0 -91 18.5t-52 37.5h-7q3 -5 4 -22.5t1 -38.5
v-225h-194v818q0 69 25 110t69.5 59t102.5 18zM342 410q-41 0 -57 -27.5t-18 -86.5v-16q0 -64 17.5 -99t60.5 -35q34 0 51 32t17 104q0 64 -16.5 96t-54.5 32z" />
    <glyph glyph-name="uni01A6" unicode="&#x1a6;" horiz-adv-x="690" 
d="M483 -100l-164 257h-38v-157h-196v714h196v-100h29q152 0 224 -54.5t72 -167.5q0 -49 -19.5 -85t-48 -60.5t-56.5 -41.5l218 -305h-217zM291 316q68 0 93 18.5t25 53.5q0 34 -26 50t-88 16h-14v-138h10z" />
    <glyph glyph-name="uni01A7" unicode="&#x1a7;" horiz-adv-x="554" 
d="M287 724q110 0 170 -54t60 -153q0 -51 -16 -87.5t-42 -61.5t-56 -42.5t-58 -31.5q-51 -24 -83 -46t-32 -50q0 -20 13.5 -33.5t53.5 -13.5q51 0 104.5 14.5t111.5 36.5v-160q-47 -24 -106 -38t-122 -14q-88 0 -142.5 26t-79 73t-24.5 110q0 78 38.5 132t118.5 92
q73 32 101 53t28 48q0 17 -12.5 27t-42.5 10q-38 0 -77.5 -11.5t-91.5 -32.5l-57 152q55 25 115.5 40t127.5 15z" />
    <glyph glyph-name="uni01A8" unicode="&#x1a8;" horiz-adv-x="511" 
d="M262 563q61 0 110 -17t78 -52t29 -89q0 -45 -13 -77t-44 -56t-84 -46q-44 -18 -67 -30t-31.5 -20t-9.5 -13t-1 -8q0 -15 15 -21t42 -6q35 0 80.5 9.5t93.5 36.5v-142q-46 -25 -89.5 -33.5t-96.5 -8.5q-236 0 -236 171q0 68 36.5 112t107.5 72q50 19 71.5 30t27 17.5
t5.5 9.5q0 10 -12.5 15.5t-31.5 5.5q-34 0 -67.5 -12t-77.5 -32l-51 137q54 26 108.5 36.5t107.5 10.5z" />
    <glyph glyph-name="uni01A9" unicode="&#x1a9;" horiz-adv-x="610" 
d="M30 0v138l209 231l-201 200v145l540 -1v-155l-210 1q-15 0 -40 0.5t-55 4.5l152 -161v-39l-185 -213q32 3 72.5 4.5t76.5 1.5h196v-157h-555z" />
    <glyph glyph-name="uni01AA" unicode="&#x1aa;" horiz-adv-x="443" 
d="M145 772q72 0 114 -25t59.5 -70t17.5 -105v-621q0 -18 14.5 -28.5t36.5 -10.5q28 0 54 5.5t54 14.5v-142q-27 -13 -67.5 -21.5t-87.5 -8.5q-55 0 -100 16t-71.5 58t-26.5 120v571h-2q-79 0 -114.5 36.5t-35.5 92.5q0 48 39 83t116 35zM117 673q-6 0 -12 -6.5t-6 -14.5
q0 -11 11 -22.5t30 -11.5h2v24q0 15 -7.5 23t-17.5 8z" />
    <glyph glyph-name="uni01AB" unicode="&#x1ab;" horiz-adv-x="479" 
d="M287 -240q-53 0 -89 14v131q9 -3 20.5 -5.5t23.5 -2.5q23 0 32.5 9.5t9.5 40.5v43h-13q-31 0 -62.5 8.5t-57 29t-41 58.5t-15.5 96v227h-67v79l83 63l52 112h126v-110h152v-144h-152v-210q0 -33 16.5 -44.5t38.5 -11.5q25 0 49.5 6t50.5 15v-215q0 -102 -39.5 -145.5
t-117.5 -43.5z" />
    <glyph glyph-name="uni01AC" unicode="&#x1ac;" horiz-adv-x="660" 
d="M260 0v552h-58q-23 0 -34.5 -14t-11.5 -31q0 -15 3.5 -24.5t6.5 -17.5h-150q-4 7 -8.5 22t-4.5 37q0 51 19 94t63.5 69.5t122.5 26.5h426v-162h-177v-552h-197z" />
    <glyph glyph-name="uni01AD" unicode="&#x1ad;" horiz-adv-x="479" 
d="M313 765q32 0 60.5 -6.5t43.5 -11.5v-147q-10 3 -33 7.5t-46 4.5q-26 0 -37.5 -10t-11.5 -30v-19h152v-144h-152v-230q0 -18 16.5 -27t38.5 -9q25 0 49.5 6t50.5 15v-143q-27 -13 -69.5 -22t-92.5 -9t-92.5 15.5t-68.5 57t-26 119.5v227h-67v79l67 53v37q0 69 27 110
t76 59t115 18z" />
    <glyph glyph-name="uni01AE" unicode="&#x1ae;" horiz-adv-x="604" 
d="M406 -267q-95 0 -148.5 47t-53.5 156v616h-177v162h550v-162h-177v-613q0 -29 14.5 -41.5t33.5 -12.5q18 0 33 4t22 6v-145q-13 -5 -40.5 -11t-56.5 -6z" />
    <glyph glyph-name="Uhorn" unicode="&#x1af;" horiz-adv-x="900" 
d="M684 615q35 18 50 58.5t15 86.5h184l7 -11q-9 -44 -24 -83.5t-42.5 -72.5t-73 -55.5t-116.5 -31.5v-254q0 -74 -36 -133.5t-105.5 -94t-171.5 -34.5q-145 0 -221.5 72.5t-76.5 191.5v460h194v-438q0 -75 27.5 -100t82.5 -25q58 0 86 28t28 98v437h193v-99z" />
    <glyph glyph-name="uhorn" unicode="&#x1b0;" horiz-adv-x="810" 
d="M846 623q-9 -45 -23 -84.5t-39.5 -71.5t-69 -55t-110.5 -34v-378h-144l-24 69h-13q-26 -42 -71 -60.5t-95 -18.5q-54 0 -97.5 21t-69 66t-25.5 116v360h191v-302q0 -54 15.5 -82t50.5 -28q54 0 72 44t18 126v242h192v-65q26 14 38.5 55.5t12.5 90.5h184z" />
    <glyph glyph-name="Upsilonlatin" unicode="&#x1b1;" horiz-adv-x="791" 
d="M395 153q68 0 107.5 41.5t39.5 130.5q0 48 -7.5 90t-29 73t-63.5 45v181h328v-163h-173q45 -20 78 -62t51 -96.5t18 -115.5q0 -87 -42 -151.5t-120.5 -100t-186.5 -35.5q-105 0 -183.5 36.5t-121.5 101.5t-43 151q0 65 19.5 119.5t53.5 94t78 58.5h-177v163h331v-181
q-43 -14 -65 -45.5t-30 -74.5t-8 -90q0 -87 39.5 -128.5t106.5 -41.5z" />
    <glyph glyph-name="uni01B2" unicode="&#x1b2;" horiz-adv-x="757" 
d="M376 -10q-148 0 -225.5 75.5t-77.5 214.5v434h194v-419q0 -76 28.5 -110t83.5 -34q59 0 85.5 34.5t26.5 110.5v225q0 23 -13 32t-30 9q-15 0 -30 -3.5t-33 -11.5v151q20 11 52 19t67 8q95 0 137.5 -45.5t42.5 -113.5v-282q0 -135 -76.5 -214.5t-231.5 -79.5z" />
    <glyph glyph-name="uni01B3" unicode="&#x1b3;" horiz-adv-x="670" 
d="M235 0v273l-235 441h210l122 -265l58 129q31 68 70 107t108 39q26 0 51.5 -6.5t40.5 -14.5v-150q-7 4 -19 7t-19 3q-17 0 -29.5 -6.5t-29 -31t-45.5 -78.5l-89 -168v-279h-194z" />
    <glyph glyph-name="uni01B4" unicode="&#x1b4;" horiz-adv-x="669" 
d="M559 564q26 0 56 -6t46 -14v-147q-22 5 -36 5q-17 0 -32 -9t-30 -35t-34 -77l-121 -337q-32 -88 -101.5 -136t-167.5 -48q-19 0 -41.5 2.5t-34.5 4.5v152q8 -1 25.5 -3t29.5 -2q41 0 73 18.5t44 62.5l3 11l-224 547h213l74 -234q2 -7 7.5 -34t9.5 -64h3q3 18 8.5 44
t12.5 46l39 109q12 33 33 66.5t56 55.5t89 22z" />
    <glyph glyph-name="uni01B5" unicode="&#x1b5;" horiz-adv-x="580" 
d="M59 434h178l88 120h-304v160h534v-125l-112 -155h67v-161h-181l-81 -113h316v-160h-547v125l107 148h-65v161z" />
    <glyph glyph-name="uni01B6" unicode="&#x1b6;" horiz-adv-x="507" 
d="M471 553v-118l-74 -97h70v-122h-162l-53 -70h230v-146h-458v109l82 107h-65v122h159l53 69h-216v146h434z" />
    <glyph glyph-name="uni01B7" unicode="&#x1b7;" horiz-adv-x="634" 
d="M547 714v-119l-197 -173q113 -6 175.5 -61t62.5 -142q0 -67 -34.5 -118.5t-105.5 -81t-183 -29.5q-64 0 -122 10.5t-107 28.5v166q52 -24 110.5 -35.5t103.5 -11.5q55 0 85.5 10t42.5 27.5t12 39.5q0 20 -15.5 35.5t-57 24.5t-120.5 9h-55v129l150 133h-229v158h484z" />
    <glyph glyph-name="uni01B8" unicode="&#x1b8;" horiz-adv-x="604" 
d="M352 -10q-106 0 -177 28t-106 77.5t-35 112.5q0 97 57.5 150t163.5 66l-187 170v120h489v-160h-222l137 -124v-135h-52q-74 0 -116 -9t-59 -25t-17 -37q0 -38 31 -59.5t111 -21.5q45 0 104 13t109 36v-164q-51 -19 -107 -28.5t-124 -9.5z" />
    <glyph glyph-name="uni01B9" unicode="&#x1b9;" horiz-adv-x="635" 
d="M344 -240q-105 1 -172 33t-99 87.5t-33 125.5q0 60 21.5 111.5t70.5 89.5t131 55l-197 166v125h516v-146h-278l172 -149v-136h-56q-75 0 -115 -14.5t-54.5 -38t-14.5 -51.5q0 -25 11.5 -49t41 -39.5t83.5 -15.5q44 0 104 13.5t110 38.5v-162q-51 -22 -109.5 -33
t-132.5 -11z" />
    <glyph glyph-name="uni01BA" unicode="&#x1ba;" horiz-adv-x="560" 
d="M243 -240q-63 0 -112.5 19t-78 57.5t-28.5 97.5q0 46 18 82t61 60t117 32q60 7 87 16.5t27 37.5t-29 38t-100 10h-64v99l139 109h-233v135h451v-118l-161 -117q48 -2 92.5 -16.5t72.5 -48.5t28 -96q0 -36 -9 -65.5t-35 -52.5t-75.5 -38.5t-131.5 -21.5q-49 -4 -70 -12.5
t-21 -28.5q0 -22 22 -30.5t59 -8.5q72 0 128 15.5t92 27.5v-138q-40 -17 -106 -30.5t-140 -13.5z" />
    <glyph glyph-name="uni01BB" unicode="&#x1bb;" horiz-adv-x="570" 
d="M264 761q76 0 130.5 -29t84 -76.5t29.5 -104.5q0 -33 -4 -62t-21 -61h56v-122h-143l-154 -153v-9h295v-144h-523v142l165 164h-158v122h260q25 31 28.5 58t3.5 53q0 28 -20 48.5t-52 20.5q-43 0 -74 -21t-60 -52l-94 116q19 19 51 44.5t81 45.5t119 20z" />
    <glyph glyph-name="uni01BC" unicode="&#x1bc;" horiz-adv-x="610" 
d="M249 -10q-73 0 -131 12.5t-90 25.5v166q21 -11 54.5 -21.5t73 -17t78.5 -6.5q63 0 101.5 18t38.5 63q0 44 -30 61.5t-95 17.5h-117v237h-108v168h529v-168h-246v-87h13q76 0 132.5 -21.5t88 -68.5t31.5 -124q0 -74 -32.5 -132t-103.5 -90.5t-187 -32.5z" />
    <glyph glyph-name="uni01BD" unicode="&#x1bd;" horiz-adv-x="605" 
d="M253 -11q-67 0 -123 11t-83 21v154q18 -8 52.5 -17.5t77.5 -15t86 -4.5q62 2 86.5 15t24.5 37q0 23 -27 31.5t-78 8.5h-130v180h-95v143h497v-143h-231v-57h37q107 0 160.5 -40.5t53.5 -129.5q0 -88 -73 -141t-235 -53z" />
    <glyph glyph-name="uni01BE" unicode="&#x1be;" horiz-adv-x="519" 
d="M236 -10q-33 0 -72 5t-74 14t-59 21v152q21 -12 54 -24.5t71 -21t72 -8.5q38 0 53 9t15 28q0 16 -12.5 26t-38.5 21q-42 19 -69 39.5t-39.5 50t-12.5 74.5v33h-102v79l105 63l52 112h126v-110h130v-144h-130v-18q0 -21 12.5 -34.5t46.5 -30.5q53 -25 86.5 -59t33.5 -93
q0 -50 -23.5 -92t-77.5 -67t-147 -25z" />
    <glyph glyph-name="uni01BF" unicode="&#x1bf;" horiz-adv-x="650" 
d="M413 563q92 0 148 -65.5t56 -190.5q0 -81 -36.5 -151.5t-113.5 -117t-200 -55.5v-223h-194v793h157l26 -64h9q20 29 55.5 51.5t92.5 22.5zM344 406q-40 0 -58.5 -28t-18.5 -81v-168q67 8 109.5 51.5t42.5 125.5q0 48 -18.5 74t-56.5 26z" />
    <glyph glyph-name="uni01C0" unicode="&#x1c0;" horiz-adv-x="357" 
d="M105 0v760h147v-760h-147z" />
    <glyph glyph-name="uni01C1" unicode="&#x1c1;" horiz-adv-x="632" 
d="M105 0v760h147v-760h-147zM380 0v760h147v-760h-147z" />
    <glyph glyph-name="uni01C2" unicode="&#x1c2;" horiz-adv-x="516" 
d="M331 760v-197h144v-136h-144v-73h144v-136h-144v-218h-147v218h-141v136h141v73h-141v136h141v197h147z" />
    <glyph glyph-name="uni01C3" unicode="&#x1c3;" horiz-adv-x="290" 
d="M226 252h-161l-25 462h211zM42 81q0 52 30.5 73t72.5 21q41 0 71 -21t30 -73q0 -49 -30 -71t-71 -22q-42 0 -72.5 22t-30.5 71z" />
    <glyph glyph-name="uni01C4" unicode="&#x1c4;" horiz-adv-x="1335" 
d="M683 372q0 -124 -46.5 -207t-130.5 -124t-198 -41h-231v714h247q173 0 266 -88t93 -254zM483 365q0 193 -157 193h-56v-400h43q88 0 129 51t41 156zM1310 0h-556v119l309 439h-302v156h541v-119l-309 -439h317v-156zM945 767q-15 23 -37.5 50t-46 52.5t-42.5 43.5v14h126
q26 -16 47.5 -33t47.5 -40q26 23 49 40.5t49 32.5h124v-14q-17 -17 -40.5 -42.5t-46 -53t-38.5 -50.5h-192z" />
    <glyph glyph-name="uni01C5" unicode="&#x1c5;" horiz-adv-x="1241" 
d="M683 372q0 -124 -46.5 -207t-130.5 -124t-198 -41h-231v714h247q173 0 266 -88t93 -254zM483 365q0 193 -157 193h-56v-400h43q88 0 129 51t41 156zM1216 0h-458v109l229 298h-216v146h434v-118l-219 -289h230v-146zM894 606q-15 23 -37.5 50t-46 52.5t-42.5 43.5v14h126
q26 -16 47.5 -33t47.5 -40q26 23 49 40.5t49 32.5h124v-14q-17 -17 -40.5 -42.5t-46 -53t-38.5 -50.5h-192z" />
    <glyph glyph-name="uni01C6" unicode="&#x1c6;" horiz-adv-x="1150" 
d="M238 -10q-85 0 -140.5 73t-55.5 213q0 142 56.5 214.5t146.5 72.5q56 0 89.5 -23t55.5 -58h4q-4 21 -6.5 58t-2.5 72v148h192v-760h-144l-41 70h-7q-20 -33 -55 -56.5t-92 -23.5zM316 141q46 0 65 29t20 89v15q0 65 -18.5 100t-68.5 35q-34 0 -56.5 -33t-22.5 -103
q0 -69 22.5 -100.5t58.5 -31.5zM1125 0h-458v109l229 298h-216v146h434v-118l-219 -289h230v-146zM803 606q-15 23 -37.5 50t-46 52.5t-42.5 43.5v14h126q26 -16 47.5 -33t47.5 -40q26 23 49 40.5t49 32.5h124v-14q-17 -17 -40.5 -42.5t-46 -53t-38.5 -50.5h-192z" />
    <glyph glyph-name="uni01C7" unicode="&#x1c7;" horiz-adv-x="934" 
d="M77 0v714h193v-558h275v-156h-468zM603 -224q-33 0 -57.5 3t-42.5 7v150q16 -3 33.5 -6.5t37.5 -3.5q52 0 70.5 31.5t18.5 95.5v661h194v-644q0 -107 -32.5 -172t-89.5 -93.5t-132 -28.5z" />
    <glyph glyph-name="uni01C8" unicode="&#x1c8;" horiz-adv-x="906" 
d="M77 0v714h193v-558h275v-156h-468zM643 691q0 51 29.5 68t71.5 17q41 0 71.5 -17t30.5 -68q0 -49 -30.5 -66.5t-71.5 -17.5q-42 0 -71.5 17.5t-29.5 66.5zM634 -240q-23 0 -53 3.5t-50 8.5v149q16 -4 29.5 -6.5t29.5 -2.5q23 0 40.5 16.5t17.5 66.5v558h191v-598
q0 -50 -19.5 -94.5t-64.5 -72.5t-121 -28z" />
    <glyph glyph-name="uni01C9" unicode="&#x1c9;" horiz-adv-x="647" 
d="M257 0h-191v760h191v-760zM384 691q0 51 29.5 68t71.5 17q41 0 71.5 -17t30.5 -68q0 -49 -30.5 -66.5t-71.5 -17.5q-42 0 -71.5 17.5t-29.5 66.5zM375 -240q-23 0 -53 3.5t-50 8.5v149q16 -4 29.5 -6.5t29.5 -2.5q23 0 40.5 16.5t17.5 66.5v558h191v-598
q0 -50 -19.5 -94.5t-64.5 -72.5t-121 -28z" />
    <glyph glyph-name="uni01CA" unicode="&#x1ca;" horiz-adv-x="1186" 
d="M757 0h-253l-261 503h-4q2 -23 4 -55.5t3.5 -65.5t1.5 -60v-322h-171v714h252l260 -496h3q-1 23 -3 54t-3 63t-1 56v323h172v-714zM855 -224q-33 0 -57.5 3t-42.5 7v150q16 -3 33.5 -6.5t37.5 -3.5q52 0 70.5 31.5t18.5 95.5v661h194v-644q0 -107 -32.5 -172t-89.5 -93.5
t-132 -28.5z" />
    <glyph glyph-name="uni01CB" unicode="&#x1cb;" horiz-adv-x="1158" 
d="M757 0h-253l-261 503h-4q2 -23 4 -55.5t3.5 -65.5t1.5 -60v-322h-171v714h252l260 -496h3q-1 23 -3 54t-3 63t-1 56v323h172v-714zM895 691q0 51 29.5 68t71.5 17q41 0 71.5 -17t30.5 -68q0 -49 -30.5 -66.5t-71.5 -17.5q-42 0 -71.5 17.5t-29.5 66.5zM886 -240
q-23 0 -53 3.5t-50 8.5v149q16 -4 29.5 -6.5t29.5 -2.5q23 0 40.5 16.5t17.5 66.5v558h191v-598q0 -50 -19.5 -94.5t-64.5 -72.5t-121 -28z" />
    <glyph glyph-name="uni01CC" unicode="&#x1cc;" horiz-adv-x="994" 
d="M412 563q86 0 140 -48t54 -155v-360h-191v302q0 55 -16 83t-51 28q-54 0 -72.5 -44t-18.5 -127v-242h-191v553h144l26 -73h7q26 39 68.5 61t100.5 22zM731 691q0 51 29.5 68t71.5 17q41 0 71.5 -17t30.5 -68q0 -49 -30.5 -66.5t-71.5 -17.5q-42 0 -71.5 17.5t-29.5 66.5z
M722 -240q-23 0 -53 3.5t-50 8.5v149q16 -4 29.5 -6.5t29.5 -2.5q23 0 40.5 16.5t17.5 66.5v558h191v-598q0 -50 -19.5 -94.5t-64.5 -72.5t-121 -28z" />
    <glyph glyph-name="uni01CD" unicode="&#x1cd;" horiz-adv-x="726" 
d="M515 0l-35 134h-232l-36 -134h-212l233 717h257l236 -717h-211zM409 409q-5 19 -14 54.5t-18 73.5t-14 62q-4 -24 -12.5 -60t-17 -71t-14.5 -59l-31 -117h152zM269 767q-15 23 -37.5 50t-46 52.5t-42.5 43.5v14h126q26 -16 47.5 -33t47.5 -40q26 23 49 40.5t49 32.5h124
v-14q-17 -17 -40.5 -42.5t-46 -53t-38.5 -50.5h-192z" />
    <glyph glyph-name="uni01CE" unicode="&#x1ce;" horiz-adv-x="623" 
d="M336 563q105 0 164 -52t59 -148v-363h-132l-37 73h-4q-23 -29 -47.5 -47.5t-56.5 -27t-78 -8.5q-72 0 -120 44t-48 135q0 89 61.5 132t178.5 48l92 3v8q0 37 -18 52.5t-49 15.5q-33 0 -73 -11.5t-81 -29.5l-55 126q48 25 108.5 37.5t135.5 12.5zM325 245
q-52 -2 -73.5 -18.5t-21.5 -46.5q0 -28 15 -41.5t40 -13.5q35 0 59.5 22t24.5 57v43zM218 606q-15 23 -37.5 50t-46 52.5t-42.5 43.5v14h126q26 -16 47.5 -33t47.5 -40q26 23 49 40.5t49 32.5h124v-14q-17 -17 -40.5 -42.5t-46 -53t-38.5 -50.5h-192z" />
    <glyph glyph-name="uni01CF" unicode="&#x1cf;" horiz-adv-x="440" 
d="M406 0h-372v110l89 34v427l-89 33v110h372v-110l-89 -33v-427l89 -34v-110zM126 767q-15 23 -37.5 50t-46 52.5t-42.5 43.5v14h126q26 -16 47.5 -33t47.5 -40q26 23 49 40.5t49 32.5h124v-14q-17 -17 -40.5 -42.5t-46 -53t-38.5 -50.5h-192z" />
    <glyph glyph-name="uni01D0" unicode="&#x1d0;" horiz-adv-x="325" 
d="M258 0h-191v553h191v-553zM69 606q-15 23 -37.5 50t-46 52.5t-42.5 43.5v14h126q26 -16 47.5 -33t47.5 -40q26 23 49 40.5t49 32.5h124v-14q-17 -17 -40.5 -42.5t-46 -53t-38.5 -50.5h-192z" />
    <glyph glyph-name="uni01D1" unicode="&#x1d1;" horiz-adv-x="797" 
d="M745 358q0 -111 -35.5 -193.5t-112 -128.5t-199.5 -46q-120 0 -197 46t-113.5 129t-36.5 194t37 193.5t114 127.5t197 45q122 0 198.5 -45.5t112 -128t35.5 -193.5zM254 358q0 -97 33.5 -152t110.5 -55q80 0 112 55t32 152t-32 153t-111 56t-112 -56t-33 -153zM305 767
q-15 23 -37.5 50t-46 52.5t-42.5 43.5v14h126q26 -16 47.5 -33t47.5 -40q26 23 49 40.5t49 32.5h124v-14q-17 -17 -40.5 -42.5t-46 -53t-38.5 -50.5h-192z" />
    <glyph glyph-name="uni01D2" unicode="&#x1d2;" horiz-adv-x="637" 
d="M594 278q0 -139 -74 -213.5t-203 -74.5q-80 0 -142 33.5t-97.5 98t-35.5 156.5q0 137 74 211t204 74q80 0 141.5 -33t97 -96.5t35.5 -155.5zM236 278q0 -71 19 -108.5t64 -37.5q44 0 62.5 37.5t18.5 108.5t-18.5 107t-63.5 36q-43 0 -62.5 -36t-19.5 -107zM225 606
q-15 23 -37.5 50t-46 52.5t-42.5 43.5v14h126q26 -16 47.5 -33t47.5 -40q26 23 49 40.5t49 32.5h124v-14q-17 -17 -40.5 -42.5t-46 -53t-38.5 -50.5h-192z" />
    <glyph glyph-name="uni01D3" unicode="&#x1d3;" horiz-adv-x="757" 
d="M684 284q0 -135 -76.5 -214.5t-231.5 -79.5q-148 0 -225.5 75.5t-77.5 214.5v434h194v-419q0 -76 28.5 -110t83.5 -34q59 0 85.5 34.5t26.5 110.5v418h193v-430zM285 767q-15 23 -37.5 50t-46 52.5t-42.5 43.5v14h126q26 -16 47.5 -33t47.5 -40q26 23 49 40.5t49 32.5
h124v-14q-17 -17 -40.5 -42.5t-46 -53t-38.5 -50.5h-192z" />
    <glyph glyph-name="uni01D4" unicode="&#x1d4;" horiz-adv-x="670" 
d="M604 553v-553h-144l-24 69h-11q-26 -42 -71 -60.5t-96 -18.5q-54 0 -98 21t-69.5 66t-25.5 116v360h191v-302q0 -54 15.5 -82t50.5 -28q54 0 72.5 44t18.5 126v242h191zM241 606q-15 23 -37.5 50t-46 52.5t-42.5 43.5v14h126q26 -16 47.5 -33t47.5 -40q26 23 49 40.5
t49 32.5h124v-14q-17 -17 -40.5 -42.5t-46 -53t-38.5 -50.5h-192z" />
    <glyph glyph-name="uni01D5" unicode="&#x1d5;" horiz-adv-x="757" 
d="M557 1028v-107h-353v107h353zM277 894q34 0 54.5 -17t20.5 -51q0 -31 -20.5 -49t-54.5 -18q-35 0 -54.5 18t-19.5 49q0 34 19.5 51t54.5 17zM480 894q33 0 54 -17t21 -51q0 -31 -21 -49t-54 -18q-34 0 -53.5 18t-19.5 49q0 34 19.5 51t53.5 17zM684 284
q0 -135 -76.5 -214.5t-231.5 -79.5q-148 0 -225.5 75.5t-77.5 214.5v434h194v-419q0 -76 28.5 -110t83.5 -34q59 0 85.5 34.5t26.5 110.5v418h193v-430z" />
    <glyph glyph-name="uni01D6" unicode="&#x1d6;" horiz-adv-x="670" 
d="M513 867v-107h-353v107h353zM233 733q34 0 54.5 -17t20.5 -51q0 -31 -20.5 -49t-54.5 -18q-35 0 -54.5 18t-19.5 49q0 34 19.5 51t54.5 17zM436 733q33 0 54 -17t21 -51q0 -31 -21 -49t-54 -18q-34 0 -53.5 18t-19.5 49q0 34 19.5 51t53.5 17zM604 553v-553h-144l-24 69
h-11q-26 -42 -71 -60.5t-96 -18.5q-54 0 -98 21t-69.5 66t-25.5 116v360h191v-302q0 -54 15.5 -82t50.5 -28q54 0 72.5 44t18.5 126v242h191z" />
    <glyph glyph-name="uni01D7" unicode="&#x1d7;" horiz-adv-x="757" 
d="M307 917q26 28 47.5 62.5t41.5 68.5h199v-10q-21 -21 -49.5 -46t-58 -49t-54.5 -40h-126v14zM277 759q-35 0 -54.5 18t-19.5 49q0 34 19.5 51t54.5 17q34 0 54.5 -17t20.5 -51q0 -31 -20.5 -49t-54.5 -18zM480 759q-34 0 -53.5 18t-19.5 49q0 34 19.5 51t53.5 17
q33 0 54 -17t21 -51q0 -31 -21 -49t-54 -18zM684 284q0 -135 -76.5 -214.5t-231.5 -79.5q-148 0 -225.5 75.5t-77.5 214.5v434h194v-419q0 -76 28.5 -110t83.5 -34q59 0 85.5 34.5t26.5 110.5v418h193v-430z" />
    <glyph glyph-name="uni01D8" unicode="&#x1d8;" horiz-adv-x="670" 
d="M263 756q26 28 47.5 62.5t41.5 68.5h199v-10q-21 -20 -49.5 -45.5t-58 -49.5t-54.5 -40h-126v14zM233 598q-35 0 -54.5 18t-19.5 49q0 34 19.5 51t54.5 17q34 0 54.5 -17t20.5 -51q0 -31 -20.5 -49t-54.5 -18zM436 598q-34 0 -53.5 18t-19.5 49q0 34 19.5 51t53.5 17
q33 0 54 -17t21 -51q0 -31 -21 -49t-54 -18zM604 553v-553h-144l-24 69h-11q-26 -42 -71 -60.5t-96 -18.5q-54 0 -98 21t-69.5 66t-25.5 116v360h191v-302q0 -54 15.5 -82t50.5 -28q54 0 72.5 44t18.5 126v242h191z" />
    <glyph glyph-name="uni01D9" unicode="&#x1d9;" horiz-adv-x="757" 
d="M298 910q-25 34 -52 63.5t-57 57.5v13h74q66 -27 117 -69q26 21 56 38.5t60 30.5h73v-13q-25 -26 -53.5 -56.5t-54.5 -64.5h-163zM277 759q-35 0 -54.5 18t-19.5 49q0 34 19.5 51t54.5 17q34 0 54.5 -17t20.5 -51q0 -31 -20.5 -49t-54.5 -18zM480 759q-34 0 -53.5 18
t-19.5 49q0 34 19.5 51t53.5 17q33 0 54 -17t21 -51q0 -31 -21 -49t-54 -18zM684 284q0 -135 -76.5 -214.5t-231.5 -79.5q-148 0 -225.5 75.5t-77.5 214.5v434h194v-419q0 -76 28.5 -110t83.5 -34q59 0 85.5 34.5t26.5 110.5v418h193v-430z" />
    <glyph glyph-name="uni01DA" unicode="&#x1da;" horiz-adv-x="670" 
d="M254 749q-25 34 -52 63.5t-57 57.5v13h74q66 -27 117 -69q26 21 56 38.5t60 30.5h73v-13q-25 -26 -53.5 -56.5t-54.5 -64.5h-163zM233 598q-35 0 -54.5 18t-19.5 49q0 34 19.5 51t54.5 17q34 0 54.5 -17t20.5 -51q0 -31 -20.5 -49t-54.5 -18zM436 598q-34 0 -53.5 18
t-19.5 49q0 34 19.5 51t53.5 17q33 0 54 -17t21 -51q0 -31 -21 -49t-54 -18zM604 553v-553h-144l-24 69h-11q-26 -42 -71 -60.5t-96 -18.5q-54 0 -98 21t-69.5 66t-25.5 116v360h191v-302q0 -54 15.5 -82t50.5 -28q54 0 72.5 44t18.5 126v242h191z" />
    <glyph glyph-name="uni01DB" unicode="&#x1db;" horiz-adv-x="757" 
d="M362 1048q20 -34 42 -68.5t47 -62.5v-14h-127q-24 16 -53.5 40t-58 49t-49.5 46v10h199zM277 894q34 0 54.5 -17t20.5 -51q0 -31 -20.5 -49t-54.5 -18q-35 0 -54.5 18t-19.5 49q0 34 19.5 51t54.5 17zM480 894q33 0 54 -17t21 -51q0 -31 -21 -49t-54 -18q-34 0 -53.5 18
t-19.5 49q0 34 19.5 51t53.5 17zM684 284q0 -135 -76.5 -214.5t-231.5 -79.5q-148 0 -225.5 75.5t-77.5 214.5v434h194v-419q0 -76 28.5 -110t83.5 -34q59 0 85.5 34.5t26.5 110.5v418h193v-430z" />
    <glyph glyph-name="uni01DC" unicode="&#x1dc;" horiz-adv-x="670" 
d="M318 887q20 -34 42 -68.5t47 -62.5v-14h-127q-24 16 -53.5 40t-58 49.5t-49.5 45.5v10h199zM233 733q34 0 54.5 -17t20.5 -51q0 -31 -20.5 -49t-54.5 -18q-35 0 -54.5 18t-19.5 49q0 34 19.5 51t54.5 17zM436 733q33 0 54 -17t21 -51q0 -31 -21 -49t-54 -18
q-34 0 -53.5 18t-19.5 49q0 34 19.5 51t53.5 17zM604 553v-553h-144l-24 69h-11q-26 -42 -71 -60.5t-96 -18.5q-54 0 -98 21t-69.5 66t-25.5 116v360h191v-302q0 -54 15.5 -82t50.5 -28q54 0 72.5 44t18.5 126v242h191z" />
    <glyph glyph-name="uni01DD" unicode="&#x1dd;" horiz-adv-x="618" 
d="M285 563q84 0 149.5 -29.5t103.5 -92t38 -161.5t-34.5 -163.5t-95.5 -95.5t-143 -31q-121 0 -191 63t-70 190v85h341q-2 44 -32 71.5t-89 27.5q-52 0 -95 -10t-89 -32v137q40 17 87.5 29t119.5 12zM215 208q1 -37 21.5 -62.5t59.5 -25.5q34 0 56.5 21t26.5 67h-164z" />
    <glyph glyph-name="uni01DE" unicode="&#x1de;" horiz-adv-x="726" 
d="M541 1028v-107h-353v107h353zM261 894q34 0 54.5 -17t20.5 -51q0 -31 -20.5 -49t-54.5 -18q-35 0 -54.5 18t-19.5 49q0 34 19.5 51t54.5 17zM464 894q33 0 54 -17t21 -51q0 -31 -21 -49t-54 -18q-34 0 -53.5 18t-19.5 49q0 34 19.5 51t53.5 17zM515 0l-35 134h-232
l-36 -134h-212l233 717h257l236 -717h-211zM409 409q-5 19 -14 54.5t-18 73.5t-14 62q-4 -24 -12.5 -60t-17 -71t-14.5 -59l-31 -117h152z" />
    <glyph glyph-name="uni01DF" unicode="&#x1df;" horiz-adv-x="623" 
d="M490 867v-107h-353v107h353zM210 733q34 0 54.5 -17t20.5 -51q0 -31 -20.5 -49t-54.5 -18q-35 0 -54.5 18t-19.5 49q0 34 19.5 51t54.5 17zM413 733q33 0 54 -17t21 -51q0 -31 -21 -49t-54 -18q-34 0 -53.5 18t-19.5 49q0 34 19.5 51t53.5 17zM336 563q105 0 164 -52
t59 -148v-363h-132l-37 73h-4q-23 -29 -47.5 -47.5t-56.5 -27t-78 -8.5q-72 0 -120 44t-48 135q0 89 61.5 132t178.5 48l92 3v8q0 37 -18 52.5t-49 15.5q-33 0 -73 -11.5t-81 -29.5l-55 126q48 25 108.5 37.5t135.5 12.5zM325 245q-52 -2 -73.5 -18.5t-21.5 -46.5
q0 -28 15 -41.5t40 -13.5q35 0 59.5 22t24.5 57v43z" />
    <glyph glyph-name="uni01E0" unicode="&#x1e0;" horiz-adv-x="726" 
d="M540 1035v-108h-353v108h353zM362 898q34 0 54.5 -17.5t20.5 -51.5q0 -31 -20.5 -49t-54.5 -18t-54 18t-20 49q0 34 20 51.5t54 17.5zM515 0l-35 134h-232l-36 -134h-212l233 717h257l236 -717h-211zM409 409q-5 19 -14 54.5t-18 73.5t-14 62q-4 -24 -12.5 -60t-17 -71
t-14.5 -59l-31 -117h152z" />
    <glyph glyph-name="uni01E1" unicode="&#x1e1;" horiz-adv-x="623" 
d="M489 874v-108h-353v108h353zM311 737q34 0 54.5 -17.5t20.5 -51.5q0 -31 -20.5 -49t-54.5 -18t-54 18t-20 49q0 34 20 51.5t54 17.5zM336 563q105 0 164 -52t59 -148v-363h-132l-37 73h-4q-23 -29 -47.5 -47.5t-56.5 -27t-78 -8.5q-72 0 -120 44t-48 135q0 89 61.5 132
t178.5 48l92 3v8q0 37 -18 52.5t-49 15.5q-33 0 -73 -11.5t-81 -29.5l-55 126q48 25 108.5 37.5t135.5 12.5zM325 245q-52 -2 -73.5 -18.5t-21.5 -46.5q0 -28 15 -41.5t40 -13.5q35 0 59.5 22t24.5 57v43z" />
    <glyph glyph-name="uni01E2" unicode="&#x1e2;" horiz-adv-x="946" 
d="M898 0h-425v134h-213l-49 -134h-216l307 714h596v-155h-231v-112h214v-155h-214v-135h231v-157zM319 294h154v257h-54zM706 882v-115h-355v115h355z" />
    <glyph glyph-name="uni01E3" unicode="&#x1e3;" horiz-adv-x="935" 
d="M653 563q70 0 124 -28t85 -84.5t31 -141.5v-84h-340q2 -40 34 -69.5t93 -29.5q38 0 84.5 9t93.5 33v-137q-40 -21 -86 -31t-117 -10q-63 0 -117.5 22.5t-92.5 70.5q-34 -35 -64.5 -55.5t-69.5 -29t-99 -8.5q-46 0 -86 19.5t-65 60t-25 102.5t30.5 100t85 56.5t127.5 20.5
l89 3v9q0 40 -20 53.5t-46 13.5q-33 0 -73.5 -10.5t-79.5 -28.5l-54 125q47 25 104 37t118 12q97 0 164 -46q35 24 75 35t97 11zM642 433q-35 0 -58.5 -19.5t-27.5 -68.5h166q-1 36 -21.5 62t-58.5 26zM328 245q-56 -1 -76.5 -20t-20.5 -51q0 -27 15 -38t40 -11
q34 0 58.5 22t24.5 57v43zM662 721v-115h-355v115h355z" />
    <glyph glyph-name="uni01E4" unicode="&#x1e4;" horiz-adv-x="724" 
d="M390 -10q-98 0 -173.5 36.5t-118 113.5t-42.5 199q0 182 98 283.5t279 101.5q56 0 112.5 -13t100.5 -32l-60 -153q-27 14 -73 24.5t-90 10.5q-165 0 -165 -217q0 -78 16.5 -123t47.5 -64t76 -19q29 0 54 6v36h-98v115h98v38h-98v115h290v-153h65v-115h-65v-150
q-50 -15 -111 -27.5t-143 -12.5z" />
    <glyph glyph-name="uni01E5" unicode="&#x1e5;" horiz-adv-x="650" 
d="M251 563q47 0 81.5 -17t62.5 -55h4l14 62h164v-538h51v-95h-61q-28 -84 -94.5 -122t-184.5 -38q-57 0 -112 7.5t-107 23.5v136q54 -20 102 -29t103 -9q34 0 59 7.5t35 23.5h-134v95h149v40q0 14 1 33t3 31h-4q-28 -41 -64 -58t-80 -17q-94 0 -147 64.5t-53 189.5
q0 129 58 197t154 68zM315 407q-78 0 -78 -109q0 -59 21 -85t60 -26q35 0 57 21t22 64v15q0 70 -21 95t-61 25z" />
    <glyph glyph-name="Gcaron" unicode="&#x1e6;" horiz-adv-x="740" 
d="M364 418h308v-385q-55 -19 -126.5 -31t-149.5 -12q-103 0 -180.5 40t-121 122t-43.5 207q0 112 43 194t126.5 126.5t205.5 44.5q67 0 127 -12.5t104 -32.5l-61 -151q-38 19 -80 28.5t-89 9.5q-64 0 -103 -29t-56.5 -77t-17.5 -106q0 -100 42 -152.5t120 -52.5
q17 0 41.5 2.5t37.5 5.5v112h-127v149zM307 767q-15 23 -37.5 50t-46 52.5t-42.5 43.5v14h126q26 -16 47.5 -33t47.5 -40q26 23 49 40.5t49 32.5h124v-14q-17 -17 -40.5 -42.5t-46 -53t-38.5 -50.5h-192z" />
    <glyph glyph-name="gcaron" unicode="&#x1e7;" horiz-adv-x="643" 
d="M243 563q58 0 93.5 -22.5t57.5 -55.5h4l14 68h165v-554q0 -117 -72.5 -178t-222.5 -61q-67 0 -118 7t-98 25v159q50 -21 95 -31.5t110 -10.5q115 0 115 82v10q0 29 6 69h-6q-19 -33 -54 -56.5t-92 -23.5q-88 0 -143 73t-55 213t56 213.5t145 73.5zM315 415
q-79 0 -79 -142q0 -72 20 -103.5t62 -31.5q47 0 65 29.5t18 88.5v23q0 65 -17.5 100.5t-68.5 35.5zM220 606q-15 23 -37.5 50t-46 52.5t-42.5 43.5v14h126q26 -16 47.5 -33t47.5 -40q26 23 49 40.5t49 32.5h124v-14q-17 -17 -40.5 -42.5t-46 -53t-38.5 -50.5h-192z" />
    <glyph glyph-name="uni01E8" unicode="&#x1e8;" horiz-adv-x="687" 
d="M687 0h-218l-141 273l-57 -34v-239h-194v714h194v-310q12 23 28 46.5t31 44.5l150 219h211l-225 -320zM270 767q-15 23 -37.5 50t-46 52.5t-42.5 43.5v14h126q26 -16 47.5 -33t47.5 -40q26 23 49 40.5t49 32.5h124v-14q-17 -17 -40.5 -42.5t-46 -53t-38.5 -50.5h-192z
" />
    <glyph glyph-name="uni01E9" unicode="&#x1e9;" horiz-adv-x="659" 
d="M258 461q0 -34 -3 -75t-8 -75h4q11 17 28.5 43t30.5 43l124 156h213l-192 -235l204 -318h-218l-121 198l-62 -47v-151h-192v760h192v-299zM69 813q-15 23 -37.5 50t-46 52.5t-42.5 43.5v14h126q26 -16 47.5 -33t47.5 -40q26 23 49 40.5t49 32.5h124v-14
q-17 -17 -40.5 -42.5t-46 -53t-38.5 -50.5h-192z" />
    <glyph glyph-name="uni01EA" unicode="&#x1ea;" horiz-adv-x="797" 
d="M745 358q0 -111 -35.5 -193.5t-112 -128.5t-199.5 -46q-120 0 -197 46t-113.5 129t-36.5 194t37 193.5t114 127.5t197 45q122 0 198.5 -45.5t112 -128t35.5 -193.5zM254 358q0 -97 33.5 -152t110.5 -55q80 0 112 55t32 152t-32 153t-111 56t-112 -56t-33 -153zM409 -97
q0 -18 10.5 -25.5t27.5 -7.5q13 0 30.5 3.5t27.5 7.5v-108q-16 -5 -37 -9t-48 -4q-57 0 -96 30.5t-39 82.5q0 34 23.5 70.5t90.5 81.5l75 -25q-34 -32 -49.5 -53t-15.5 -44z" />
    <glyph glyph-name="uni01EB" unicode="&#x1eb;" horiz-adv-x="637" 
d="M594 278q0 -139 -74 -213.5t-203 -74.5q-80 0 -142 33.5t-97.5 98t-35.5 156.5q0 137 74 211t204 74q80 0 141.5 -33t97 -96.5t35.5 -155.5zM236 278q0 -71 19 -108.5t64 -37.5q44 0 62.5 37.5t18.5 108.5t-18.5 107t-63.5 36q-43 0 -62.5 -36t-19.5 -107zM321 -97
q0 -18 10.5 -25.5t27.5 -7.5q13 0 30.5 3.5t27.5 7.5v-108q-16 -5 -37 -9t-48 -4q-57 0 -96 30.5t-39 82.5q0 34 23.5 70.5t90.5 81.5l75 -25q-34 -32 -49.5 -53t-15.5 -44z" />
    <glyph glyph-name="uni01EC" unicode="&#x1ec;" horiz-adv-x="797" 
d="M745 358q0 -111 -35.5 -193.5t-112 -128.5t-199.5 -46q-120 0 -197 46t-113.5 129t-36.5 194t37 193.5t114 127.5t197 45q122 0 198.5 -45.5t112 -128t35.5 -193.5zM254 358q0 -97 33.5 -152t110.5 -55q80 0 112 55t32 152t-32 153t-111 56t-112 -56t-33 -153zM580 882
v-115h-355v115h355zM407 -97q0 -18 10.5 -25.5t27.5 -7.5q13 0 30.5 3.5t27.5 7.5v-108q-16 -5 -37 -9t-48 -4q-57 0 -96 30.5t-39 82.5q0 34 23.5 70.5t90.5 81.5l75 -25q-34 -32 -49.5 -53t-15.5 -44z" />
    <glyph glyph-name="uni01ED" unicode="&#x1ed;" horiz-adv-x="637" 
d="M594 278q0 -139 -74 -213.5t-203 -74.5q-80 0 -142 33.5t-97.5 98t-35.5 156.5q0 137 74 211t204 74q80 0 141.5 -33t97 -96.5t35.5 -155.5zM236 278q0 -71 19 -108.5t64 -37.5q44 0 62.5 37.5t18.5 108.5t-18.5 107t-63.5 36q-43 0 -62.5 -36t-19.5 -107zM500 721v-115
h-355v115h355zM324 -97q0 -18 10.5 -25.5t27.5 -7.5q13 0 30.5 3.5t27.5 7.5v-108q-16 -5 -37 -9t-48 -4q-57 0 -96 30.5t-39 82.5q0 34 23.5 70.5t90.5 81.5l75 -25q-34 -32 -49.5 -53t-15.5 -44z" />
    <glyph glyph-name="uni01EE" unicode="&#x1ee;" horiz-adv-x="634" 
d="M547 714v-119l-197 -173q113 -6 175.5 -61t62.5 -142q0 -67 -34.5 -118.5t-105.5 -81t-183 -29.5q-64 0 -122 10.5t-107 28.5v166q52 -24 110.5 -35.5t103.5 -11.5q55 0 85.5 10t42.5 27.5t12 39.5q0 20 -15.5 35.5t-57 24.5t-120.5 9h-55v129l150 133h-229v158h484z
M209 767q-15 23 -37.5 50t-46 52.5t-42.5 43.5v14h126q26 -16 47.5 -33t47.5 -40q26 23 49 40.5t49 32.5h124v-14q-17 -17 -40.5 -42.5t-46 -53t-38.5 -50.5h-192z" />
    <glyph glyph-name="uni01EF" unicode="&#x1ef;" horiz-adv-x="607" 
d="M550 553v-118l-206 -179q111 -10 168 -70.5t57 -150.5q0 -81 -34 -143t-106.5 -97t-187.5 -35q-77 0 -129.5 10t-101.5 28v164q48 -22 106 -36t117 -14q78 0 110 31.5t32 76.5q0 30 -13 55t-52 40t-117 15h-66v122l177 155h-264v146h510zM205 606q-15 23 -37.5 50
t-46 52.5t-42.5 43.5v14h126q26 -16 47.5 -33t47.5 -40q26 23 49 40.5t49 32.5h124v-14q-17 -17 -40.5 -42.5t-46 -53t-38.5 -50.5h-192z" />
    <glyph glyph-name="uni01F0" unicode="&#x1f0;" horiz-adv-x="324" 
d="M52 -240q-23 0 -53 3.5t-50 8.5v149q16 -4 29.5 -6.5t29.5 -2.5q23 0 40.5 16.5t17.5 66.5v558h191v-598q0 -50 -19.5 -94.5t-64.5 -72.5t-121 -28zM68 606q-15 23 -37.5 50t-46 52.5t-42.5 43.5v14h126q26 -16 47.5 -33t47.5 -40q26 23 49 40.5t49 32.5h124v-14
q-17 -17 -40.5 -42.5t-46 -53t-38.5 -50.5h-192z" />
    <glyph glyph-name="uni01F1" unicode="&#x1f1;" horiz-adv-x="1335" 
d="M683 372q0 -124 -46.5 -207t-130.5 -124t-198 -41h-231v714h247q173 0 266 -88t93 -254zM483 365q0 193 -157 193h-56v-400h43q88 0 129 51t41 156zM1310 0h-556v119l309 439h-302v156h541v-119l-309 -439h317v-156z" />
    <glyph glyph-name="uni01F2" unicode="&#x1f2;" horiz-adv-x="1241" 
d="M683 372q0 -124 -46.5 -207t-130.5 -124t-198 -41h-231v714h247q173 0 266 -88t93 -254zM483 365q0 193 -157 193h-56v-400h43q88 0 129 51t41 156zM1216 0h-458v109l229 298h-216v146h434v-118l-219 -289h230v-146z" />
    <glyph glyph-name="uni01F3" unicode="&#x1f3;" horiz-adv-x="1150" 
d="M238 -10q-85 0 -140.5 73t-55.5 213q0 142 56.5 214.5t146.5 72.5q56 0 89.5 -23t55.5 -58h4q-4 21 -6.5 58t-2.5 72v148h192v-760h-144l-41 70h-7q-20 -33 -55 -56.5t-92 -23.5zM316 141q46 0 65 29t20 89v15q0 65 -18.5 100t-68.5 35q-34 0 -56.5 -33t-22.5 -103
q0 -69 22.5 -100.5t58.5 -31.5zM1125 0h-458v109l229 298h-216v146h434v-118l-219 -289h230v-146z" />
    <glyph glyph-name="uni01F4" unicode="&#x1f4;" horiz-adv-x="740" 
d="M364 418h308v-385q-55 -19 -126.5 -31t-149.5 -12q-103 0 -180.5 40t-121 122t-43.5 207q0 112 43 194t126.5 126.5t205.5 44.5q67 0 127 -12.5t104 -32.5l-61 -151q-38 19 -80 28.5t-89 9.5q-64 0 -103 -29t-56.5 -77t-17.5 -106q0 -100 42 -152.5t120 -52.5
q17 0 41.5 2.5t37.5 5.5v112h-127v149zM640 917q-18 -14 -45 -34.5t-58 -42t-59.5 -41t-48.5 -32.5h-127v14q17 19 41 44.5t48 52.5t40 49h209v-10z" />
    <glyph glyph-name="uni01F5" unicode="&#x1f5;" horiz-adv-x="643" 
d="M243 563q58 0 93.5 -22.5t57.5 -55.5h4l14 68h165v-554q0 -117 -72.5 -178t-222.5 -61q-67 0 -118 7t-98 25v159q50 -21 95 -31.5t110 -10.5q115 0 115 82v10q0 29 6 69h-6q-19 -33 -54 -56.5t-92 -23.5q-88 0 -143 73t-55 213t56 213.5t145 73.5zM315 415
q-79 0 -79 -142q0 -72 20 -103.5t62 -31.5q47 0 65 29.5t18 88.5v23q0 65 -17.5 100.5t-68.5 35.5zM553 756q-18 -14 -45 -34.5t-58 -42t-59.5 -41t-48.5 -32.5h-127v14q17 19 41 44.5t48 52.5t40 49h209v-10z" />
    <glyph glyph-name="uni01F6" unicode="&#x1f6;" horiz-adv-x="1080" 
d="M85 0v714h196v-263h176v263h197v-462q0 -56 16 -82.5t56 -26.5q41 0 58.5 27.5t17.5 97.5v285h197v-286q0 -136 -64 -209t-207 -73q-147 0 -209 60.5t-62 187.5v56h-176v-289h-196z" />
    <glyph glyph-name="uni01F7" unicode="&#x1f7;" horiz-adv-x="717" 
d="M447 725q107 0 165.5 -68.5t58.5 -199.5q0 -94 -41 -183t-127 -159t-221 -107v-248h-197v954h148l31 -87h5q14 24 36 46.5t56.5 37t85.5 14.5zM382 562q-53 0 -76.5 -41t-23.5 -129v-217q51 19 94 57t69.5 93t26.5 125q0 52 -22 82t-68 30z" />
    <glyph glyph-name="uni01F8" unicode="&#x1f8;" horiz-adv-x="834" 
d="M757 0h-253l-261 503h-4q2 -23 4 -55.5t3.5 -65.5t1.5 -60v-322h-171v714h252l260 -496h3q-1 23 -3 54t-3 63t-1 56v323h172v-714zM458 927q17 -22 40.5 -49t47.5 -52.5t40 -44.5v-14h-127q-20 13 -48.5 32.5t-59 41t-58 42t-45.5 34.5v10h210z" />
    <glyph glyph-name="uni01F9" unicode="&#x1f9;" horiz-adv-x="670" 
d="M412 563q86 0 140 -48t54 -155v-360h-191v302q0 55 -16 83t-51 28q-54 0 -72.5 -44t-18.5 -127v-242h-191v553h144l26 -73h7q26 39 68.5 61t100.5 22zM376 766q17 -22 40.5 -49t47.5 -52.5t40 -44.5v-14h-127q-20 13 -48.5 32.5t-59 41t-58 42t-45.5 34.5v10h210z" />
    <glyph glyph-name="Aringacute" unicode="&#x1fa;" horiz-adv-x="724" 
d="M279 886q21 14 45 34t40 38h210v-10q-8 -7 -28.5 -17.5t-46.5 -21.5t-51 -20.5t-42 -14.5h-127v12zM236 686q-2 8 -3 17.5t-1 19.5q0 58 35.5 91t93.5 33q55 0 94 -33t39 -90q0 -22 -6 -40l238 -684h-211l-38 134h-229l-36 -134h-212zM361 682q17 0 29 11.5t12 29.5
q0 19 -12 30t-29 11t-29 -11t-12 -30q0 -18 10.5 -29.5t30.5 -11.5zM291 294h146l-31 102q-6 19 -14.5 48t-16 60.5t-12.5 55.5q-7 -37 -19 -83t-23 -81z" />
    <glyph glyph-name="aringacute" unicode="&#x1fb;" horiz-adv-x="623" 
d="M503 958q-10 -11 -38 -29.5t-60 -36.5t-55 -30h-124v8q21 19 45 45.5t40 48.5h192v-6zM319 836q55 0 94 -33t39 -90q0 -58 -38.5 -91t-94.5 -33q-58 0 -93.5 33t-35.5 90q0 58 35.5 91t93.5 33zM319 753q-17 0 -29 -11t-12 -30q0 -18 10.5 -29.5t30.5 -11.5q17 0 29 11.5
t12 29.5q0 19 -12 30t-29 11zM336 563q105 0 164 -52t59 -148v-363h-132l-37 73h-4q-23 -29 -47.5 -47.5t-56.5 -27t-78 -8.5q-72 0 -120 44.5t-48 137.5q0 92 59.5 132.5t180.5 44.5l92 3v8q0 37 -18 52.5t-49 15.5q-33 0 -73 -11.5t-81 -29.5l-55 126q48 25 108.5 37.5
t135.5 12.5zM325 245q-52 -2 -73 -20.5t-21 -48.5q0 -28 14.5 -39.5t39.5 -11.5q35 0 59.5 22t24.5 57v43z" />
    <glyph glyph-name="AEacute" unicode="&#x1fc;" horiz-adv-x="946" 
d="M898 0h-425v134h-213l-49 -134h-216l307 714h596v-155h-231v-112h214v-155h-214v-135h231v-157zM319 294h154v257h-54zM767 917q-18 -14 -45 -34.5t-58 -42t-59.5 -41t-48.5 -32.5h-127v14q17 19 41 44.5t48 52.5t40 49h209v-10z" />
    <glyph glyph-name="aeacute" unicode="&#x1fd;" horiz-adv-x="935" 
d="M653 563q70 0 124 -28t85 -84.5t31 -141.5v-84h-340q2 -40 34 -69.5t93 -29.5q38 0 84.5 9t93.5 33v-137q-40 -21 -86 -31t-117 -10q-63 0 -117.5 22.5t-92.5 70.5q-34 -35 -64.5 -55.5t-69.5 -29t-99 -8.5q-46 0 -86 19.5t-65 60t-25 102.5t30.5 100t85 56.5t127.5 20.5
l89 3v9q0 40 -20 53.5t-46 13.5q-33 0 -73.5 -10.5t-79.5 -28.5l-54 125q47 25 104 37t118 12q97 0 164 -46q35 24 75 35t97 11zM642 433q-35 0 -58.5 -19.5t-27.5 -68.5h166q-1 36 -21.5 62t-58.5 26zM328 245q-56 -1 -76.5 -20t-20.5 -51q0 -27 15 -38t40 -11
q34 0 58.5 22t24.5 57v43zM720 756q-18 -14 -45 -34.5t-58 -42t-59.5 -41t-48.5 -32.5h-127v14q17 19 41 44.5t48 52.5t40 49h209v-10z" />
    <glyph glyph-name="Oslashacute" unicode="&#x1fe;" horiz-adv-x="797" 
d="M745 358q0 -111 -35.5 -193.5t-112 -128.5t-199.5 -46q-85 0 -150 21l-41 -64l-94 61l41 61q-53 49 -78 122.5t-25 167.5q0 111 37 193.5t114 127.5t197 45q95 0 161 -27l37 58l93 -56l-40 -61q50 -48 72.5 -120t22.5 -161zM254 358q0 -34 3 -63.5t11 -53.5l197 312
q-14 6 -31 10t-35 4q-79 0 -112 -56t-33 -153zM542 358q0 61 -9 103l-192 -303q12 -3 26.5 -5t30.5 -2q80 0 112 55t32 152zM641 917q-18 -14 -45 -34.5t-58 -42t-59.5 -41t-48.5 -32.5h-127v14q17 19 41 44.5t48 52.5t40 49h209v-10z" />
    <glyph glyph-name="oslashacute" unicode="&#x1ff;" horiz-adv-x="665" 
d="M622 278q0 -139 -77.5 -213.5t-213.5 -74.5q-59 0 -112 17l-41 -64l-83 52l39 60q-43 37 -67.5 93t-24.5 130q0 137 78 211t214 74q31 0 60 -5t54 -14l35 54l82 -51l-33 -51q42 -36 66 -91t24 -127zM225 278q0 -21 1 -38.5t5 -33.5l141 219q-18 6 -40 6q-59 0 -83 -38.5
t-24 -114.5zM439 278q0 18 -1 34.5t-4 29.5l-138 -216q15 -4 37 -4q61 0 83.5 40t22.5 116zM573 756q-18 -14 -45 -34.5t-58 -42t-59.5 -41t-48.5 -32.5h-127v14q17 19 41 44.5t48 52.5t40 49h209v-10z" />
    <glyph glyph-name="uni0200" unicode="&#x200;" horiz-adv-x="726" 
d="M515 0l-35 134h-232l-36 -134h-212l233 717h257l236 -717h-211zM409 409q-5 19 -14 54.5t-18 73.5t-14 62q-4 -24 -12.5 -60t-17 -71t-14.5 -59l-31 -117h152zM445 927q16 -34 40 -75.5t45 -70.5v-14h-99q-17 13 -39.5 33t-46 42t-41.5 42t-26 33v10h167zM239 927
q16 -34 39.5 -75.5t44.5 -70.5v-14h-99q-17 13 -39.5 33t-45.5 42t-41 42t-26 33v10h167z" />
    <glyph glyph-name="uni0201" unicode="&#x201;" horiz-adv-x="623" 
d="M336 563q105 0 164 -52t59 -148v-363h-132l-37 73h-4q-23 -29 -47.5 -47.5t-56.5 -27t-78 -8.5q-72 0 -120 44t-48 135q0 89 61.5 132t178.5 48l92 3v8q0 37 -18 52.5t-49 15.5q-33 0 -73 -11.5t-81 -29.5l-55 126q48 25 108.5 37.5t135.5 12.5zM325 245
q-52 -2 -73.5 -18.5t-21.5 -46.5q0 -28 15 -41.5t40 -13.5q35 0 59.5 22t24.5 57v43zM394 766q16 -34 40 -75.5t45 -70.5v-14h-99q-17 13 -39.5 33t-46 42t-41.5 42t-26 33v10h167zM188 766q16 -34 39.5 -75.5t44.5 -70.5v-14h-99q-17 13 -39.5 33t-45.5 42t-41 42t-26 33
v10h167z" />
    <glyph glyph-name="uni0202" unicode="&#x202;" horiz-adv-x="726" 
d="M515 0l-35 134h-232l-36 -134h-212l233 717h257l236 -717h-211zM409 409q-5 19 -14 54.5t-18 73.5t-14 62q-4 -24 -12.5 -60t-17 -71t-14.5 -59l-31 -117h152zM365 952q94 0 152 -50.5t62 -134.5h-102q-2 29 -18.5 41.5t-41.5 15.5t-52 3q-22 0 -47.5 -4t-44 -17
t-21.5 -39h-104q4 54 32.5 96t76.5 65.5t108 23.5z" />
    <glyph glyph-name="uni0203" unicode="&#x203;" horiz-adv-x="623" 
d="M336 563q105 0 164 -52t59 -148v-363h-132l-37 73h-4q-23 -29 -47.5 -47.5t-56.5 -27t-78 -8.5q-72 0 -120 44t-48 135q0 89 61.5 132t178.5 48l92 3v8q0 37 -18 52.5t-49 15.5q-33 0 -73 -11.5t-81 -29.5l-55 126q48 25 108.5 37.5t135.5 12.5zM325 245
q-52 -2 -73.5 -18.5t-21.5 -46.5q0 -28 15 -41.5t40 -13.5q35 0 59.5 22t24.5 57v43zM314 791q94 0 152 -50.5t62 -134.5h-102q-2 29 -18.5 41.5t-41.5 15.5t-52 3q-22 0 -47.5 -4t-44 -17t-21.5 -39h-104q4 54 32.5 96t76.5 65.5t108 23.5z" />
    <glyph glyph-name="uni0204" unicode="&#x204;" horiz-adv-x="549" 
d="M501 0h-424v714h424v-155h-231v-112h214v-155h-214v-135h231v-157zM371 927q16 -34 40 -75.5t45 -70.5v-14h-99q-17 13 -39.5 33t-46 42t-41.5 42t-26 33v10h167zM165 927q16 -34 39.5 -75.5t44.5 -70.5v-14h-99q-17 13 -39.5 33t-45.5 42t-41 42t-26 33v10h167z" />
    <glyph glyph-name="uni0205" unicode="&#x205;" horiz-adv-x="618" 
d="M315 563q121 0 191 -63t70 -190v-85h-341q2 -43 32.5 -71t88.5 -28q52 0 95 10t89 32v-137q-40 -21 -87.5 -31t-119.5 -10q-84 0 -149.5 29.5t-103.5 92.5t-38 161q0 100 34.5 164t96 95t142.5 31zM322 433q-34 0 -56.5 -21t-26.5 -67h164q-1 37 -21.5 62.5t-59.5 25.5z
M391 766q16 -34 40 -75.5t45 -70.5v-14h-99q-17 13 -39.5 33t-46 42t-41.5 42t-26 33v10h167zM185 766q16 -34 39.5 -75.5t44.5 -70.5v-14h-99q-17 13 -39.5 33t-45.5 42t-41 42t-26 33v10h167z" />
    <glyph glyph-name="uni0206" unicode="&#x206;" horiz-adv-x="549" 
d="M501 0h-424v714h424v-155h-231v-112h214v-155h-214v-135h231v-157zM291 952q94 0 152 -50.5t62 -134.5h-102q-2 29 -18.5 41.5t-41.5 15.5t-52 3q-22 0 -47.5 -4t-44 -17t-21.5 -39h-104q4 54 32.5 96t76.5 65.5t108 23.5z" />
    <glyph glyph-name="uni0207" unicode="&#x207;" horiz-adv-x="618" 
d="M315 563q121 0 191 -63t70 -190v-85h-341q2 -43 32.5 -71t88.5 -28q52 0 95 10t89 32v-137q-40 -21 -87.5 -31t-119.5 -10q-84 0 -149.5 29.5t-103.5 92.5t-38 161q0 100 34.5 164t96 95t142.5 31zM322 433q-34 0 -56.5 -21t-26.5 -67h164q-1 37 -21.5 62.5t-59.5 25.5z
M311 791q94 0 152 -50.5t62 -134.5h-102q-2 29 -18.5 41.5t-41.5 15.5t-52 3q-22 0 -47.5 -4t-44 -17t-21.5 -39h-104q4 54 32.5 96t76.5 65.5t108 23.5z" />
    <glyph glyph-name="uni0208" unicode="&#x208;" horiz-adv-x="440" 
d="M406 0h-372v110l89 34v427l-89 33v110h372v-110l-89 -33v-427l89 -34v-110zM302 927q16 -34 40 -75.5t45 -70.5v-14h-99q-17 13 -39.5 33t-46 42t-41.5 42t-26 33v10h167zM96 927q16 -34 39.5 -75.5t44.5 -70.5v-14h-99q-17 13 -39.5 33t-45.5 42t-41 42t-26 33v10h167z
" />
    <glyph glyph-name="uni0209" unicode="&#x209;" horiz-adv-x="325" 
d="M258 0h-191v553h191v-553zM245 766q16 -34 40 -75.5t45 -70.5v-14h-99q-17 13 -39.5 33t-46 42t-41.5 42t-26 33v10h167zM39 766q16 -34 39.5 -75.5t44.5 -70.5v-14h-99q-17 13 -39.5 33t-45.5 42t-41 42t-26 33v10h167z" />
    <glyph glyph-name="uni020A" unicode="&#x20a;" horiz-adv-x="440" 
d="M406 0h-372v110l89 34v427l-89 33v110h372v-110l-89 -33v-427l89 -34v-110zM222 952q94 0 152 -50.5t62 -134.5h-102q-2 29 -18.5 41.5t-41.5 15.5t-52 3q-22 0 -47.5 -4t-44 -17t-21.5 -39h-104q4 54 32.5 96t76.5 65.5t108 23.5z" />
    <glyph glyph-name="uni020B" unicode="&#x20b;" horiz-adv-x="325" 
d="M258 0h-191v553h191v-553zM165 791q94 0 152 -50.5t62 -134.5h-102q-2 29 -18.5 41.5t-41.5 15.5t-52 3q-22 0 -47.5 -4t-44 -17t-21.5 -39h-104q4 54 32.5 96t76.5 65.5t108 23.5z" />
    <glyph glyph-name="uni020C" unicode="&#x20c;" horiz-adv-x="797" 
d="M745 358q0 -111 -35.5 -193.5t-112 -128.5t-199.5 -46q-120 0 -197 46t-113.5 129t-36.5 194t37 193.5t114 127.5t197 45q122 0 198.5 -45.5t112 -128t35.5 -193.5zM254 358q0 -97 33.5 -152t110.5 -55q80 0 112 55t32 152t-32 153t-111 56t-112 -56t-33 -153zM481 927
q16 -34 40 -75.5t45 -70.5v-14h-99q-17 13 -39.5 33t-46 42t-41.5 42t-26 33v10h167zM275 927q16 -34 39.5 -75.5t44.5 -70.5v-14h-99q-17 13 -39.5 33t-45.5 42t-41 42t-26 33v10h167z" />
    <glyph glyph-name="uni020D" unicode="&#x20d;" horiz-adv-x="637" 
d="M594 278q0 -139 -74 -213.5t-203 -74.5q-80 0 -142 33.5t-97.5 98t-35.5 156.5q0 137 74 211t204 74q80 0 141.5 -33t97 -96.5t35.5 -155.5zM236 278q0 -71 19 -108.5t64 -37.5q44 0 62.5 37.5t18.5 108.5t-18.5 107t-63.5 36q-43 0 -62.5 -36t-19.5 -107zM401 766
q16 -34 40 -75.5t45 -70.5v-14h-99q-17 13 -39.5 33t-46 42t-41.5 42t-26 33v10h167zM195 766q16 -34 39.5 -75.5t44.5 -70.5v-14h-99q-17 13 -39.5 33t-45.5 42t-41 42t-26 33v10h167z" />
    <glyph glyph-name="uni020E" unicode="&#x20e;" horiz-adv-x="797" 
d="M745 358q0 -111 -35.5 -193.5t-112 -128.5t-199.5 -46q-120 0 -197 46t-113.5 129t-36.5 194t37 193.5t114 127.5t197 45q122 0 198.5 -45.5t112 -128t35.5 -193.5zM254 358q0 -97 33.5 -152t110.5 -55q80 0 112 55t32 152t-32 153t-111 56t-112 -56t-33 -153zM401 952
q94 0 152 -50.5t62 -134.5h-102q-2 29 -18.5 41.5t-41.5 15.5t-52 3q-22 0 -47.5 -4t-44 -17t-21.5 -39h-104q4 54 32.5 96t76.5 65.5t108 23.5z" />
    <glyph glyph-name="uni020F" unicode="&#x20f;" horiz-adv-x="637" 
d="M594 278q0 -139 -74 -213.5t-203 -74.5q-80 0 -142 33.5t-97.5 98t-35.5 156.5q0 137 74 211t204 74q80 0 141.5 -33t97 -96.5t35.5 -155.5zM236 278q0 -71 19 -108.5t64 -37.5q44 0 62.5 37.5t18.5 108.5t-18.5 107t-63.5 36q-43 0 -62.5 -36t-19.5 -107zM321 791
q94 0 152 -50.5t62 -134.5h-102q-2 29 -18.5 41.5t-41.5 15.5t-52 3q-22 0 -47.5 -4t-44 -17t-21.5 -39h-104q4 54 32.5 96t76.5 65.5t108 23.5z" />
    <glyph glyph-name="uni0210" unicode="&#x210;" horiz-adv-x="677" 
d="M311 714q291 0 291 -211q0 -65 -32.5 -112.5t-88.5 -79.5l208 -311h-219l-151 260h-49v-260h-193v714h234zM308 568h-38v-163h36q44 0 72.5 19.5t28.5 69.5q0 35 -23 54.5t-76 19.5zM421 927q16 -34 40 -75.5t45 -70.5v-14h-99q-17 13 -39.5 33t-46 42t-41.5 42t-26 33
v10h167zM215 927q16 -34 39.5 -75.5t44.5 -70.5v-14h-99q-17 13 -39.5 33t-45.5 42t-41 42t-26 33v10h167z" />
    <glyph glyph-name="uni0211" unicode="&#x211;" horiz-adv-x="469" 
d="M400 563q16 0 33 -2t25 -4l-17 -180q-10 2 -24.5 4t-40.5 2q-24 0 -51.5 -7t-47.5 -30.5t-20 -73.5v-272h-191v553h142l30 -88h9q23 41 64.5 69.5t88.5 28.5zM333 766q16 -34 40 -75.5t45 -70.5v-14h-99q-17 13 -39.5 33t-46 42t-41.5 42t-26 33v10h167zM127 766
q16 -34 39.5 -75.5t44.5 -70.5v-14h-99q-17 13 -39.5 33t-45.5 42t-41 42t-26 33v10h167z" />
    <glyph glyph-name="uni0212" unicode="&#x212;" horiz-adv-x="677" 
d="M311 714q291 0 291 -211q0 -65 -32.5 -112.5t-88.5 -79.5l208 -311h-219l-151 260h-49v-260h-193v714h234zM308 568h-38v-163h36q44 0 72.5 19.5t28.5 69.5q0 35 -23 54.5t-76 19.5zM341 952q94 0 152 -50.5t62 -134.5h-102q-2 29 -18.5 41.5t-41.5 15.5t-52 3
q-22 0 -47.5 -4t-44 -17t-21.5 -39h-104q4 54 32.5 96t76.5 65.5t108 23.5z" />
    <glyph glyph-name="uni0213" unicode="&#x213;" horiz-adv-x="469" 
d="M400 563q16 0 33 -2t25 -4l-17 -180q-10 2 -24.5 4t-40.5 2q-24 0 -51.5 -7t-47.5 -30.5t-20 -73.5v-272h-191v553h142l30 -88h9q23 41 64.5 69.5t88.5 28.5zM253 791q94 0 152 -50.5t62 -134.5h-102q-2 29 -18.5 41.5t-41.5 15.5t-52 3q-22 0 -47.5 -4t-44 -17
t-21.5 -39h-104q4 54 32.5 96t76.5 65.5t108 23.5z" />
    <glyph glyph-name="uni0214" unicode="&#x214;" horiz-adv-x="757" 
d="M684 284q0 -135 -76.5 -214.5t-231.5 -79.5q-148 0 -225.5 75.5t-77.5 214.5v434h194v-419q0 -76 28.5 -110t83.5 -34q59 0 85.5 34.5t26.5 110.5v418h193v-430zM461 927q16 -34 40 -75.5t45 -70.5v-14h-99q-17 13 -39.5 33t-46 42t-41.5 42t-26 33v10h167zM255 927
q16 -34 39.5 -75.5t44.5 -70.5v-14h-99q-17 13 -39.5 33t-45.5 42t-41 42t-26 33v10h167z" />
    <glyph glyph-name="uni0215" unicode="&#x215;" horiz-adv-x="670" 
d="M604 553v-553h-144l-24 69h-11q-26 -42 -71 -60.5t-96 -18.5q-54 0 -98 21t-69.5 66t-25.5 116v360h191v-302q0 -54 15.5 -82t50.5 -28q54 0 72.5 44t18.5 126v242h191zM417 766q16 -34 40 -75.5t45 -70.5v-14h-99q-17 13 -39.5 33t-46 42t-41.5 42t-26 33v10h167z
M211 766q16 -34 39.5 -75.5t44.5 -70.5v-14h-99q-17 13 -39.5 33t-45.5 42t-41 42t-26 33v10h167z" />
    <glyph glyph-name="uni0216" unicode="&#x216;" horiz-adv-x="757" 
d="M684 284q0 -135 -76.5 -214.5t-231.5 -79.5q-148 0 -225.5 75.5t-77.5 214.5v434h194v-419q0 -76 28.5 -110t83.5 -34q59 0 85.5 34.5t26.5 110.5v418h193v-430zM381 952q94 0 152 -50.5t62 -134.5h-102q-2 29 -18.5 41.5t-41.5 15.5t-52 3q-22 0 -47.5 -4t-44 -17
t-21.5 -39h-104q4 54 32.5 96t76.5 65.5t108 23.5z" />
    <glyph glyph-name="uni0217" unicode="&#x217;" horiz-adv-x="670" 
d="M604 553v-553h-144l-24 69h-11q-26 -42 -71 -60.5t-96 -18.5q-54 0 -98 21t-69.5 66t-25.5 116v360h191v-302q0 -54 15.5 -82t50.5 -28q54 0 72.5 44t18.5 126v242h191zM337 791q94 0 152 -50.5t62 -134.5h-102q-2 29 -18.5 41.5t-41.5 15.5t-52 3q-22 0 -47.5 -4
t-44 -17t-21.5 -39h-104q4 54 32.5 96t76.5 65.5t108 23.5z" />
    <glyph glyph-name="uni0218" unicode="&#x218;" horiz-adv-x="577" 
d="M544 217q0 -58 -29.5 -110t-91 -84.5t-159.5 -32.5q-49 0 -85.5 4.5t-68.5 14.5t-66 26v172q58 -29 117 -44.5t107 -15.5q43 0 63 15t20 38q0 28 -29.5 45.5t-99.5 48.5q-53 25 -92 52.5t-60 67.5t-21 101q0 69 34 115.5t94.5 70t140.5 23.5q70 0 126 -15.5t100 -35.5
l-59 -149q-46 21 -90.5 33.5t-82.5 12.5q-37 0 -54.5 -13t-17.5 -33q0 -17 13 -30t43.5 -28.5t83.5 -39.5q52 -23 88.5 -50.5t56 -65t19.5 -93.5zM387 -72q-17 -40 -35 -74t-47 -75h-114v14q8 32 15 75t8 71h173v-11z" />
    <glyph glyph-name="uni0219" unicode="&#x219;" horiz-adv-x="517" 
d="M477 170q0 -52 -23.5 -93t-75 -64t-135.5 -23q-59 0 -105.5 6.5t-94.5 24.5v153q53 -24 107 -34.5t85 -10.5q62 0 62 28q0 12 -10 21t-35.5 20t-72.5 30q-69 29 -103 66.5t-34 105.5q0 81 62.5 122t165.5 41q55 0 103 -12t100 -35l-52 -123q-41 19 -83 30t-67 11
q-47 0 -47 -23q0 -10 8.5 -18t32.5 -18t70 -29q48 -19 79.5 -41.5t47 -54t15.5 -80.5zM349 -72q-17 -40 -35 -74t-47 -75h-114v14q8 32 15 75t8 71h173v-11z" />
    <glyph glyph-name="uni021A" unicode="&#x21a;" horiz-adv-x="591" 
d="M392 0h-193v556h-174v158h541v-158h-174v-556zM394 -72q-17 -40 -35 -74t-47 -75h-114v14q8 32 15 75t8 71h173v-11z" />
    <glyph glyph-name="uni021B" unicode="&#x21b;" horiz-adv-x="460" 
d="M337 141q26 0 47.5 5.5t44.5 13.5v-139q-31 -13 -66 -22t-89 -9t-94.5 17t-63.5 58.5t-23 116.5v228h-67v78l85 60l49 116h125v-111h136v-143h-136v-215q0 -54 52 -54zM362 -72q-17 -40 -35 -74t-47 -75h-114v14q8 32 15 75t8 71h173v-11z" />
    <glyph glyph-name="uni021C" unicode="&#x21c;" horiz-adv-x="638" 
d="M45 -8q111 23 180 45.5t105.5 47.5t49.5 53t13 62q0 30 -11.5 52.5t-31.5 39.5q-35 -13 -76 -24.5t-88 -22.5l-33 147q93 21 141.5 39t66.5 37t18 41q0 32 -23 44.5t-63 12.5q-44 0 -92.5 -16t-89.5 -40l-81 133q62 41 131.5 61t151.5 20q120 0 189.5 -50t69.5 -145
q0 -94 -82 -161q44 -25 72.5 -69.5t28.5 -109.5q0 -94 -57.5 -164t-178.5 -119.5t-310 -85.5v172z" />
    <glyph glyph-name="uni021D" unicode="&#x21d;" horiz-adv-x="551" 
d="M31 -80q108 19 171 40.5t90.5 49.5t27.5 66q0 53 -31 84q-31 -11 -64.5 -20t-67.5 -17l-33 134q76 18 118.5 33t59.5 30.5t17 34.5q0 29 -21 41.5t-62 12.5q-44 0 -86 -9.5t-77 -23.5l-53 136q55 24 109.5 36t115.5 12q122 0 186 -51t64 -141q0 -42 -19.5 -76.5
t-53.5 -61.5q44 -26 68 -66.5t24 -96.5q0 -73 -36 -123t-101.5 -84.5t-153.5 -57.5t-192 -42v160z" />
    <glyph glyph-name="uni021E" unicode="&#x21e;" horiz-adv-x="766" 
d="M689 0h-194v291h-224v-291h-194v714h194v-265h224v265h194v-714zM288 767q-15 23 -37.5 50t-46 52.5t-42.5 43.5v14h126q26 -16 47.5 -33t47.5 -40q26 23 49 40.5t49 32.5h124v-14q-17 -17 -40.5 -42.5t-46 -53t-38.5 -50.5h-192z" />
    <glyph glyph-name="uni021F" unicode="&#x21f;" horiz-adv-x="670" 
d="M257 652q0 -61 -3 -103t-5 -64h9q27 43 65 60.5t87 17.5q55 0 99 -21t70.5 -65.5t26.5 -116.5v-360h-192v302q0 111 -66 111q-52 0 -71.5 -44t-19.5 -126v-243h-191v760h191v-108zM69 813q-15 23 -37.5 50t-46 52.5t-42.5 43.5v14h126q26 -16 47.5 -33t47.5 -40
q26 23 49 40.5t49 32.5h124v-14q-17 -17 -40.5 -42.5t-46 -53t-38.5 -50.5h-192z" />
    <glyph glyph-name="uni0220" unicode="&#x220;" horiz-adv-x="793" 
d="M483 725q61 0 113.5 -21.5t84.5 -71.5t32 -136v-736h-197v682q0 67 -26 94.5t-73 27.5q-56 0 -85.5 -25.5t-40 -74.5t-10.5 -122v-342h-196v714h149l32 -84h5q38 50 95 72.5t117 22.5z" />
    <glyph glyph-name="uni0221" unicode="&#x221;" horiz-adv-x="874" 
d="M488 -102q2 40 6.5 70.5t10.5 60.5q-19 8 -31 19t-16 18h-7q-25 -28 -69 -52t-117 -24q-105 0 -165.5 70.5t-60.5 217.5q0 95 27 158t73 95t103 32q59 0 95.5 -24t53.5 -50h5q-2 7 -5 25t-5.5 39.5t-2.5 38.5v168h194v-525q0 -24 6 -39q21 26 60.5 45.5t95.5 19.5
q72 0 106.5 -34.5t34.5 -86.5q0 -37 -18.5 -69t-64 -51.5t-128.5 -19.5h-31q-4 -25 -6 -50t-4 -57zM312 143q44 0 63.5 26.5t21.5 84.5v19q0 65 -19 99.5t-69 34.5q-32 0 -53 -34t-21 -98q0 -65 21.5 -98.5t55.5 -33.5zM689 105q34 0 48 6.5t14 19.5q0 22 -27 22
q-20 0 -35.5 -13t-23.5 -35h24z" />
    <glyph glyph-name="uni0222" unicode="&#x222;" horiz-adv-x="818" 
d="M409 -10q-130 0 -209 34.5t-114.5 95t-35.5 137.5q0 59 28 114t104 91q-43 24 -64.5 54t-28.5 65.5t-7 74.5v53h200v-53q0 -49 30 -84.5t100 -35.5q45 0 72.5 16.5t39.5 43.5t12 58v55h199v-53q0 -38 -7 -73.5t-27.5 -66t-61.5 -54.5q72 -35 100.5 -88t28.5 -114
q1 -78 -36.5 -139t-116.5 -96t-206 -35zM408 156q86 0 117.5 29.5t31.5 77.5q0 46 -31 75.5t-114 29.5q-84 0 -117.5 -28.5t-33.5 -77.5q0 -47 31 -76.5t116 -29.5z" />
    <glyph glyph-name="uni0223" unicode="&#x223;" horiz-adv-x="644" 
d="M319 -10q-76 0 -140.5 30.5t-103 89.5t-38.5 144q0 68 28 120.5t100 86.5q-43 23 -64 55.5t-27.5 72t-6.5 83.5v88h194v-89q0 -61 12 -97.5t50 -36.5q37 0 48 35t11 96v92h195v-91q0 -42 -7.5 -81.5t-29 -72t-63.5 -54.5q67 -32 98 -84t31 -119q1 -86 -37 -146t-103 -91
t-147 -31zM322 142q41 0 64 31t23 89q0 59 -20.5 90t-65.5 31q-46 0 -67 -31t-21 -92q0 -58 20.5 -88t66.5 -30z" />
    <glyph glyph-name="uni0224" unicode="&#x224;" horiz-adv-x="611" 
d="M376 -273q-26 0 -58 3t-52 9v148q20 -5 33 -7t29 -2q18 0 33.5 8t25.5 30.5t10 65.5v18h-367v119l309 439h-302v156h541v-119l-309 -439h317v-214q0 -55 -20.5 -104t-66.5 -80t-123 -31z" />
    <glyph glyph-name="uni0225" unicode="&#x225;" horiz-adv-x="500" 
d="M463 553v-127l-214 -280h227v-193q0 -102 -42.5 -147.5t-123.5 -45.5q-28 0 -51.5 4t-43.5 11v131q11 -3 24.5 -6t26.5 -3q26 0 38 11.5t12 45.5v46h-295v114l225 293h-213v146h430z" />
    <glyph glyph-name="uni0226" unicode="&#x226;" horiz-adv-x="726" 
d="M515 0l-35 134h-232l-36 -134h-212l233 717h257l236 -717h-211zM409 409q-5 19 -14 54.5t-18 73.5t-14 62q-4 -24 -12.5 -60t-17 -71t-14.5 -59l-31 -117h152zM363 937q41 0 71.5 -17t30.5 -68q0 -49 -30.5 -66.5t-71.5 -17.5q-42 0 -71.5 17.5t-29.5 66.5q0 51 29.5 68
t71.5 17z" />
    <glyph glyph-name="uni0227" unicode="&#x227;" horiz-adv-x="623" 
d="M336 563q105 0 164 -52t59 -148v-363h-132l-37 73h-4q-23 -29 -47.5 -47.5t-56.5 -27t-78 -8.5q-72 0 -120 44t-48 135q0 89 61.5 132t178.5 48l92 3v8q0 37 -18 52.5t-49 15.5q-33 0 -73 -11.5t-81 -29.5l-55 126q48 25 108.5 37.5t135.5 12.5zM325 245
q-52 -2 -73.5 -18.5t-21.5 -46.5q0 -28 15 -41.5t40 -13.5q35 0 59.5 22t24.5 57v43zM312 776q41 0 71.5 -17t30.5 -68q0 -49 -30.5 -66.5t-71.5 -17.5q-42 0 -71.5 17.5t-29.5 66.5q0 51 29.5 68t71.5 17z" />
    <glyph glyph-name="uni0228" unicode="&#x228;" horiz-adv-x="549" 
d="M501 0h-424v714h424v-155h-231v-112h214v-155h-214v-135h231v-157zM410 -123q0 -53 -36.5 -85t-97.5 -32q-34 0 -62 5t-46 12v94q17 -5 33 -8t32 -3q40 0 40 28q0 17 -16.5 27t-54.5 17l30 68h95l-9 -30q20 -4 41.5 -14t36 -28.5t14.5 -50.5z" />
    <glyph glyph-name="uni0229" unicode="&#x229;" horiz-adv-x="618" 
d="M315 563q121 0 191 -63t70 -190v-85h-341q2 -43 32.5 -71t88.5 -28q52 0 95 10t89 32v-137q-40 -21 -87.5 -31t-119.5 -10q-84 0 -149.5 29.5t-103.5 92.5t-38 161q0 100 34.5 164t96 95t142.5 31zM322 433q-34 0 -56.5 -21t-26.5 -67h164q-1 37 -21.5 62.5t-59.5 25.5z
M448 -123q0 -53 -36.5 -85t-97.5 -32q-34 0 -62 5t-46 12v94q17 -5 33 -8t32 -3q40 0 40 28q0 17 -16.5 27t-54.5 17l30 68h95l-9 -30q20 -4 41.5 -14t36 -28.5t14.5 -50.5z" />
    <glyph glyph-name="uni022A" unicode="&#x22a;" horiz-adv-x="797" 
d="M577 1028v-107h-353v107h353zM297 894q34 0 54.5 -17t20.5 -51q0 -31 -20.5 -49t-54.5 -18q-35 0 -54.5 18t-19.5 49q0 34 19.5 51t54.5 17zM500 894q33 0 54 -17t21 -51q0 -31 -21 -49t-54 -18q-34 0 -53.5 18t-19.5 49q0 34 19.5 51t53.5 17zM745 358
q0 -111 -35.5 -193.5t-112 -128.5t-199.5 -46q-120 0 -197 46t-113.5 129t-36.5 194t37 193.5t114 127.5t197 45q122 0 198.5 -45.5t112 -128t35.5 -193.5zM254 358q0 -97 33.5 -152t110.5 -55q80 0 112 55t32 152t-32 153t-111 56t-112 -56t-33 -153z" />
    <glyph glyph-name="uni022B" unicode="&#x22b;" horiz-adv-x="637" 
d="M497 867v-107h-353v107h353zM217 733q34 0 54.5 -17t20.5 -51q0 -31 -20.5 -49t-54.5 -18q-35 0 -54.5 18t-19.5 49q0 34 19.5 51t54.5 17zM420 733q33 0 54 -17t21 -51q0 -31 -21 -49t-54 -18q-34 0 -53.5 18t-19.5 49q0 34 19.5 51t53.5 17zM594 278q0 -139 -74 -213.5
t-203 -74.5q-80 0 -142 33.5t-97.5 98t-35.5 156.5q0 137 74 211t204 74q80 0 141.5 -33t97 -96.5t35.5 -155.5zM236 278q0 -71 19 -108.5t64 -37.5q44 0 62.5 37.5t18.5 108.5t-18.5 107t-63.5 36q-43 0 -62.5 -36t-19.5 -107z" />
    <glyph glyph-name="uni022C" unicode="&#x22c;" horiz-adv-x="797" 
d="M223 927v108h353v-108h-353zM218 766q4 47 30 81.5t81 34.5q36 0 59.5 -9.5t41 -19t36.5 -9.5q32 0 38 37h74q-3 -31 -15 -57.5t-35.5 -42.5t-62.5 -16q-32 0 -56 9.5t-42 19t-34 9.5q-17 0 -26.5 -8t-15.5 -29h-73zM745 358q0 -111 -35.5 -193.5t-112 -128.5t-199.5 -46
q-120 0 -197 46t-113.5 129t-36.5 194t37 193.5t114 127.5t197 45q122 0 198.5 -45.5t112 -128t35.5 -193.5zM254 358q0 -97 33.5 -152t110.5 -55q80 0 112 55t32 152t-32 153t-111 56t-112 -56t-33 -153z" />
    <glyph glyph-name="uni022D" unicode="&#x22d;" horiz-adv-x="637" 
d="M143 766v108h353v-108h-353zM138 605q4 47 30 81.5t81 34.5q36 0 59.5 -9.5t41 -19t36.5 -9.5q32 0 38 37h74q-3 -31 -15 -57.5t-35.5 -42.5t-62.5 -16q-32 0 -56 9.5t-42 19t-34 9.5q-17 0 -26.5 -8t-15.5 -29h-73zM594 278q0 -139 -74 -213.5t-203 -74.5
q-80 0 -142 33.5t-97.5 98t-35.5 156.5q0 137 74 211t204 74q80 0 141.5 -33t97 -96.5t35.5 -155.5zM236 278q0 -71 19 -108.5t64 -37.5q44 0 62.5 37.5t18.5 108.5t-18.5 107t-63.5 36q-43 0 -62.5 -36t-19.5 -107z" />
    <glyph glyph-name="uni022E" unicode="&#x22e;" horiz-adv-x="797" 
d="M745 358q0 -111 -35.5 -193.5t-112 -128.5t-199.5 -46q-120 0 -197 46t-113.5 129t-36.5 194t37 193.5t114 127.5t197 45q122 0 198.5 -45.5t112 -128t35.5 -193.5zM254 358q0 -97 33.5 -152t110.5 -55q80 0 112 55t32 152t-32 153t-111 56t-112 -56t-33 -153zM399 937
q41 0 71.5 -17t30.5 -68q0 -49 -30.5 -66.5t-71.5 -17.5q-42 0 -71.5 17.5t-29.5 66.5q0 51 29.5 68t71.5 17z" />
    <glyph glyph-name="uni022F" unicode="&#x22f;" horiz-adv-x="637" 
d="M594 278q0 -139 -74 -213.5t-203 -74.5q-80 0 -142 33.5t-97.5 98t-35.5 156.5q0 137 74 211t204 74q80 0 141.5 -33t97 -96.5t35.5 -155.5zM236 278q0 -71 19 -108.5t64 -37.5q44 0 62.5 37.5t18.5 108.5t-18.5 107t-63.5 36q-43 0 -62.5 -36t-19.5 -107zM319 776
q41 0 71.5 -17t30.5 -68q0 -49 -30.5 -66.5t-71.5 -17.5q-42 0 -71.5 17.5t-29.5 66.5q0 51 29.5 68t71.5 17z" />
    <glyph glyph-name="uni0230" unicode="&#x230;" horiz-adv-x="797" 
d="M576 1035v-108h-353v108h353zM398 898q34 0 54.5 -17.5t20.5 -51.5q0 -31 -20.5 -49t-54.5 -18t-54 18t-20 49q0 34 20 51.5t54 17.5zM745 358q0 -111 -35.5 -193.5t-112 -128.5t-199.5 -46q-120 0 -197 46t-113.5 129t-36.5 194t37 193.5t114 127.5t197 45
q122 0 198.5 -45.5t112 -128t35.5 -193.5zM254 358q0 -97 33.5 -152t110.5 -55q80 0 112 55t32 152t-32 153t-111 56t-112 -56t-33 -153z" />
    <glyph glyph-name="uni0231" unicode="&#x231;" horiz-adv-x="637" 
d="M496 874v-108h-353v108h353zM318 737q34 0 54.5 -17.5t20.5 -51.5q0 -31 -20.5 -49t-54.5 -18t-54 18t-20 49q0 34 20 51.5t54 17.5zM594 278q0 -139 -74 -213.5t-203 -74.5q-80 0 -142 33.5t-97.5 98t-35.5 156.5q0 137 74 211t204 74q80 0 141.5 -33t97 -96.5
t35.5 -155.5zM236 278q0 -71 19 -108.5t64 -37.5q44 0 62.5 37.5t18.5 108.5t-18.5 107t-63.5 36q-43 0 -62.5 -36t-19.5 -107z" />
    <glyph glyph-name="uni0232" unicode="&#x232;" horiz-adv-x="664" 
d="M332 449l123 265h209l-235 -435v-279h-194v273l-235 441h210zM510 882v-115h-355v115h355z" />
    <glyph glyph-name="uni0233" unicode="&#x233;" horiz-adv-x="610" 
d="M-1 553h201l94 -317q3 -10 5.5 -27t3.5 -33h4q2 20 5.5 34.5t6.5 24.5l96 318h195l-219 -588q-25 -67 -58.5 -113t-82.5 -69t-122 -23q-26 0 -45 2.5t-33 5.5v150q11 -2 26.5 -4t32.5 -2q47 0 69.5 27.5t36.5 63.5l2 5zM483 721v-115h-355v115h355z" />
    <glyph glyph-name="uni0234" unicode="&#x234;" horiz-adv-x="489" 
d="M48 -4q9 20 22.5 44t25.5 37q-11 19 -17 46.5t-6 66.5v570h194v-510q11 8 33.5 13.5t44.5 5.5q68 0 104 -36.5t36 -90.5q0 -65 -45.5 -108.5t-146.5 -43.5q-44 0 -73.5 7.5t-46.5 16.5q-8 -10 -19 -28.5t-17 -32.5zM317 100q18 0 31.5 8.5t13.5 24.5q0 33 -44 33
q-32 0 -52 -23q6 -43 51 -43z" />
    <glyph glyph-name="uni0235" unicode="&#x235;" horiz-adv-x="790" 
d="M368 -4q9 20 22.5 44t25.5 37q-11 19 -17 46.5t-6 66.5v118q0 49 -12.5 75.5t-40.5 26.5q-46 0 -59.5 -44.5t-13.5 -124.5v-241h-194v553h147l25 -69h10q24 43 65.5 61t82.5 18q53 0 94.5 -20.5t65.5 -65t24 -117.5v-110q11 8 33.5 13.5t44.5 5.5q68 0 104 -36.5
t36 -90.5q0 -65 -45.5 -108.5t-146.5 -43.5q-44 0 -73.5 7.5t-46.5 16.5q-8 -10 -19 -28.5t-17 -32.5zM637 100q18 0 31.5 8.5t13.5 24.5q0 33 -44 33q-32 0 -52 -23q6 -43 51 -43z" />
    <glyph glyph-name="uni0236" unicode="&#x236;" horiz-adv-x="492" 
d="M70 -4q9 20 22.5 44t25.5 37q-11 19 -17 46.5t-6 66.5v219h-67v79l83 63l52 112h126v-110h152v-144h-152v-159q11 8 33.5 13.5t44.5 5.5q68 0 104 -36.5t36 -90.5q0 -65 -45.5 -108.5t-146.5 -43.5q-44 0 -73.5 7.5t-46.5 16.5q-8 -10 -19 -28.5t-17 -32.5zM339 100
q18 0 31.5 8.5t13.5 24.5q0 33 -44 33q-32 0 -52 -23q6 -43 51 -43z" />
    <glyph glyph-name="uni0237" unicode="&#x237;" horiz-adv-x="324" 
d="M52 -240q-23 0 -53 3.5t-50 8.5v149q16 -4 29.5 -6.5t29.5 -2.5q23 0 40.5 16.5t17.5 66.5v558h191v-598q0 -50 -19.5 -94.5t-64.5 -72.5t-121 -28z" />
    <glyph glyph-name="uni0238" unicode="&#x238;" horiz-adv-x="960" 
d="M298 -10q-73 0 -132 31.5t-93 96t-34 162.5q0 94 26 156.5t71 94.5t101 32q59 0 94 -25t52 -51h7q-2 17 -4.5 43t-2.5 59v171h194v-171q0 -36 -2.5 -62t-4.5 -40h7q18 28 52.5 52t93.5 24q55 0 99.5 -32.5t71 -96t26.5 -158.5q0 -101 -36.5 -164t-97 -92.5t-132.5 -29.5
q-112 0 -176 73q-31 -35 -77.5 -54t-102.5 -19zM309 145q34 0 54 27.5t20 108.5q0 68 -18.5 98.5t-58.5 30.5q-29 0 -49 -31.5t-20 -99.5q0 -75 19 -104.5t53 -29.5zM650 145q35 0 54 27.5t19 103.5q0 68 -20 101t-50 33q-38 0 -57 -30t-19 -99q0 -80 19.5 -108t53.5 -28z
" />
    <glyph glyph-name="uni0239" unicode="&#x239;" horiz-adv-x="960" 
d="M661 563q74 0 132.5 -31.5t92.5 -95.5t34 -163q0 -93 -26 -156t-70.5 -95t-100.5 -32q-60 0 -94.5 25t-51.5 51h-7q3 -24 5 -46.5t2 -56.5v-208h-194v208q0 37 2 59t5 44h-7q-18 -28 -52.5 -52t-93.5 -24q-55 0 -100 32.5t-71.5 96.5t-26.5 158q0 101 36.5 164t97.5 92.5
t133 29.5q56 0 100.5 -19t75.5 -54q31 35 77.5 54t101.5 19zM310 408q-34 0 -53.5 -27.5t-19.5 -103.5q0 -68 20 -101t49 -33q39 0 58 30t19 98q0 80 -19.5 108.5t-53.5 28.5zM651 408q-34 0 -54 -28t-20 -109q0 -68 18.5 -98t57.5 -30q30 0 50 31.5t20 98.5
q0 76 -19.5 105.5t-52.5 29.5z" />
    <glyph glyph-name="uni023A" unicode="&#x23a;" horiz-adv-x="730" 
d="M515 0l-35 134h-100l-73 -209h-121l73 209h-11l-36 -134h-212l233 717h228l15 43h121l-62 -179l191 -581h-211zM288 292h25l73 208q-7 27 -13.5 54t-9.5 45q-4 -24 -12.5 -60t-17 -71t-14.5 -59zM440 292l-2 9l-4 -9h6z" />
    <glyph glyph-name="uni023B" unicode="&#x23b;" horiz-adv-x="644" 
d="M588 760l-22 -65q27 -9 52 -21l-59 -152q-12 6 -23.5 11t-23.5 9l-136 -392q14 -2 30 -2q47 0 91.5 13t89.5 32v-163q-47 -21 -96.5 -30.5t-105.5 -9.5q-33 0 -63 4l-24 -69h-121l35 102q-83 42 -122 127.5t-39 200.5q0 108 40 191t117.5 130.5t188.5 47.5q28 0 56 -3
l14 39h121zM395 566q-68 0 -107 -56t-39 -156q0 -88 29 -139l122 351h-5z" />
    <glyph glyph-name="uni023C" unicode="&#x23c;" horiz-adv-x="532" 
d="M318 -10q-23 0 -45 2l-71 -200h-122l83 232q-57 32 -89 93.5t-32 156.5q0 101 38 164.5t103.5 94t149.5 30.5q11 0 22 -1l71 198h121l-78 -220q23 -8 45 -19l-56 -141q-11 5 -21 9t-20 7l-90 -254h7q41 0 82.5 13t78.5 36v-152q-34 -22 -77 -35.5t-100 -13.5zM236 275
q0 -21 3 -39l61 171q-30 -11 -47 -44t-17 -88z" />
    <glyph glyph-name="uni023D" unicode="&#x23d;" horiz-adv-x="582" 
d="M77 0v280h-66v152h66v282h193v-282h137v-152h-137v-124h275v-156h-468z" />
    <glyph glyph-name="uni023E" unicode="&#x23e;" horiz-adv-x="604" 
d="M392 0h-181l-41 -75h-95l124 228v403h-174v158h480l25 46h95l-59 -108v-96h-52l-122 -224v-332zM392 556v-49l27 49h-27z" />
    <glyph glyph-name="uni023F" unicode="&#x23f;" horiz-adv-x="533" 
d="M363 -240q-62 0 -99 20t-58.5 55t-38.5 79q-15 40 -33.5 65t-44.5 34q-7 2 -16 4.5t-14 4.5v152q53 -24 107 -34.5t85 -10.5q62 0 62 28q0 12 -10 21t-35.5 20t-72.5 30q-69 29 -103 66.5t-34 105.5q0 81 62.5 122t165.5 41q55 0 103 -12t100 -35l-52 -123q-41 19 -83 30
t-67 11q-47 0 -47 -23q0 -10 8.5 -18t32.5 -18t70 -29q48 -19 79.5 -41.5t47 -54t15.5 -80.5q0 -72 -44.5 -121t-148.5 -57q6 -7 11.5 -15.5t10.5 -18.5q19 -34 36 -46t44 -12q17 0 31 3.5t25 6.5v-137q-15 -4 -39 -8.5t-56 -4.5z" />
    <glyph glyph-name="uni0240" unicode="&#x240;" horiz-adv-x="500" 
d="M410 -240q-70 0 -111.5 22.5t-64 58t-36.5 73.5q-15 41 -35.5 63.5t-67.5 22.5h-74v114l225 293h-213v146h430v-127l-227 -296q35 -9 58.5 -30.5t39.5 -47t26 -47.5q24 -53 45.5 -71t44.5 -18q17 0 31 1.5t30 5.5v-150q-19 -7 -47 -10t-54 -3z" />
    <glyph glyph-name="Glottalstopcased" unicode="&#x241;" horiz-adv-x="511" 
d="M236 725q79 0 135.5 -29.5t87.5 -78t31 -107.5q0 -51 -15.5 -95.5t-54 -84t-107.5 -76.5v-254h-197v335q60 21 95 44.5t53 47t23.5 43t5.5 32.5q0 28 -24 48t-53 20q-30 0 -59.5 -9.5t-52.5 -21t-36 -18.5l-69 138q55 30 112.5 48t124.5 18z" />
    <glyph glyph-name="glottalstopcased" unicode="&#x242;" horiz-adv-x="525" 
d="M236 563q79 0 135 -29.5t86 -79t30 -109.5q0 -51 -15.5 -95.5t-53.5 -84t-106 -76.5v-89h-197v170q59 20 94 43.5t52.5 47t23 43.5t5.5 33q0 30 -24 50.5t-53 20.5q-30 0 -58.5 -9.5t-51 -21t-35.5 -18.5l-69 138q55 30 112.5 48t124.5 18z" />
    <glyph glyph-name="uni0243" unicode="&#x243;" horiz-adv-x="674" 
d="M77 0v176h-68v109h68v429h249q155 0 221 -45.5t66 -128.5q0 -45 -17 -76.5t-42.5 -49.5t-52.5 -25v-5q29 -7 58 -25t48.5 -52.5t19.5 -93.5q0 -100 -73 -156.5t-199 -56.5h-278zM328 450q48 0 67.5 18t19.5 44t-22 41t-69 15h-54v-118h58zM338 149q50 0 70 22t20 58
q0 31 -20 55.5t-74 24.5h-64v-24h92v-109h-92v-27h68z" />
    <glyph glyph-name="uni0244" unicode="&#x244;" horiz-adv-x="757" 
d="M-2 312v161h75v241h194v-241h224v241h193v-241h76v-161h-76v-28q0 -135 -76.5 -214.5t-231.5 -79.5q-148 0 -225.5 75.5t-77.5 214.5v32h-75zM267 295q0 -76 28.5 -110t83.5 -34q59 0 85.5 34.5t26.5 110.5v16h-224v-17z" />
    <glyph glyph-name="uni0245" unicode="&#x245;" horiz-adv-x="706" 
d="M0 0l223 717h257l226 -717h-211l-99 409q-5 19 -13.5 54.5t-16.5 73.5t-13 62q-4 -24 -11.5 -60t-15.5 -71t-14 -59l-100 -409h-212z" />
    <glyph glyph-name="uni0246" unicode="&#x246;" horiz-adv-x="564" 
d="M501 0h-195l-19 -75h-122l19 75h-107v714h289l12 46h123l-12 -46h12v-155h-52l-28 -112h63v-155h-103l-35 -135h155v-157zM270 447h28l29 112h-57v-112z" />
    <glyph glyph-name="uni0247" unicode="&#x247;" horiz-adv-x="610" 
d="M315 563q15 0 29 -1l68 198h124l-78 -227q56 -28 87 -84t31 -139v-85h-225l-33 -95q18 -4 38 -4q52 0 95 10t89 32v-137q-40 -21 -87.5 -31t-119.5 -10q-32 0 -61 4l-70 -201h-124l82 239q-54 32 -86 92t-32 149q0 100 34.5 164t96 95t142.5 31zM239 345h30l29 85
q-24 -6 -40 -27t-19 -58zM403 345q0 12 -3 23l-7 -23h10z" />
    <glyph glyph-name="uni0248" unicode="&#x248;" horiz-adv-x="369" 
d="M29 -224q-32 0 -55.5 3.5t-40.5 7.5v163q14 -4 31 -7t39 -3q21 0 40 8t30.5 35t11.5 84v214h-90v162h90v271h196v-271h90v-162h-90v-214q0 -106 -33 -170t-90 -92.5t-129 -28.5z" />
    <glyph glyph-name="uni0249" unicode="&#x249;" horiz-adv-x="341" 
d="M67 691q0 50 31 67.5t73 17.5q41 0 72 -17t31 -68q0 -50 -31 -67.5t-72 -17.5q-42 0 -73 18t-31 67zM41 -240q-28 0 -60 3.5t-52 8.5v151q18 -4 34 -6.5t39 -2.5q18 0 34.5 6t26.5 23.5t10 52.5v225h-77v123h77v209h194v-209h76v-123h-76v-260q0 -53 -21.5 -99t-70.5 -74
t-134 -28z" />
    <glyph glyph-name="uni024A" unicode="&#x24a;" horiz-adv-x="788" 
d="M318 725q68 0 114 -22.5t74 -54.5h4l15 66h185v-758q0 -22 13 -33t28 -11q20 0 35.5 4.5t22.5 6.5v-146q-13 -6 -40 -11.5t-55 -5.5q-92 0 -146.5 44.5t-54.5 150.5v-12v46v41v49h-8q-32 -41 -76 -65t-112 -24q-69 0 -129 39.5t-96.5 121t-36.5 206.5q0 126 37.5 207.5
t97.5 121t128 39.5zM377 561q-46 0 -80.5 -53t-34.5 -154q0 -106 34 -153t86 -47q65 0 98 60.5t33 157.5v7q0 52 -13 93t-43 65t-80 24z" />
    <glyph glyph-name="uni024B" unicode="&#x24b;" horiz-adv-x="650" 
d="M242 563q62 0 96.5 -24t55.5 -54h4l15 68h164v-602q0 -16 10.5 -27t29.5 -11q17 0 28.5 3t26.5 7v-145q-18 -10 -47 -14t-59 -4q-70 0 -110 24.5t-56.5 67.5t-16.5 97v29q0 23 2 45.5t5 42.5h-7q-17 -28 -51 -52t-93 -24q-87 0 -143.5 72.5t-56.5 214.5q0 98 27.5 161
t74 94t101.5 31zM310 407q-38 0 -55.5 -34t-17.5 -98q0 -68 18 -101.5t60 -33.5t61 26t21 82v23q0 66 -18.5 101t-68.5 35z" />
    <glyph glyph-name="uni024C" unicode="&#x24c;" horiz-adv-x="690" 
d="M311 714q291 0 291 -211q0 -65 -32.5 -112.5t-88.5 -79.5l208 -311h-219l-151 260h-49v-260h-193v257h-67v159h67v298h234zM308 568h-38v-163h36q44 0 72.5 19.5t28.5 69.5q0 35 -23 54.5t-76 19.5z" />
    <glyph glyph-name="uni024D" unicode="&#x24d;" horiz-adv-x="469" 
d="M362 328v-123h-105v-205h-191v205h-72v123h72v225h142l30 -88h9q23 41 64.5 69.5t88.5 28.5q16 0 33 -2t25 -4l-17 -180q-10 2 -24.5 4t-40.5 2q-18 0 -39.5 -3.5t-40 -15.5t-29.5 -36h95z" />
    <glyph glyph-name="uni024E" unicode="&#x24e;" horiz-adv-x="667" 
d="M673 638v-124h-117l-127 -235v-279h-194v273l-128 241h-112v124h45l-40 76h210l35 -76h175l35 76h209l-41 -76h50zM332 449l30 65h-60z" />
    <glyph glyph-name="uni024F" unicode="&#x24f;" horiz-adv-x="618" 
d="M-1 553h201l45 -151h124l46 151h195l-56 -151h52v-124h-98l-117 -313q-25 -67 -58.5 -113t-82.5 -69t-122 -23q-26 0 -45 2.5t-33 5.5v150q11 -2 26.5 -4t32.5 -2q47 0 69.5 27.5t36.5 63.5l2 5l-108 270h-96v124h46zM303 176h4q2 20 5.5 34.5t6.5 24.5l13 43h-50l12 -42
q3 -10 5.5 -27t3.5 -33z" />
    <glyph glyph-name="uni0250" unicode="&#x250;" horiz-adv-x="623" 
d="M287 -10q-105 0 -164 52t-59 148v363h132l37 -73h4q24 30 48 48t56 26.5t78 8.5q72 0 120 -44t48 -135q0 -88 -61.5 -131.5t-178.5 -48.5l-92 -3v-8q0 -37 18 -52.5t49 -15.5q33 0 73.5 11.5t80.5 29.5l55 -126q-48 -25 -108.5 -37.5t-135.5 -12.5zM298 308q53 2 74 18.5
t21 46.5q0 29 -15 42t-40 13q-34 0 -59 -22t-25 -57v-43z" />
    <glyph glyph-name="uni0251" unicode="&#x251;" horiz-adv-x="650" 
d="M255 -10q-100 0 -156.5 72t-56.5 214t57 214.5t151 72.5q56 0 87 -20.5t53 -48.5h5l25 59h157v-354q0 -35 12 -47t28 -12q7 0 16 2t13 3v-142q-5 -3 -19 -6t-30 -5t-27 -2q-59 0 -94 18t-58 64h-6q-22 -30 -58 -56t-99 -26zM320 140q38 0 59.5 31.5t21.5 92.5v23
q0 122 -80 122q-41 0 -63.5 -33t-22.5 -101q0 -71 22.5 -103t62.5 -32z" />
    <glyph glyph-name="uni0252" unicode="&#x252;" horiz-adv-x="650" 
d="M395 563q100 0 156.5 -72t56.5 -214t-57 -214.5t-151 -72.5q-55 0 -86.5 20.5t-53.5 48.5h-5l-25 -59h-157v354q0 35 -12 47t-28 12q-7 0 -16 -1.5t-13 -3.5v142q5 3 19 6t30 5t27 2q59 0 94.5 -17.5t57.5 -64.5h6q22 30 58 56t99 26zM330 413q-37 0 -59 -31t-22 -93v-23
q0 -122 80 -122q41 0 63.5 33.5t22.5 100.5q0 71 -22 103t-63 32z" />
    <glyph glyph-name="uni0253" unicode="&#x253;" horiz-adv-x="650" 
d="M267 767q32 0 57.5 -7t35.5 -12v-145q-7 3 -23.5 7t-36.5 4q-29 0 -33 -33v9q0 -29 -2.5 -55t-4.5 -48h7q18 28 52.5 52t93.5 24q55 0 100 -32.5t71.5 -95.5t26.5 -157q0 -99 -27 -163t-73 -94.5t-103 -30.5q-41 0 -67 9.5t-43 24t-31 27.5h-12l-30 -51h-152v586
q0 67 25 106.5t69 57t100 17.5zM344 410q-38 0 -56.5 -27.5t-20.5 -91.5q0 -72 17 -108.5t63 -36.5q27 0 46.5 34t19.5 100q0 65 -20 97.5t-49 32.5z" />
    <glyph glyph-name="uni0254" unicode="&#x254;" horiz-adv-x="532" 
d="M225 563q81 0 141 -28.5t93 -91t33 -164.5q0 -149 -74 -219t-198 -70q-61 0 -99.5 11t-76.5 37v164q36 -27 72.5 -41.5t87.5 -14.5q37 0 64 30.5t27 102.5q0 68 -27 99t-68 31q-32 0 -59.5 -10.5t-56.5 -26.5l-55 148q33 19 82 31t114 12z" />
    <glyph glyph-name="uni0255" unicode="&#x255;" horiz-adv-x="569" 
d="M333 563q69 0 112.5 -14t74.5 -29l-51 -144q-34 15 -62.5 24t-63.5 9q-106 0 -106 -120q0 -7 0.5 -16t1.5 -15q17 16 54 32t92 16q81 0 119 -38.5t38 -100.5q0 -59 -28.5 -98.5t-77.5 -59t-112 -19.5q-54 0 -91.5 12t-63.5 27q-10 -19 -20 -41t-18 -46l-89 41
q12 32 24 57t25 50q-23 36 -37.5 79.5t-14.5 104.5q0 98 37.5 162t103.5 95.5t153 31.5zM355 206q-34 0 -57 -14t-34 -28q13 -18 31 -28.5t47 -10.5q25 0 45.5 10t20.5 31q0 20 -15 30t-38 10z" />
    <glyph glyph-name="uni0256" unicode="&#x256;" horiz-adv-x="650" 
d="M566 -240q-70 0 -110 24t-56.5 67t-16.5 98v12q0 30 2 57t4 48h-6q-18 -28 -52 -52t-95 -24q-55 0 -99 32.5t-69.5 97t-25.5 158.5q0 95 26 158t71.5 95t102.5 32q42 0 69.5 -12t45.5 -30t29 -37h6q-3 26 -5.5 55.5t-2.5 62.5v158h193v-799q0 -48 39 -48q16 0 28.5 2.5
t27.5 6.5v-142q-18 -7 -46 -13.5t-60 -6.5zM318 141q82 0 82 121v18q0 65 -18 96.5t-63 31.5q-40 0 -62 -34.5t-22 -98.5q0 -70 23 -102t60 -32z" />
    <glyph glyph-name="uni0257" unicode="&#x257;" horiz-adv-x="650" 
d="M238 -10q-85 0 -140.5 73t-55.5 213q0 142 56.5 214.5t146.5 72.5q56 0 89 -22.5t55 -57.5h4q-4 24 -6 49t-2 50v16q0 60 24 98t64.5 56t91.5 18q41 0 73.5 -4.5t46.5 -9.5v-145q-9 3 -26 6t-37 3q-45 0 -45 -50v-570h-144l-41 70h-7q-20 -33 -55 -56.5t-92 -23.5z
M316 141q46 0 65 29t20 89v15q0 65 -18.5 100t-68.5 35q-34 0 -56.5 -33t-22.5 -103q0 -69 22.5 -100.5t58.5 -31.5z" />
    <glyph glyph-name="uni0258" unicode="&#x258;" horiz-adv-x="618" 
d="M303 563q82 0 143 -31t95.5 -95t34.5 -164q0 -98 -38 -161t-103.5 -92.5t-149.5 -29.5q-72 0 -119.5 10t-87.5 31v137q46 -22 89 -32t95 -10q59 0 89 28t32 71h-341v85q0 127 70 190t191 63zM296 433q-39 0 -59.5 -25.5t-21.5 -62.5h164q-4 46 -26.5 67t-56.5 21z" />
    <glyph glyph-name="uni0259" unicode="&#x259;" horiz-adv-x="618" 
d="M285 563q84 0 149.5 -29.5t103.5 -92t38 -161.5t-34.5 -163.5t-95.5 -95.5t-143 -31q-121 0 -191 63t-70 190v85h341q-2 44 -32 71.5t-89 27.5q-52 0 -95 -10t-89 -32v137q40 17 87.5 29t119.5 12zM215 208q1 -37 21.5 -62.5t59.5 -25.5q34 0 56.5 21t26.5 67h-164z" />
    <glyph glyph-name="uni025A" unicode="&#x25a;" horiz-adv-x="873" 
d="M300 -10q-130 0 -195 68t-65 190l353 94q-14 46 -47 63t-80 17q-57 0 -106.5 -15t-84.5 -32v146q29 12 88.5 27t132.5 15q100 0 173 -40.5t103 -131.5l139 33l14 -54q12 -47 25 -68.5t35 -21.5q17 0 30.5 6t26.5 16l31 -96q-14 -13 -40.5 -25.5t-61.5 -12.5
q-56 0 -89.5 25.5t-56.5 91.5l-37 -9q-3 -94 -41 -157.5t-101.5 -96t-145.5 -32.5zM308 124q40 0 69 26.5t29 81.5l-185 -48q6 -22 26.5 -41t60.5 -19z" />
    <glyph glyph-name="uni025B" unicode="&#x25b;" horiz-adv-x="554" 
d="M411 349v-124h-72q-49 0 -74 -5.5t-34 -15.5t-9 -25q0 -9 6.5 -20t28 -19t66.5 -8q62 0 112 13.5t84 29.5v-146q-42 -18 -93 -28.5t-131 -10.5q-144 0 -204 43.5t-60 123.5q0 48 33.5 84.5t99.5 45.5v5q-45 12 -72.5 44t-27.5 77q0 55 33 87.5t88.5 47.5t123.5 15
q62 0 111.5 -10.5t98.5 -31.5l-54 -129q-38 17 -73 26t-75 9q-39 0 -56 -10t-17 -27q0 -21 24 -31t83 -10h60z" />
    <glyph glyph-name="uni025C" unicode="&#x25c;" horiz-adv-x="544" 
d="M245 563q68 0 123.5 -15t88.5 -47.5t33 -87.5q0 -45 -27.5 -77t-72.5 -44v-5q66 -9 94.5 -45.5t28.5 -84.5q0 -80 -66.5 -123.5t-210.5 -43.5q-50 0 -85 4t-62 11t-54 16v146q33 -11 80.5 -23t109.5 -12q43 0 63.5 8t27 19t6.5 20q0 15 -7.5 25t-30.5 15.5t-69 5.5h-72
v124h60q59 0 83 10t24 31q0 17 -17 27t-56 10q-40 0 -75 -9t-73 -26l-54 129q50 21 99 31.5t111 10.5z" />
    <glyph glyph-name="uni025D" unicode="&#x25d;" horiz-adv-x="779" 
d="M245 563q82 0 146 -22t87 -72l125 34l13 -45q13 -47 23 -67.5t36 -20.5q21 0 34.5 7.5t26.5 17.5l43 -102q-23 -19 -50.5 -31t-64.5 -12q-55 0 -90 27t-54 84l-49 -13q-26 -41 -81 -56v-5q66 -9 94.5 -45.5t28.5 -84.5q0 -80 -66.5 -123.5t-210.5 -43.5q-50 0 -85 4
t-62 11t-54 16v146q33 -11 80.5 -23t109.5 -12q43 0 63.5 8t27 19t6.5 20q0 15 -7.5 25t-30.5 15.5t-69 5.5h-72v124h60q59 0 83 10t24 31q0 17 -17 27t-56 10q-40 0 -75 -9t-73 -26l-54 129q50 21 99 31.5t111 10.5z" />
    <glyph glyph-name="uni025E" unicode="&#x25e;" horiz-adv-x="655" 
d="M352 563q119 0 188 -37.5t69 -118.5q0 -54 -33.5 -82.5t-81.5 -37.5v-4q30 -3 59.5 -15.5t49 -37t19.5 -66.5q0 -84 -75 -129t-207 -45q-84 0 -152 29t-108.5 92.5t-40.5 166.5q0 94 40 157.5t111 95.5t162 32zM367 423q-133 0 -133 -145q0 -76 32.5 -108.5t87.5 -32.5
q45 0 63 13.5t18 31.5q0 22 -20 29.5t-51 7.5h-52v120h50q32 0 54.5 7.5t22.5 32.5q0 20 -17 32t-55 12z" />
    <glyph glyph-name="uni025F" unicode="&#x25f;" horiz-adv-x="341" 
d="M41 -240q-28 0 -60 3.5t-52 8.5v151q18 -4 34 -6.5t39 -2.5q18 0 34.5 6t26.5 23.5t10 52.5v218h-76v123h76v216h194v-216h75v-123h-75v-253q0 -53 -21.5 -99t-70.5 -74t-134 -28z" />
    <glyph glyph-name="uni0260" unicode="&#x260;" horiz-adv-x="650" 
d="M583 770q36 0 63 -6.5t37 -11.5v-146q-7 3 -21.5 7t-34.5 4q-21 0 -35.5 -13t-14.5 -37v-563q0 -121 -77.5 -182.5t-221.5 -61.5q-57 0 -107 6t-102 25v147q56 -22 110.5 -32t109.5 -10q46 0 70 24.5t24 79.5v8v30t1 28h-1q-28 -41 -64 -58.5t-80 -17.5q-94 0 -147 77
t-53 210q0 139 57 212.5t147 73.5q46 0 84.5 -19.5t65.5 -54.5h4q-5 21 -9.5 46t-4.5 47v8q0 180 200 180zM310 407q-73 0 -73 -132q0 -68 18 -101.5t60 -33.5q35 0 58.5 23t23.5 90v18q0 78 -22.5 107t-64.5 29z" />
    <glyph glyph-name="uni0261" unicode="&#x261;" horiz-adv-x="643" 
d="M243 563q58 0 93.5 -22.5t57.5 -55.5h4l14 68h165v-554q0 -117 -72.5 -178t-222.5 -61q-67 0 -118 7t-98 25v159q50 -21 95 -31.5t110 -10.5q115 0 115 82v10q0 29 6 69h-6q-19 -33 -54 -56.5t-92 -23.5q-88 0 -143 73t-55 213t56 213.5t145 73.5zM315 415
q-79 0 -79 -142q0 -72 20 -103.5t62 -31.5q47 0 65 29.5t18 88.5v23q0 65 -17.5 100.5t-68.5 35.5z" />
    <glyph glyph-name="uni0262" unicode="&#x262;" horiz-adv-x="623" 
d="M350 564q54 0 103 -10.5t83 -24.5l-56 -136q-28 14 -59.5 21.5t-69.5 7.5q-44 0 -69.5 -20.5t-36 -54t-10.5 -72.5q0 -66 27 -103.5t74 -37.5q8 0 24 1t22 2v66h-84v133h251v-311q-44 -13 -102.5 -23t-122.5 -10q-79 0 -140.5 30.5t-96.5 94.5t-35 163q0 134 76.5 209
t221.5 75z" />
    <glyph glyph-name="uni0263" unicode="&#x263;" horiz-adv-x="618" 
d="M297 -240q-82 0 -126 43.5t-44 120.5q0 36 8 66t23 62.5t35 74.5l-193 426h203l74 -209q7 -19 13 -42t12 -47h3q5 25 10.5 43.5t15.5 44.5l79 210h204l-208 -431q30 -56 46.5 -101.5t16.5 -98.5q0 -72 -45 -117t-127 -45zM298 -117q26 0 26 48q0 12 -4.5 39t-21.5 58
q-16 -28 -21 -55.5t-5 -39.5q0 -50 26 -50z" />
    <glyph glyph-name="uni0264" unicode="&#x264;" horiz-adv-x="597" 
d="M516 560q26 0 46.5 -4t33.5 -10v-142q-6 1 -11.5 1.5t-13.5 0.5q-26 0 -49.5 -12t-59.5 -53l-52 -59q28 -31 49 -61.5t21 -80.5q0 -69 -48.5 -112t-132.5 -43q-82 0 -129.5 41.5t-47.5 114.5q0 48 18 80.5t42 58.5l-50 63q-31 40 -51.5 53t-46.5 13q-8 0 -16.5 -1
t-16.5 -3v141q13 5 32.5 9.5t46.5 4.5q54 0 85.5 -17.5t59.5 -51.5l24 -29q12 -15 26 -36.5t25 -39.5h4q10 17 23 37.5t26 36.5l22 28q26 33 60 52.5t81 19.5zM303 200q-17 -19 -23 -33.5t-6 -30.5q0 -13 7.5 -23.5t21.5 -10.5q16 0 23 11t7 23q0 17 -6.5 31t-23.5 33z" />
    <glyph glyph-name="uni0265" unicode="&#x265;" horiz-adv-x="670" 
d="M413 -99q0 62 3 103.5t5 63.5h-9q-27 -43 -64.5 -60.5t-87.5 -17.5q-54 0 -98.5 21t-71 66t-26.5 116v360h192v-302q0 -111 66 -111q52 0 71.5 44t19.5 126v243h191v-760h-191v108z" />
    <glyph glyph-name="uni0266" unicode="&#x266;" horiz-adv-x="670" 
d="M66 572q0 104 54 147.5t143 43.5q31 0 56.5 -4t35.5 -9v-134q-6 2 -17.5 5t-31.5 3t-34.5 -12t-14.5 -36v-38q0 -30 -2.5 -47.5t-5.5 -28.5h9q27 43 65 60.5t87 17.5q55 0 99 -21t70.5 -65.5t26.5 -116.5v-337h-192v279q0 111 -66 111q-52 0 -71.5 -44t-19.5 -126v-220
h-191v572z" />
    <glyph glyph-name="uni0267" unicode="&#x267;" horiz-adv-x="683" 
d="M263 763q31 0 56.5 -4t35.5 -9v-134q-6 2 -17.5 5t-31.5 3t-34.5 -12t-14.5 -36v-38q0 -32 -3 -50t-5 -26h9q27 43 65 60.5t87 17.5q55 0 99 -21t70.5 -65.5t26.5 -116.5v-373q0 -53 -18.5 -100t-63 -75.5t-122.5 -28.5q-25 0 -54 3.5t-48 8.5v151q15 -4 27.5 -6.5
t29.5 -2.5q22 0 39.5 16t17.5 70v279q0 111 -66 111q-52 0 -71.5 -44t-19.5 -126v-220h-191v572q0 104 54 147.5t143 43.5z" />
    <glyph glyph-name="uni0268" unicode="&#x268;" horiz-adv-x="325" 
d="M163 776q41 0 71.5 -17t30.5 -68q0 -49 -30.5 -66.5t-71.5 -17.5q-42 0 -71.5 17.5t-29.5 66.5q0 51 29.5 68t71.5 17zM330 337v-121h-72v-216h-191v216h-72v121h72v216h191v-216h72z" />
    <glyph glyph-name="uni0269" unicode="&#x269;" horiz-adv-x="404" 
d="M270 -10q-76 0 -121 28t-64.5 72.5t-19.5 94.5v368h191v-328q0 -50 17.5 -66.5t40.5 -16.5q17 0 30 2.5t29 6.5v-149q-19 -5 -49.5 -8.5t-53.5 -3.5z" />
    <glyph glyph-name="iotaserifed" unicode="&#x26a;" horiz-adv-x="395" 
d="M359 553v-99l-72 -30v-294l72 -31v-99h-323v99l72 31v294l-72 30v99h323z" />
    <glyph glyph-name="uni026B" unicode="&#x26b;" horiz-adv-x="529" 
d="M167 323h-12q-16 0 -26.5 -11t-12.5 -30h-90q1 83 38 124t94 41h9v313h195v-354h13q30 0 39 44h89q0 -82 -38.5 -124.5t-95.5 -42.5h-7v-283h-195v323z" />
    <glyph glyph-name="uni026C" unicode="&#x26c;" horiz-adv-x="455" 
d="M166 0v280h-36q-76 0 -108 36t-32 84q0 57 34 90.5t92 33.5q14 0 26.5 -3t23.5 -8v247h194v-387h100v-93h-100v-280h-194zM139 373h27v19q0 26 -11 32.5t-23 6.5q-33 0 -33 -29q0 -17 12 -23t28 -6z" />
    <glyph glyph-name="uni026D" unicode="&#x26d;" horiz-adv-x="341" 
d="M257 -240q-70 0 -110.5 24.5t-57 67.5t-16.5 97v811h194v-809q0 -16 11 -27t29 -11q17 0 28.5 3t26.5 7v-145q-18 -10 -47 -14t-58 -4z" />
    <glyph glyph-name="uni026E" unicode="&#x26e;" horiz-adv-x="824" 
d="M458 -240q-77 0 -129.5 10t-101.5 28v164q48 -22 106 -36t117 -14q78 0 110 31.5t32 76.5q0 30 -13 55t-52 40t-117 15h-66v122l177 155h-254v-407h-194v760h194v-207h500v-118l-206 -179q111 -10 168 -70.5t57 -150.5q0 -81 -34 -143t-106.5 -97t-187.5 -35z" />
    <glyph glyph-name="uni026F" unicode="&#x26f;" horiz-adv-x="1000" 
d="M259 -10q-94 0 -144.5 48.5t-50.5 154.5v360h191v-301q0 -63 17 -87.5t50 -24.5q47 0 64.5 40.5t17.5 114.5v258h191v-301q0 -60 16 -86t48 -26q50 0 67 44.5t17 126.5v242h191v-553h-144l-28 68h-5q-22 -34 -63 -56t-103 -22q-61 0 -100.5 20.5t-64.5 56.5h-6
q-26 -37 -67.5 -57t-93.5 -20z" />
    <glyph glyph-name="uni0270" unicode="&#x270;" horiz-adv-x="1027" 
d="M759 -16q0 18 3 45.5t5 41.5h-8q-28 -43 -65.5 -62t-84.5 -19q-58 0 -100.5 17.5t-67.5 56.5h-18q-24 -41 -68.5 -57.5t-88.5 -16.5q-96 0 -145.5 48t-49.5 155v360h195v-306q0 -50 15.5 -77t47.5 -27q50 0 68 41t18 111v258h194v-299q0 -111 64 -111q53 0 69.5 45.5
t16.5 123.5v241h194v-793h-194v224z" />
    <glyph glyph-name="uni0271" unicode="&#x271;" horiz-adv-x="1027" 
d="M761 563q95 0 144.5 -48t49.5 -155v-408q0 -50 -19 -94t-62.5 -71t-117.5 -27q-27 0 -57 4t-47 9v150q16 -4 28 -6.5t28 -2.5q19 0 36 12.5t17 58.5v321q0 50 -15.5 77t-48.5 27q-49 0 -67.5 -41t-18.5 -112v-257h-194v299q0 111 -63 111q-53 0 -70 -45.5t-17 -123.5
v-241h-194v553h147l25 -69h10q26 43 71 61t91 18q59 0 101.5 -18t66.5 -56h18q25 41 70 57.5t88 16.5z" />
    <glyph glyph-name="uni0272" unicode="&#x272;" horiz-adv-x="687" 
d="M416 563q58 0 103 -20.5t71 -65t26 -117.5v-360h-195v308q0 49 -15 75.5t-50 26.5q-54 0 -71.5 -44.5t-17.5 -124.5v-289q0 -50 -17 -94t-58 -71t-115 -27q-27 0 -54 4t-44 14v145q14 -4 25 -7t27 -3q19 0 30.5 11t11.5 27v602h147l25 -69h10q26 43 71.5 61t89.5 18z" />
    <glyph glyph-name="uni0273" unicode="&#x273;" horiz-adv-x="687" 
d="M616 -45q0 -19 12 -30.5t34 -11.5q17 0 27.5 3t25.5 7v-145q-18 -10 -47 -14t-59 -4q-72 0 -113 24.5t-58 68t-17 101.5v354q0 49 -15 75.5t-50 26.5q-54 0 -71.5 -44.5t-17.5 -124.5v-241h-194v553h147l25 -69h10q26 43 71.5 61t89.5 18q58 0 103 -20.5t71 -65
t26 -117.5v-405z" />
    <glyph glyph-name="uni0274" unicode="&#x274;" horiz-adv-x="721" 
d="M78 0v553h235l175 -358q-3 36 -4 64.5t-1 68.5v225h157v-553h-235l-176 365q2 -28 4 -61t2 -80v-224h-157z" />
    <glyph glyph-name="uni0275" unicode="&#x275;" horiz-adv-x="637" 
d="M594 278q0 -139 -74 -213.5t-203 -74.5q-80 0 -142 33.5t-97.5 98t-35.5 156.5q0 137 74 211t204 74q80 0 141.5 -33t97 -96.5t35.5 -155.5zM318 429q-89 0 -95 -101h191q-6 101 -96 101zM319 124q88 0 94 96h-190q9 -96 96 -96z" />
    <glyph glyph-name="uni0276" unicode="&#x276;" horiz-adv-x="884" 
d="M293 560q42 0 67 -5.5t41 -10.5v6h418v-139h-232v-65h218v-133h-218v-74h232v-139h-418v7q-16 -4 -44 -9t-64 -5q-75 0 -132.5 32.5t-90 95.5t-32.5 155q0 137 68 210.5t187 73.5zM319 420q-44 0 -63.5 -35t-19.5 -109t19.5 -109t62.5 -35q48 0 66 37.5t18 106.5
q0 76 -19 110t-64 34z" />
    <glyph glyph-name="uni0277" unicode="&#x277;" horiz-adv-x="852" 
d="M428 560q128 0 213 -41.5t128 -114t43 -166.5q0 -115 -56.5 -181.5t-163.5 -66.5q-50 0 -83 15t-52 39t-29 49h-6q-16 -41 -54 -72t-113 -31q-101 0 -159 66.5t-58 181.5q0 96 47 168.5t134.5 113t208.5 40.5zM424 404q-78 0 -123 -23.5t-64 -61.5t-19 -81
q0 -46 15.5 -72t44.5 -26q39 0 50 24.5t11 62.5v96h172v-100q0 -35 10 -59t48 -24q31 0 47 26t16 69q0 44 -19.5 82.5t-65 62.5t-123.5 24z" />
    <glyph glyph-name="uni0278" unicode="&#x278;" horiz-adv-x="866" 
d="M524 553q102 -9 168.5 -47t99 -97t32.5 -133q0 -73 -31.5 -132t-98 -97t-170.5 -47v-240h-179v240q-100 11 -167.5 49t-101.5 96.5t-34 130.5q0 76 30.5 136t96.5 97.5t174 43.5v207h181v-207zM343 411q-29 -1 -55 -19t-41.5 -48.5t-15.5 -67.5q0 -57 31.5 -94.5
t80.5 -39.5v269zM524 142q48 2 79 39t31 95q0 56 -32 95t-78 40v-269z" />
    <glyph glyph-name="uni0279" unicode="&#x279;" horiz-adv-x="469" 
d="M69 -10q-16 0 -33 2.5t-25 3.5l17 180q10 -2 24.5 -4t40.5 -2q24 0 52 7t47.5 30.5t19.5 73.5v272h191v-553h-142l-30 88h-9q-22 -40 -64 -69t-89 -29z" />
    <glyph glyph-name="uni027A" unicode="&#x27a;" horiz-adv-x="469" 
d="M69 -10q-16 0 -33 2.5t-25 3.5l17 180q10 -2 24.5 -4t40.5 -2q24 0 52 7t47.5 30.5t19.5 73.5v479h191v-760h-142l-30 88h-9q-22 -40 -64 -69t-89 -29z" />
    <glyph glyph-name="uni027B" unicode="&#x27b;" horiz-adv-x="483" 
d="M401 -240q-71 0 -111.5 25t-57 70t-16.5 103v7q0 47 1.5 71t5.5 46h-6q-23 -36 -62.5 -64t-92.5 -28q-9 0 -22 1t-18 2l12 182q3 -1 16 -2.5t27 -1.5q21 0 45 3.5t45.5 14t35 33t13.5 59.5v272h194v-590q0 -20 10.5 -35t32.5 -15q19 0 30.5 3.5t27.5 7.5v-146
q-19 -10 -48.5 -14t-61.5 -4z" />
    <glyph glyph-name="uni027C" unicode="&#x27c;" horiz-adv-x="469" 
d="M400 563q16 0 33 -2t25 -4l-17 -180q-10 2 -24.5 4t-40.5 2q-24 0 -51.5 -7t-47.5 -30.5t-20 -73.5v-512h-191v793h142l30 -88h9q23 41 64.5 69.5t88.5 28.5z" />
    </font>
</defs>
</svg>
