<?xml version="1.0" standalone="no"?>
<!DOCTYPE svg PUBLIC "-//W3C//DTD SVG 1.1//EN" "http://www.w3.org/Graphics/SVG/1.1/DTD/svg11.dtd" >
<svg xmlns="http://www.w3.org/2000/svg" xmlns:xlink="http://www.w3.org/1999/xlink" version="1.1">
<metadata>
Created by FontForge 20170731 at Mon Feb  7 20:28:38 2022
 By Aleksey,,,
Copyright 2015-2021 Google LLC. All Rights Reserved.
</metadata>
<defs>
<font id="NotoSans-ExtraBold" horiz-adv-x="0" >
  <font-face 
    font-family="Noto Sans ExtraBold"
    font-weight="800"
    font-stretch="normal"
    units-per-em="1000"
    panose-1="2 11 9 2 4 5 4 2 2 4"
    ascent="800"
    descent="-200"
    x-height="549"
    cap-height="714"
    bbox="-679 -394 2801 1347"
    underline-thickness="50"
    underline-position="-175"
    unicode-range="U+000D-FFFD"
  />
<missing-glyph horiz-adv-x="592" 
d="M90 0v714h411v-714h-411zM141 51h309v612h-309v-612z" />
    <glyph glyph-name="f_f" unicode="ff" horiz-adv-x="798" 
d="M391 423h-124v-423h-168v423h-78v82l80 43v26q0 106 48 148.5t142 42.5q43 0 78.5 -7t65.5 -17l-40 -116q-15 4 -34 8t-42 4q-27 0 -39.5 -16.5t-12.5 -46.5v-25h124v-126zM790 423h-124v-423h-168v423h-78v82l80 43v26q0 106 48 148.5t142 42.5q43 0 78.5 -7t65.5 -17
l-40 -116q-15 4 -34 8t-42 4q-27 0 -39.5 -16.5t-12.5 -46.5v-25h124v-126z" />
    <glyph glyph-name="fi" unicode="fi" horiz-adv-x="713" 
d="M391 423h-124v-423h-168v423h-78v82l80 43v26q0 106 48 148.5t142 42.5q43 0 78.5 -7t65.5 -17l-40 -116q-15 4 -34 8t-42 4q-27 0 -39.5 -16.5t-12.5 -46.5v-25h124v-126zM557 767q36 0 63 -16t27 -62q0 -45 -27 -61.5t-63 -16.5q-38 0 -64.5 16.5t-26.5 61.5
q0 46 26.5 62t64.5 16zM640 549v-549h-168v549h168z" />
    <glyph glyph-name="fl" unicode="fl" horiz-adv-x="712" 
d="M391 423h-124v-423h-168v423h-78v82l80 43v26q0 106 48 148.5t142 42.5q43 0 78.5 -7t65.5 -17l-40 -116q-15 4 -34 8t-42 4q-27 0 -39.5 -16.5t-12.5 -46.5v-25h124v-126zM640 0h-169v760h169v-760z" />
    <glyph glyph-name="f_f_i" unicode="ffi" horiz-adv-x="1112" 
d="M391 423h-124v-423h-168v423h-78v82l80 43v26q0 106 48 148.5t142 42.5q43 0 78.5 -7t65.5 -17l-40 -116q-15 4 -34 8t-42 4q-27 0 -39.5 -16.5t-12.5 -46.5v-25h124v-126zM790 423h-124v-423h-168v423h-78v82l80 43v26q0 106 48 148.5t142 42.5q43 0 78.5 -7t65.5 -17
l-40 -116q-15 4 -34 8t-42 4q-27 0 -39.5 -16.5t-12.5 -46.5v-25h124v-126zM956 767q36 0 63 -16t27 -62q0 -45 -27 -61.5t-63 -16.5q-38 0 -64.5 16.5t-26.5 61.5q0 46 26.5 62t64.5 16zM1039 549v-549h-168v549h168z" />
    <glyph glyph-name="f_f_l" unicode="ffl" horiz-adv-x="1111" 
d="M391 423h-124v-423h-168v423h-78v82l80 43v26q0 106 48 148.5t142 42.5q43 0 78.5 -7t65.5 -17l-40 -116q-15 4 -34 8t-42 4q-27 0 -39.5 -16.5t-12.5 -46.5v-25h124v-126zM790 423h-124v-423h-168v423h-78v82l80 43v26q0 106 48 148.5t142 42.5q43 0 78.5 -7t65.5 -17
l-40 -116q-15 4 -34 8t-42 4q-27 0 -39.5 -16.5t-12.5 -46.5v-25h124v-126zM1039 0h-169v760h169v-760z" />
    <glyph glyph-name=".notdef" horiz-adv-x="592" 
d="M90 0v714h411v-714h-411zM141 51h309v612h-309v-612z" />
    <glyph glyph-name=".null" 
 />
    <glyph glyph-name="nonmarkingreturn" horiz-adv-x="333" 
 />
    <glyph glyph-name="NULL" 
 />
    <glyph glyph-name="NULL" 
 />
    <glyph glyph-name="CR" unicode="&#xd;" horiz-adv-x="260" 
 />
    <glyph glyph-name="space" unicode=" " horiz-adv-x="260" 
 />
    <glyph glyph-name="exclam" unicode="!" horiz-adv-x="288" 
d="M214 244h-139l-25 470h189zM50 75q0 49 27.5 68.5t66.5 19.5q38 0 65 -19.5t27 -68.5q0 -47 -27 -67.5t-65 -20.5q-39 0 -66.5 20.5t-27.5 67.5z" />
    <glyph glyph-name="quotedbl" unicode="&#x22;" horiz-adv-x="496" 
d="M216 714l-20 -258h-114l-20 258h154zM434 714l-20 -258h-114l-20 258h154z" />
    <glyph glyph-name="numbersign" unicode="#" horiz-adv-x="653" 
d="M498 405l-20 -99h123v-111h-143l-38 -195h-118l37 195h-89l-36 -195h-116l35 195h-113v111h135l19 99h-120v114h141l36 194h118l-37 -194h90l37 194h117l-37 -194h114v-114h-135zM272 306h89l19 99h-89z" />
    <glyph glyph-name="dollar" unicode="$" horiz-adv-x="574" 
d="M248 32q-65 1 -114 12t-91 29v140q44 -20 100 -35t105 -18v138q-70 25 -117.5 52t-71.5 64t-24 93q0 83 59 128t154 52v72h78v-70q59 -3 108.5 -15t93.5 -31l-45 -123q-38 16 -78.5 25.5t-78.5 13.5v-134q62 -20 111 -43.5t77.5 -60t28.5 -95.5q0 -76 -53 -129t-164 -63
v-92h-78v90zM248 557q-59 -7 -59 -46q0 -20 13.5 -33t45.5 -26v105zM326 163q62 10 62 52q0 20 -14.5 33t-47.5 26v-111z" />
    <glyph glyph-name="percent" unicode="%" horiz-adv-x="923" 
d="M199 724q84 0 131 -58.5t47 -164.5t-44 -165.5t-134 -59.5q-82 0 -128 59.5t-46 165.5t43.5 164.5t130.5 58.5zM723 714l-396 -714h-130l396 714h130zM201 614q-23 0 -32.5 -29.5t-9.5 -84.5q0 -56 9.5 -86t32.5 -30t32.5 30t9.5 86q0 55 -9.5 84.5t-32.5 29.5zM719 439
q84 0 131 -58.5t47 -164.5q0 -105 -44 -165t-134 -60q-82 0 -128 60t-46 165q0 106 43.5 164.5t130.5 58.5zM721 330q-23 0 -32.5 -29.5t-9.5 -85.5q0 -55 9.5 -85t32.5 -30q22 0 32 29.5t10 85.5q0 115 -42 115z" />
    <glyph glyph-name="ampersand" unicode="&#x26;" horiz-adv-x="773" 
d="M319 724q93 0 151 -42.5t58 -119.5q0 -66 -39 -112t-98 -81l120 -115q18 30 32 65t23 72h175q-15 -64 -45.5 -129t-71.5 -116l151 -146h-213l-52 53q-43 -28 -91 -45.5t-122 -17.5q-83 0 -140.5 26.5t-88 73t-30.5 105.5q0 71 34.5 118t97.5 82q-35 40 -51.5 78t-16.5 83
q0 75 58 121.5t159 46.5zM317 604q-22 0 -41.5 -12.5t-19.5 -43.5q0 -23 12.5 -44.5t32.5 -41.5q35 20 54 42t19 49t-17.5 39t-39.5 12zM264 298q-25 -18 -38 -40t-13 -49q0 -37 27.5 -59.5t69.5 -22.5q31 0 55.5 8t42.5 20z" />
    <glyph glyph-name="quotesingle" unicode="'" horiz-adv-x="278" 
d="M216 714l-20 -258h-114l-20 258h154z" />
    <glyph glyph-name="parenleft" unicode="(" horiz-adv-x="348" 
d="M38 279q0 122 33.5 237.5t109.5 206.5h139q-68 -94 -101 -209.5t-33 -233.5q0 -117 32.5 -231.5t100.5 -206.5h-138q-76 88 -109.5 202t-33.5 235z" />
    <glyph glyph-name="parenright" unicode=")" horiz-adv-x="348" 
d="M310 279q0 -121 -33.5 -235t-108.5 -202h-138q67 92 100 206.5t33 231.5q0 118 -33 233.5t-101 209.5h139q75 -91 108.5 -206.5t33.5 -237.5z" />
    <glyph glyph-name="asterisk" unicode="*" horiz-adv-x="541" 
d="M339 760l-19 -176l178 50l17 -133l-160 -11l105 -141l-118 -63l-73 147l-64 -146l-123 62l104 141l-159 13l20 131l175 -50l-20 176h137z" />
    <glyph glyph-name="plus" unicode="+" horiz-adv-x="578" 
d="M348 412h186v-119h-186v-182h-118v182h-186v119h186v184h118v-184z" />
    <glyph glyph-name="comma" unicode="," horiz-adv-x="296" 
d="M236 119q-9 -36 -23 -81t-30 -90t-33 -82h-120q14 64 27.5 136t20.5 128h151z" />
    <glyph glyph-name="hyphen" unicode="-" horiz-adv-x="320" 
d="M26 200v136h268v-136h-268z" />
    <glyph glyph-name="period" unicode="." horiz-adv-x="287" 
d="M50 75q0 49 27.5 68.5t66.5 19.5q38 0 65 -19.5t27 -68.5q0 -47 -27 -67.5t-65 -20.5q-39 0 -66.5 20.5t-27.5 67.5z" />
    <glyph glyph-name="slash" unicode="/" horiz-adv-x="426" 
d="M423 719l-266 -724h-151l266 724h151z" />
    <glyph glyph-name="slash" unicode="&#x2215;" horiz-adv-x="426" 
d="M423 719l-266 -724h-151l266 724h151z" />
    <glyph glyph-name="zero" unicode="0" horiz-adv-x="578" 
d="M542 357q0 -115 -24.5 -197t-80 -126t-148.5 -44q-132 0 -192.5 97t-60.5 270q0 115 24 197.5t79.5 126.5t149.5 44q130 0 191.5 -97t61.5 -271zM205 357q0 -115 17 -172.5t67 -57.5q48 0 66 57.5t18 172.5q0 114 -18 172.5t-66 58.5q-50 0 -67 -58.5t-17 -172.5z" />
    <glyph glyph-name="one" unicode="1" horiz-adv-x="578" 
d="M435 0h-172v385q0 14 0.5 39.5t1 54.5t1.5 52q-8 -10 -22 -23.5t-26 -23.5l-82 -67l-85 106l237 191h147v-714z" />
    <glyph glyph-name="two" unicode="2" horiz-adv-x="578" 
d="M543 0h-508v115l177 179q54 56 86 92t45.5 63.5t13.5 58.5q0 37 -22 55t-57 18q-37 0 -74 -19t-80 -55l-93 109q31 28 66 52.5t82.5 40t114.5 15.5q72 0 123.5 -25.5t80 -69t28.5 -99.5q0 -61 -23 -109.5t-68 -97t-110 -107.5l-74 -68v-6h292v-142z" />
    <glyph glyph-name="three" unicode="3" horiz-adv-x="578" 
d="M517 556q0 -75 -45.5 -119.5t-110.5 -60.5v-3q86 -10 131.5 -52t45.5 -115q0 -60 -31 -109t-95.5 -78t-166.5 -29q-63 0 -113 10t-96 29v143q46 -24 96 -35.5t92 -11.5q76 0 105.5 24.5t29.5 67.5q0 26 -14 45.5t-49.5 29.5t-99.5 10h-49v129h50q61 0 94.5 11t46.5 30.5
t13 44.5q0 70 -92 70q-50 0 -88 -18t-59 -31l-75 115q43 30 100 50.5t142 20.5q110 0 174 -44t64 -124z" />
    <glyph glyph-name="four" unicode="4" horiz-adv-x="578" 
d="M562 143h-82v-143h-167v143h-296v122l306 449h157v-441h82v-130zM313 376q0 20 1 49t2 53.5t2 29.5h-5q-9 -21 -18 -37.5t-22 -36.5l-107 -161h147v103z" />
    <glyph glyph-name="five" unicode="5" horiz-adv-x="578" 
d="M311 462q63 0 113 -26t79 -76t29 -121q0 -118 -71.5 -183.5t-215.5 -65.5q-121 0 -197 39v143q37 -19 89.5 -32.5t97.5 -13.5q61 0 93.5 25.5t32.5 77.5q0 47 -32.5 72.5t-99.5 25.5q-27 0 -55 -5.5t-48 -10.5l-65 33l27 370h396v-143h-250l-11 -119q16 3 34.5 6.5
t53.5 3.5z" />
    <glyph glyph-name="six" unicode="6" horiz-adv-x="578" 
d="M35 303q0 61 8.5 121.5t31.5 114.5t64 95.5t105 65t156 23.5q21 0 50 -2t49 -6v-134q-20 4 -43.5 6.5t-52.5 2.5q-81 0 -126.5 -25t-64.5 -71t-22 -107h6q19 35 54.5 59t93.5 24q94 0 148 -60t54 -169q0 -118 -66.5 -184.5t-180.5 -66.5q-74 0 -134 33.5t-95 103
t-35 176.5zM296 126q38 0 61.5 27t23.5 85q0 46 -20 73t-63 27t-68.5 -28t-25.5 -61q0 -29 10 -57.5t30.5 -47t51.5 -18.5z" />
    <glyph glyph-name="seven" unicode="7" horiz-adv-x="578" 
d="M107 0l257 572h-332v142h513v-104l-261 -610h-177z" />
    <glyph glyph-name="eight" unicode="8" horiz-adv-x="578" 
d="M290 723q66 0 118.5 -19t83.5 -57t31 -96q0 -65 -36 -106.5t-90 -67.5q36 -20 70 -46t55.5 -61t21.5 -83q0 -88 -66.5 -142.5t-188.5 -54.5q-127 0 -191 53t-64 141q0 74 38.5 117.5t95.5 71.5q-47 30 -79.5 72.5t-32.5 106.5q0 56 31.5 94.5t84.5 57.5t118 19zM289 600
q-31 0 -52 -17t-21 -46q0 -31 21.5 -52t51.5 -36q28 14 51 34t23 54q0 29 -21.5 46t-52.5 17zM191 193q0 -35 25 -57t71 -22q51 0 75.5 20.5t24.5 55.5q0 25 -14.5 44.5t-35 34t-39.5 25.5l-13 8q-41 -20 -67.5 -46t-26.5 -63z" />
    <glyph glyph-name="nine" unicode="9" horiz-adv-x="578" 
d="M543 405q0 -85 -17.5 -160.5t-59 -132.5t-112 -89.5t-176.5 -32.5q-21 0 -49.5 1.5t-47.5 4.5v136q20 -4 41.5 -6.5t46.5 -2.5q85 0 131.5 25.5t65.5 71.5t22 106h-6q-20 -35 -53.5 -59t-97.5 -24q-91 0 -145 60t-54 170q0 117 66.5 183.5t180.5 66.5q74 0 134 -34
t95 -104t35 -180zM283 587q-39 0 -63 -27t-24 -85q0 -47 21 -74t64 -27q41 0 67 28.5t26 60.5q0 30 -10 58.5t-30 47t-51 18.5z" />
    <glyph glyph-name="colon" unicode=":" horiz-adv-x="287" 
d="M50 470q0 48 27.5 68t66.5 20q38 0 65 -20t27 -68q0 -47 -27 -67.5t-65 -20.5q-39 0 -66.5 20.5t-27.5 67.5zM50 75q0 49 27.5 68.5t66.5 19.5q38 0 65 -19.5t27 -68.5q0 -47 -27 -67.5t-65 -20.5q-39 0 -66.5 20.5t-27.5 67.5z" />
    <glyph glyph-name="semicolon" unicode=";" horiz-adv-x="291" 
d="M51 470q0 48 27.5 68t66.5 20q38 0 65.5 -20t27.5 -68q0 -47 -27.5 -67.5t-65.5 -20.5q-39 0 -66.5 20.5t-27.5 67.5zM236 119q-9 -36 -23 -81t-30 -90t-33 -82h-120q14 64 27.5 136t20.5 128h151z" />
    <glyph glyph-name="less" unicode="&#x3c;" horiz-adv-x="578" 
d="M533 93l-489 217v76l489 245v-130l-320 -148l320 -130v-130z" />
    <glyph glyph-name="equal" unicode="=" horiz-adv-x="578" 
d="M44 396v117h490v-117h-490zM44 191v118h490v-118h-490z" />
    <glyph glyph-name="greater" unicode="&#x3e;" horiz-adv-x="578" 
d="M44 223l320 130l-320 148v130l489 -245v-76l-489 -217v130z" />
    <glyph glyph-name="question" unicode="?" horiz-adv-x="490" 
d="M139 283q0 47 20 81t71 69q47 32 63.5 53.5t16.5 48.5q0 26 -21.5 40.5t-57.5 14.5q-40 0 -82 -13t-87 -37l-60 119q51 29 111 47t130 18q108 0 167 -49.5t59 -127.5q0 -60 -28.5 -100.5t-88.5 -82.5q-44 -30 -59 -48t-15 -45v-27h-139v39zM121 75q0 49 27.5 68.5
t66.5 19.5q37 0 64.5 -19.5t27.5 -68.5q0 -47 -27.5 -67.5t-64.5 -20.5q-39 0 -66.5 20.5t-27.5 67.5z" />
    <glyph glyph-name="at" unicode="@" horiz-adv-x="897" 
d="M852 363q0 -47 -11.5 -92t-34.5 -81.5t-57.5 -58.5t-79.5 -22q-37 0 -66.5 16.5t-44.5 44.5h-8q-21 -25 -53.5 -43t-76.5 -18q-91 0 -138.5 54t-47.5 142q0 67 28.5 119t83 81.5t130.5 29.5q48 0 97 -9t79 -19l-10 -205q-1 -20 -1 -40q0 -33 9 -44.5t22 -11.5
q20 0 34 21.5t21 57.5t7 79q0 119 -69 186.5t-187 67.5q-103 0 -172.5 -42t-105 -116t-35.5 -168q0 -128 69.5 -199.5t204.5 -71.5q57 0 122 13t121 33v-102q-50 -21 -110.5 -33t-127.5 -12q-125 0 -214.5 44.5t-137 127.5t-47.5 199q0 90 30.5 168t87 136t136 90.5
t177.5 32.5q111 0 195.5 -43t132.5 -122.5t48 -189.5zM358 304q0 -52 20.5 -75t54.5 -23q46 0 64.5 34.5t22.5 100.5l6 93q-11 2 -21.5 3t-23.5 1q-44 0 -71 -19t-39.5 -49.5t-12.5 -65.5z" />
    <glyph glyph-name="A" unicode="A" horiz-adv-x="707" 
d="M521 0l-44 153h-247l-44 -153h-186l243 717h218l246 -717h-186zM397 438q-5 18 -13.5 48.5t-17 62.5t-13.5 54q-4 -22 -12.5 -54.5t-16.5 -63t-13 -47.5l-42 -143h170z" />
    <glyph glyph-name="B" unicode="B" horiz-adv-x="673" 
d="M318 714q149 0 219 -43t70 -137q0 -65 -32.5 -105.5t-78.5 -49.5v-5q32 -7 61 -24.5t47.5 -51.5t18.5 -90q0 -98 -71.5 -153t-195.5 -55h-272v714h234zM329 435q57 0 80 20.5t23 55.5q0 69 -110 69h-68v-145h75zM254 305v-169h85q60 0 83.5 24t23.5 63q0 35 -24 58.5
t-87 23.5h-81z" />
    <glyph glyph-name="C" unicode="C" horiz-adv-x="643" 
d="M394 583q-78 0 -121 -61t-43 -167q0 -109 41 -166.5t128 -57.5q45 0 89 11.5t93 29.5v-144q-48 -20 -95.5 -29t-103.5 -9q-114 0 -186 46t-106.5 128t-34.5 192q0 108 39 191t115 130t186 47q52 0 107.5 -12.5t106.5 -37.5l-53 -136q-40 18 -80 31.5t-82 13.5z" />
    <glyph glyph-name="D" unicode="D" horiz-adv-x="737" 
d="M682 368q0 -123 -46 -204.5t-132 -122.5t-205 -41h-215v714h235q170 0 266.5 -88.5t96.5 -257.5zM506 362q0 109 -46 161t-136 52h-70v-435h55q101 0 149 55.5t48 166.5z" />
    <glyph glyph-name="E" unicode="E" horiz-adv-x="555" 
d="M501 0h-417v714h417v-138h-247v-137h229v-138h-229v-161h247v-140z" />
    <glyph glyph-name="F" unicode="F" horiz-adv-x="544" 
d="M252 0h-168v714h415v-138h-247v-162h229v-138h-229v-276z" />
    <glyph glyph-name="G" unicode="G" horiz-adv-x="731" 
d="M362 409h295v-377q-56 -19 -121.5 -30.5t-142.5 -11.5q-158 0 -248 92.5t-90 275.5q0 112 43 194.5t126.5 127t204.5 44.5q61 0 118.5 -12.5t101.5 -31.5l-55 -135q-35 17 -77 27.5t-88 10.5q-65 0 -109.5 -29.5t-66.5 -81t-22 -117.5q0 -103 42.5 -163.5t132.5 -60.5
q25 0 48 3t40 6v132h-132v137z" />
    <glyph glyph-name="H" unicode="H" horiz-adv-x="765" 
d="M681 0h-170v300h-256v-300h-171v714h171v-273h256v273h170v-714z" />
    <glyph glyph-name="I" unicode="I" horiz-adv-x="413" 
d="M380 0h-347v97l88 37v446l-88 37v97h347v-97l-88 -37v-446l88 -37v-97z" />
    <glyph glyph-name="J" unicode="J" horiz-adv-x="341" 
d="M18 -216q-31 0 -54.5 3t-39.5 7v137l32.5 -6.5t38.5 -3.5q45 0 68 28t23 100v665h171v-657q0 -99 -30.5 -159t-84.5 -87t-124 -27z" />
    <glyph glyph-name="K" unicode="K" horiz-adv-x="675" 
d="M675 0h-194l-165 288l-61 -40v-248h-171v714h171v-319q13 22 28.5 44t30.5 43l174 232h187l-238 -318z" />
    <glyph glyph-name="L" unicode="L" horiz-adv-x="573" 
d="M84 0v714h170v-575h283v-139h-453z" />
    <glyph glyph-name="M" unicode="M" horiz-adv-x="954" 
d="M390 0l-160 539h-4q1 -20 3.5 -57.5t4.5 -80.5t2 -79v-322h-152v714h230l159 -528h4l164 528h229v-714h-158v326q0 34 1.5 75.5t3 79t2.5 57.5h-4l-165 -538h-160z" />
    <glyph glyph-name="N" unicode="N" horiz-adv-x="823" 
d="M739 0h-220l-288 523h-4q2 -43 4.5 -95.5t4.5 -97.5v-330h-152v714h219l287 -517h3q-2 43 -4 92.5t-3 93.5v331h153v-714z" />
    <glyph glyph-name="O" unicode="O" horiz-adv-x="796" 
d="M741 358q0 -111 -36 -193.5t-112 -128.5t-195 -46q-118 0 -194 46t-112.5 129t-36.5 194t36.5 193t112.5 127.5t195 45.5t194.5 -45.5t111.5 -128t36 -193.5zM234 358q0 -105 38.5 -165t125.5 -60q89 0 126.5 60t37.5 165t-37.5 165.5t-125.5 60.5t-126.5 -60.5
t-38.5 -165.5z" />
    <glyph glyph-name="P" unicode="P" horiz-adv-x="630" 
d="M321 714q137 0 202.5 -59.5t65.5 -165.5q0 -63 -26 -118.5t-86 -90t-163 -34.5h-60v-246h-170v714h237zM315 575h-61v-190h45q51 0 84.5 23t33.5 76q0 44 -25 67.5t-77 23.5z" />
    <glyph glyph-name="Q" unicode="Q" horiz-adv-x="796" 
d="M741 358q0 -116 -39.5 -202.5t-126.5 -129.5l173 -196h-215l-126 160h-9q-118 0 -194 46t-112.5 129t-36.5 194t36.5 193t112.5 127.5t195 45.5t194.5 -45.5t111.5 -128t36 -193.5zM234 358q0 -105 38.5 -165t125.5 -60q89 0 126.5 60t37.5 165t-37.5 165.5t-125.5 60.5
t-126.5 -60.5t-38.5 -165.5z" />
    <glyph glyph-name="R" unicode="R" horiz-adv-x="668" 
d="M304 714q288 0 288 -213q0 -69 -36.5 -116t-91.5 -74l209 -311h-191l-161 268h-67v-268h-170v714h220zM297 580h-43v-179h43q61 0 91.5 22.5t30.5 71.5q0 43 -29 64t-93 21z" />
    <glyph glyph-name="S" unicode="S" horiz-adv-x="563" 
d="M526 207q0 -61 -30 -110.5t-90 -78t-151 -28.5q-63 0 -113 11t-97 33v155q54 -25 110.5 -42t108.5 -17q49 0 71 18.5t22 46.5q0 34 -35 55.5t-99 51.5q-42 19 -81.5 45.5t-64.5 67t-25 103.5q0 100 69.5 153t184.5 53q62 0 115 -14.5t104 -35.5l-54 -133
q-48 21 -89.5 32.5t-80.5 11.5q-41 0 -61 -17t-20 -43q0 -21 14 -36.5t44 -31.5t79 -39q53 -24 91 -52t58 -65.5t20 -93.5z" />
    <glyph glyph-name="T" unicode="T" horiz-adv-x="585" 
d="M377 0h-170v573h-185v141h540v-141h-185v-573z" />
    <glyph glyph-name="U" unicode="U" horiz-adv-x="756" 
d="M677 267q0 -82 -33.5 -144t-100 -97.5t-168.5 -35.5q-144 0 -220 74t-76 202v448h171v-429q0 -82 32.5 -117t96.5 -35q67 0 97.5 36.5t30.5 116.5v428h170v-447z" />
    <glyph glyph-name="V" unicode="V" horiz-adv-x="670" 
d="M670 714l-239 -714h-193l-238 714h183l116 -396q5 -15 12.5 -45.5t14.5 -63t9 -53.5q3 21 9.5 53t13.5 62.5t12 45.5l118 397h182z" />
    <glyph glyph-name="W" unicode="W" horiz-adv-x="1000" 
d="M993 714l-179 -714h-198l-83 345q-3 10 -7.5 32t-9.5 48t-9.5 50.5t-5.5 40.5q-2 -16 -6.5 -40.5t-9.5 -50.5t-10 -48t-7 -32l-84 -345h-197l-180 714h166l85 -375q5 -21 12 -56t13.5 -71.5t9.5 -60.5q4 32 12 75.5t16.5 84t14.5 63.5l85 340h159l85 -340q4 -17 10 -45
t12 -60.5t11.5 -63.5t8.5 -54q3 24 9.5 60.5t13.5 71t12 55.5l85 376h166z" />
    <glyph glyph-name="X" unicode="X" horiz-adv-x="693" 
d="M691 0h-196l-153 248l-153 -248h-188l237 367l-223 347h189l143 -240l138 240h189l-224 -359z" />
    <glyph glyph-name="Y" unicode="Y" horiz-adv-x="642" 
d="M321 433l137 281h184l-236 -436v-278h-170v273l-236 441h185z" />
    <glyph glyph-name="Z" unicode="Z" horiz-adv-x="594" 
d="M569 0h-542v108l327 467h-319v139h526v-108l-327 -467h335v-139z" />
    <glyph glyph-name="bracketleft" unicode="[" horiz-adv-x="328" 
d="M304 -163h-240v886h240v-112h-100v-661h100v-113z" />
    <glyph glyph-name="backslash" unicode="\" horiz-adv-x="426" 
d="M155 719l266 -724h-150l-266 724h150z" />
    <glyph glyph-name="bracketright" unicode="]" horiz-adv-x="328" 
d="M24 -50h100v661h-100v112h240v-886h-240v113z" />
    <glyph glyph-name="asciicircum" unicode="^" horiz-adv-x="550" 
d="M9 250l214 468h76l245 -468h-130l-149 299l-130 -299h-126z" />
    <glyph glyph-name="underscore" unicode="_" horiz-adv-x="452" 
d="M454 -170h-456v92h456v-92z" />
    <glyph glyph-name="grave" unicode="`" horiz-adv-x="388" 
d="M227 766q16 -22 38 -49.5t44.5 -53t38.5 -44.5v-13h-112q-20 13 -46.5 32.5t-55 41.5t-53.5 42t-41 34v10h187z" />
    <glyph glyph-name="a" unicode="a" horiz-adv-x="613" 
d="M318 560q107 0 166 -50t59 -146v-364h-117l-33 74h-4q-35 -45 -74 -64.5t-107 -19.5q-73 0 -121 43t-48 133q0 87 61.5 129.5t180.5 47.5l94 3v16q0 40 -20.5 58t-56.5 18t-75 -11.5t-79 -28.5l-51 112q45 24 102 37t123 13zM324 248q-63 -2 -88 -22.5t-25 -55.5
q0 -31 18 -45t46 -14q42 0 71 25.5t29 69.5v44z" />
    <glyph glyph-name="b" unicode="b" horiz-adv-x="638" 
d="M241 585q0 -30 -2 -58.5t-5 -48.5h7q21 34 57 57.5t94 23.5q89 0 145.5 -72t56.5 -211q0 -141 -57.5 -213.5t-149.5 -72.5q-59 0 -92 21t-54 46h-11l-27 -57h-131v760h169v-175zM334 426q-50 0 -71 -32.5t-22 -99.5v-21q0 -72 20.5 -109.5t74.5 -37.5q40 0 63 39t23 113
q0 148 -88 148z" />
    <glyph glyph-name="c" unicode="c" horiz-adv-x="526" 
d="M308 -10q-124 0 -194 67.5t-70 214.5q0 100 35.5 163.5t98.5 93.5t144 30q54 0 97.5 -11t77.5 -28l-49 -127q-35 15 -65 23.5t-61 8.5q-51 0 -79 -38t-28 -114q0 -77 29 -112.5t79 -35.5q44 0 82.5 12.5t73.5 35.5v-138q-34 -22 -74 -33.5t-97 -11.5z" />
    <glyph glyph-name="d" unicode="d" horiz-adv-x="638" 
d="M245 -10q-89 0 -145 72t-56 212q0 141 57 213t149 72q58 0 94 -23t58 -57h4q-3 18 -6.5 51.5t-3.5 66.5v163h169v-760h-128l-34 71h-7q-21 -34 -57 -57.5t-94 -23.5zM309 124q54 0 76.5 33t23.5 100v15q0 73 -21.5 112t-80.5 39q-43 0 -68 -38t-25 -114q0 -75 25.5 -111
t69.5 -36z" />
    <glyph glyph-name="e" unicode="e" horiz-adv-x="603" 
d="M309 559q116 0 184 -63.5t68 -186.5v-78h-347q2 -54 35 -86t94 -32q52 0 95.5 10t89.5 32v-125q-41 -21 -86.5 -30.5t-112.5 -9.5q-83 0 -147.5 30t-101 92.5t-36.5 158.5q0 97 33 161t92.5 95.5t139.5 31.5zM312 442q-39 0 -64.5 -24.5t-30.5 -77.5h189q-1 43 -24 72.5
t-70 29.5z" />
    <glyph glyph-name="f" unicode="f" horiz-adv-x="399" 
d="M391 423h-124v-423h-168v423h-78v82l80 43v26q0 106 48 148.5t142 42.5q43 0 78.5 -7t65.5 -17l-40 -116q-15 4 -34 8t-42 4q-27 0 -39.5 -16.5t-12.5 -46.5v-25h124v-126z" />
    <glyph glyph-name="g" unicode="g" horiz-adv-x="638" 
d="M249 559q54 0 92 -21t63 -58h4l13 69h144v-550q0 -117 -70.5 -178t-212.5 -61q-62 0 -112 7t-98 25v137q51 -21 100 -31.5t110 -10.5q115 0 115 105v11q0 14 1.5 32.5t3.5 35.5h-5q-24 -39 -61.5 -60t-89.5 -21q-93 0 -147.5 74t-54.5 210q0 137 55.5 211t149.5 74z
M308 426q-93 0 -93 -155q0 -77 23.5 -113.5t71.5 -36.5q53 0 76 31t23 102v21q0 77 -22.5 114t-78.5 37z" />
    <glyph glyph-name="h" unicode="h" horiz-adv-x="663" 
d="M241 627q0 -50 -3 -89.5t-5 -57.5h9q26 43 65.5 61t89.5 18q57 0 101.5 -21t69.5 -65t25 -115v-358h-169v311q0 115 -78 115q-60 0 -82.5 -45.5t-22.5 -129.5v-251h-169v760h169v-133z" />
    <glyph glyph-name="i" unicode="i" horiz-adv-x="314" 
d="M158 767q36 0 63 -16t27 -62q0 -45 -27 -61.5t-63 -16.5q-38 0 -64.5 16.5t-26.5 61.5q0 46 26.5 62t64.5 16zM241 549v-549h-168v549h168z" />
    <glyph glyph-name="j" unicode="j" horiz-adv-x="314" 
d="M67 689q0 46 26.5 62t63.5 16t64 -16t27 -62q0 -45 -27 -61.5t-64 -16.5t-63.5 16.5t-26.5 61.5zM42 -240q-24 0 -52.5 3.5t-47.5 8.5v132q17 -5 31.5 -7t33.5 -2q27 0 46 16.5t19 66.5v571h169v-602q0 -50 -19.5 -92.5t-63 -68.5t-116.5 -26z" />
    <glyph glyph-name="k" unicode="k" horiz-adv-x="638" 
d="M241 439q0 -32 -2.5 -67.5t-6.5 -68.5h3q13 20 29.5 43t32.5 42l140 161h188l-205 -236l218 -313h-193l-141 210l-63 -49v-161h-169v760h169v-321z" />
    <glyph glyph-name="l" unicode="l" horiz-adv-x="313" 
d="M241 0h-169v760h169v-760z" />
    <glyph glyph-name="m" unicode="m" horiz-adv-x="990" 
d="M729 559q94 0 142.5 -47.5t48.5 -153.5v-358h-168v311q0 60 -18.5 87.5t-56.5 27.5q-53 0 -75 -41.5t-22 -117.5v-267h-168v311q0 115 -74 115q-56 0 -76.5 -45.5t-20.5 -130.5v-250h-169v549h128l24 -69h7q23 38 65.5 58.5t96.5 20.5q118 0 165 -78h10q26 39 69 58.5
t92 19.5z" />
    <glyph glyph-name="n" unicode="n" horiz-adv-x="663" 
d="M399 559q87 0 140.5 -47.5t53.5 -153.5v-358h-168v311q0 57 -19 86t-60 29q-61 0 -83 -45.5t-22 -130.5v-250h-169v549h128l23 -71h8q26 40 70 60.5t98 20.5z" />
    <glyph glyph-name="o" unicode="o" horiz-adv-x="627" 
d="M583 276q0 -138 -72.5 -212t-198.5 -74q-78 0 -138.5 33.5t-95 97t-34.5 155.5q0 136 72.5 209.5t198.5 73.5q78 0 138.5 -33t95 -96t34.5 -154zM215 276q0 -77 23 -116.5t76 -39.5q52 0 75 39.5t23 116.5q0 76 -23 114.5t-76 38.5q-52 0 -75 -38.5t-23 -114.5z" />
    <glyph glyph-name="p" unicode="p" horiz-adv-x="638" 
d="M392 559q92 0 147 -72.5t55 -210.5q0 -94 -27 -157.5t-73.5 -96t-106.5 -32.5q-59 0 -92.5 21t-53.5 46h-7q3 -19 5 -40t2 -45v-212h-169v789h137l24 -70h8q21 32 57 56t94 24zM333 426q-51 0 -71 -33.5t-21 -100.5v-15q0 -73 20 -112t74 -39q87 0 87 152q0 77 -22 112.5
t-67 35.5z" />
    <glyph glyph-name="q" unicode="q" horiz-adv-x="638" 
d="M397 -11q0 41 6 82h-6q-21 -34 -56.5 -57.5t-94.5 -23.5q-91 0 -146.5 72t-55.5 212t57 212.5t148 72.5q59 0 95.5 -22.5t59.5 -56.5h4l13 69h144v-789h-168v229zM310 121q55 0 76.5 33t22.5 100v21q0 72 -21 111.5t-80 39.5q-47 0 -70 -39.5t-23 -115.5
q0 -77 23.5 -113.5t71.5 -36.5z" />
    <glyph glyph-name="r" unicode="r" horiz-adv-x="461" 
d="M391 559q13 0 29 -1.5t25 -3.5l-14 -158q-9 2 -23 3.5t-31 1.5q-32 0 -63.5 -10t-52 -37.5t-20.5 -78.5v-275h-169v549h127l26 -90h7q24 41 66 70.5t93 29.5z" />
    <glyph glyph-name="s" unicode="s" horiz-adv-x="506" 
d="M467 166q0 -81 -56.5 -128.5t-176.5 -47.5q-58 0 -101.5 7t-87.5 25v136q48 -22 100 -33.5t88 -11.5q38 0 55 10t17 28q0 13 -8.5 23t-34 22.5t-75.5 33.5q-49 21 -80.5 43t-47 52.5t-15.5 76.5q0 78 60.5 117.5t160.5 39.5q53 0 100 -11t97 -34l-48 -114
q-41 18 -79.5 29t-69.5 11q-58 0 -58 -30q0 -11 8.5 -20.5t33 -20.5t71.5 -31q47 -19 80 -40.5t50 -52.5t17 -79z" />
    <glyph glyph-name="t" unicode="t" horiz-adv-x="446" 
d="M321 124q25 0 47.5 5t45.5 13v-124q-27 -12 -62 -20t-83 -8q-51 0 -90.5 16.5t-62 56.5t-22.5 113v247h-70v70l84 54l46 116h108v-114h146v-126h-146v-241q0 -29 16 -43.5t43 -14.5z" />
    <glyph glyph-name="u" unicode="u" horiz-adv-x="663" 
d="M591 549v-549h-128l-22 70h-10q-26 -42 -71 -61t-96 -19q-85 0 -139.5 48t-54.5 153v358h169v-311q0 -56 18.5 -85t59.5 -29q61 0 83 45t22 130v250h169z" />
    <glyph glyph-name="v" unicode="v" horiz-adv-x="588" 
d="M209 0l-209 549h176l100 -318q5 -17 9.5 -41.5t5.5 -44.5h4q1 21 5.5 44t10.5 41l102 319h175l-209 -549h-170z" />
    <glyph glyph-name="w" unicode="w" horiz-adv-x="881" 
d="M485 215q-5 17 -11 46t-13 61t-12 58.5t-8 39.5h-4q-2 -13 -7.5 -39.5t-12.5 -59t-13.5 -62t-10.5 -49.5l-50 -210h-179l-153 549h166l55 -228q6 -24 11.5 -58t10 -67t6.5 -55h3q1 17 4.5 41.5t8 50t8.5 45.5t5 27l60 244h186l56 -245q3 -16 9 -46.5t10.5 -62.5t6.5 -54
h3q2 21 6.5 54.5t10.5 67.5t12 58l57 228h164l-155 -549h-181z" />
    <glyph glyph-name="x" unicode="x" horiz-adv-x="602" 
d="M187 280l-173 269h191l96 -165l97 165h191l-175 -269l183 -280h-191l-105 178l-105 -178h-191z" />
    <glyph glyph-name="y" unicode="y" horiz-adv-x="588" 
d="M0 549h180l99 -311q5 -17 8.5 -37.5t5.5 -41.5h3q3 23 7.5 42.5t9.5 35.5l99 312h176l-226 -603q-34 -92 -92.5 -139t-151.5 -47q-26 0 -44.5 2.5t-32.5 5.5v133q11 -2 26.5 -4t32.5 -2q47 0 72 28t39 66l6 17z" />
    <glyph glyph-name="z" unicode="z" horiz-adv-x="497" 
d="M469 0h-443v98l242 322h-228v129h419v-106l-233 -314h243v-129z" />
    <glyph glyph-name="braceleft" unicode="{" horiz-adv-x="412" 
d="M376 -163q-94 0 -144 16t-68.5 49t-18.5 86v139q0 46 -35 65.5t-88 19.5v131q54 0 88.5 19.5t34.5 65.5v141q0 52 18.5 85t68.5 49t144 16v-122q-24 -1 -44 -5t-32.5 -17t-12.5 -40v-139q0 -53 -30 -80t-85 -35v-6q56 -9 85.5 -36t29.5 -78v-140q0 -27 12.5 -40t33 -17
t43.5 -5v-122z" />
    <glyph glyph-name="bar" unicode="|" horiz-adv-x="532" 
d="M207 758h118v-981h-118v981z" />
    <glyph glyph-name="braceright" unicode="}" horiz-adv-x="412" 
d="M36 -41q23 1 43.5 5t33 17t12.5 40v140q0 51 29.5 78t85.5 36v6q-55 8 -85 35t-30 80v139q0 27 -12.5 40t-32.5 17t-44 5v122q94 0 144 -16t68.5 -49t18.5 -85v-141q0 -46 34.5 -65.5t88.5 -19.5v-131q-53 0 -88 -19.5t-35 -65.5v-139q0 -53 -18.5 -86t-68.5 -49
t-144 -16v122z" />
    <glyph glyph-name="asciitilde" unicode="~" horiz-adv-x="578" 
d="M271 295q-37 16 -63.5 21.5t-49.5 5.5q-29 0 -59 -17t-55 -42v125q51 53 127 53q29 0 58.5 -6t77.5 -25q36 -16 63.5 -21.5t49.5 -5.5q28 0 58 17t56 42v-125q-51 -53 -127 -53q-30 0 -59 6t-77 25z" />
    <glyph glyph-name="uni00A0" unicode="&#xa0;" horiz-adv-x="260" 
 />
    <glyph glyph-name="exclamdown" unicode="&#xa1;" horiz-adv-x="288" 
d="M238 466q0 -48 -27.5 -68t-66.5 -20q-38 0 -65.5 20t-27.5 68q0 47 27.5 67.5t65.5 20.5q39 0 66.5 -20.5t27.5 -67.5zM74 297h139l25 -469h-189z" />
    <glyph glyph-name="cent" unicode="&#xa2;" horiz-adv-x="578" 
d="M369 648q45 -2 83 -12.5t68 -25.5l-49 -127q-35 14 -65 23t-61 9q-51 0 -79 -38t-28 -114q0 -78 29 -113t79 -35q44 0 81.5 11.5t75.5 31.5v-137q-31 -17 -63 -27.5t-71 -13.5v-90h-94v94q-97 14 -152.5 81t-55.5 197q0 89 26 147.5t73 90.5t109 43v81h94v-76z" />
    <glyph glyph-name="sterling" unicode="&#xa3;" horiz-adv-x="578" 
d="M347 724q54 0 103.5 -11t90.5 -29l-49 -125q-74 29 -129 29q-28 0 -48 -16.5t-20 -59.5v-75h176v-119h-176v-60q0 -51 -24.5 -77t-51.5 -39h341v-142h-515v136q27 13 46 27.5t28.5 36t9.5 57.5v61h-84v119h84v78q0 75 28.5 121t78 67t111.5 21z" />
    <glyph glyph-name="currency" unicode="&#xa4;" horiz-adv-x="569" 
d="M90 353q0 25 6.5 48t16.5 43l-62 61l80 79l61 -61q20 11 44 17.5t46 6.5q48 0 92 -25l60 62l81 -77l-62 -62q23 -40 23 -92q0 -50 -23 -92l60 -60l-79 -78l-60 60q-20 -10 -43.5 -16.5t-48.5 -6.5t-48 5.5t-44 16.5l-59 -58l-79 78l61 60q-23 42 -23 91zM202 353
q0 -33 23.5 -56.5t56.5 -23.5q34 0 58.5 23.5t24.5 56.5q0 34 -24.5 57.5t-58.5 23.5q-33 0 -56.5 -23.5t-23.5 -57.5z" />
    <glyph glyph-name="yen" unicode="&#xa5;" horiz-adv-x="578" 
d="M289 442l113 272h172l-182 -357h95v-95h-120v-62h120v-94h-120v-106h-157v106h-121v94h121v62h-121v95h93l-179 357h173z" />
    <glyph glyph-name="brokenbar" unicode="&#xa6;" horiz-adv-x="532" 
d="M207 758h118v-403h-118v403zM207 181h118v-404h-118v404z" />
    <glyph glyph-name="section" unicode="&#xa7;" horiz-adv-x="492" 
d="M56 391q0 41 22 70.5t50 47.5q-32 22 -49.5 50.5t-17.5 65.5q0 63 53 102.5t145 39.5q50 0 94.5 -11.5t84.5 -29.5l-44 -100q-33 16 -68 28.5t-69 12.5q-66 0 -66 -40q0 -21 21.5 -38.5t74.5 -39.5q77 -31 117 -70t40 -93q0 -49 -19.5 -78t-46.5 -48q29 -20 45 -47.5
t16 -64.5q0 -70 -56 -114.5t-158 -44.5q-52 0 -94 10.5t-77 29.5v110q41 -21 88.5 -36t83.5 -15q47 0 64.5 15t17.5 38q0 15 -6.5 26.5t-26.5 23.5t-59 29q-50 21 -85.5 43.5t-55 52.5t-19.5 75zM180 404q0 -27 24 -48.5t76 -44.5l9 -5q11 9 20.5 24t9.5 38q0 28 -21 50.5
t-81 44.5q-15 -6 -26 -21t-11 -38z" />
    <glyph glyph-name="dieresis" unicode="&#xa8;" horiz-adv-x="605" 
d="M124 688q0 37 21.5 54t52.5 17t53.5 -17t22.5 -54q0 -36 -22.5 -53t-53.5 -17t-52.5 17t-21.5 53zM338 688q0 37 21.5 54t54.5 17q30 0 52.5 -17t22.5 -54q0 -36 -22.5 -53t-52.5 -17q-33 0 -54.5 17t-21.5 53z" />
    <glyph glyph-name="copyright" unicode="&#xa9;" horiz-adv-x="828" 
d="M414 -10q-80 0 -147 27t-116.5 76.5t-76.5 116.5t-27 147q0 78 27.5 144.5t77 116.5t116.5 78t146 28q78 0 145 -27t116.5 -76.5t77.5 -116.5t28 -147t-27 -147t-76.5 -116.5t-116.5 -76.5t-147 -27zM414 61q82 0 147 38t103 104.5t38 153.5q0 84 -37.5 151t-102.5 106
t-148 39q-84 0 -149.5 -38t-103 -104.5t-37.5 -153.5t37 -153.5t102.5 -104.5t150.5 -38zM423 128q-105 0 -157.5 63t-52.5 167q0 101 53.5 164.5t156.5 63.5q37 0 72 -9t66 -25l-36 -82q-51 26 -98 26q-50 0 -77.5 -36.5t-27.5 -102.5q0 -70 25 -105t81 -35q58 0 115 28
v-90q-27 -13 -55 -20t-65 -7z" />
    <glyph glyph-name="ordfeminine" unicode="&#xaa;" horiz-adv-x="389" 
d="M206 722q68 0 105 -35.5t37 -101.5v-217h-72l-18 58q-21 -31 -50 -47.5t-68 -16.5q-51 0 -84 27.5t-33 84.5q0 61 44.5 85t125.5 28l46 2v6q0 43 -57 43q-24 0 -49 -7.5t-55 -20.5l-35 72q35 17 72.5 28.5t90.5 11.5zM194 524q-38 -3 -49 -17t-11 -30q0 -17 10 -25.5
t26 -8.5q33 0 51 20t18 49v15z" />
    <glyph glyph-name="guillemotleft" unicode="&#xab;" horiz-adv-x="645" 
d="M38 283l185 229l121 -65l-134 -170l134 -170l-121 -64l-185 227v13zM301 283l185 229l121 -65l-135 -170l135 -170l-121 -64l-185 227v13z" />
    <glyph glyph-name="logicalnot" unicode="&#xac;" horiz-adv-x="578" 
d="M534 412v-293h-119v174h-371v119h490z" />
    <glyph glyph-name="uni00AD" unicode="&#xad;" horiz-adv-x="320" 
d="M26 200v136h268v-136h-268z" />
    <glyph glyph-name="registered" unicode="&#xae;" horiz-adv-x="828" 
d="M414 -10q-80 0 -147 27t-116.5 76.5t-76.5 116.5t-27 147q0 78 27.5 144.5t77 116.5t116.5 78t146 28q78 0 145 -27t116.5 -76.5t77.5 -116.5t28 -147t-27 -147t-76.5 -116.5t-116.5 -76.5t-147 -27zM414 61q82 0 147 38t103 104.5t38 153.5q0 84 -37.5 151t-102.5 106
t-148 39q-84 0 -149.5 -38t-103 -104.5t-37.5 -153.5t37 -153.5t102.5 -104.5t150.5 -38zM264 145v435h135q92 0 133 -34.5t41 -98.5q0 -49 -22 -76t-52 -40l106 -186h-111l-84 162h-42v-162h-104zM398 383q70 0 70 61q0 31 -17 43t-53 12h-30v-116h30z" />
    <glyph glyph-name="overscore" unicode="&#xaf;" horiz-adv-x="500" 
d="M503 760h-506v108h506v-108z" />
    <glyph glyph-name="degree" unicode="&#xb0;" horiz-adv-x="425" 
d="M213 377q-52 0 -92 22t-63 61t-23 90q0 50 23 89.5t63 62t92 22.5t91.5 -22.5t62 -61.5t22.5 -90t-22.5 -90t-62 -61t-91.5 -22zM213 481q30 0 50 19t20 50q0 33 -20 52t-50 19q-31 0 -51 -19t-20 -52q0 -31 20 -50t51 -19z" />
    <glyph glyph-name="plusminus" unicode="&#xb1;" horiz-adv-x="578" 
d="M348 448h186v-119h-186v-182h-118v182h-186v119h186v184h118v-184zM44 0v118h490v-118h-490z" />
    <glyph glyph-name="uni00B2" unicode="&#xb2;" horiz-adv-x="388" 
d="M354 416h-322v91l107 105q43 43 59 66t16 44q0 34 -37 34q-19 0 -39.5 -9.5t-47.5 -33.5l-64 77q32 29 72.5 46.5t99.5 17.5q68 0 106.5 -31.5t38.5 -87.5q0 -51 -31.5 -90.5t-86.5 -87.5l-42 -37h171v-104z" />
    <glyph glyph-name="uni00B3" unicode="&#xb3;" horiz-adv-x="388" 
d="M190 853q67 0 107.5 -30t40.5 -79q0 -36 -19 -61.5t-62 -40.5v-5q49 -11 72 -38t23 -65q0 -60 -45.5 -93t-133.5 -33q-81 0 -142 34v103q66 -42 138 -42q64 0 64 43q0 17 -14 30.5t-60 13.5h-53v86h42q47 0 61 14t14 32q0 15 -11.5 26.5t-35.5 11.5t-45 -8.5t-48 -28.5
l-53 76q30 22 69.5 38t90.5 16z" />
    <glyph glyph-name="acute" unicode="&#xb4;" horiz-adv-x="388" 
d="M348 756q-16 -14 -41 -34t-53.5 -42t-55 -41.5t-46.5 -32.5h-112v13q16 19 39 44.5t45 53t37 49.5h187v-10z" />
    <glyph glyph-name="uni00B5" unicode="&#xb5;" horiz-adv-x="666" 
d="M593 549v-549h-127l-23 73h-8q-36 -83 -113 -83q-29 0 -49 11t-35 32h-3q3 -19 4.5 -54.5t1.5 -62.5v-156h-169v789h169v-310q0 -57 19 -86t62 -29q58 0 80 45t22 130v250h169z" />
    <glyph glyph-name="paragraph" unicode="&#xb6;" horiz-adv-x="649" 
d="M574 -127h-85v783h-79v-783h-86v400q-15 -4 -30 -6.5t-36 -2.5q-62 0 -108 23t-71.5 77t-25.5 145q0 96 27.5 150.5t77 77.5t115.5 23h301v-887z" />
    <glyph glyph-name="periodcentered" unicode="&#xb7;" horiz-adv-x="287" 
d="M50 352q0 49 27.5 68.5t66.5 19.5q38 0 65 -19.5t27 -68.5q0 -47 -27 -67.5t-65 -20.5q-39 0 -66.5 20.5t-27.5 67.5z" />
    <glyph glyph-name="cedilla" unicode="&#xb8;" horiz-adv-x="243" 
d="M232 -122q0 -55 -34.5 -86.5t-108.5 -31.5q-28 0 -50.5 4t-38.5 9v88q16 -5 34 -8t34 -3t26.5 7t10.5 22q0 18 -17 30t-59 19l34 72h95l-11 -30q30 -8 57.5 -29.5t27.5 -62.5z" />
    <glyph glyph-name="uni00B9" unicode="&#xb9;" horiz-adv-x="388" 
d="M292 844v-428h-126v198q0 12 1 33.5t2 42t2 27.5q-6 -9 -16 -19.5t-18 -17.5l-39 -31l-61 71l156 124h99z" />
    <glyph glyph-name="ordmasculine" unicode="&#xba;" horiz-adv-x="390" 
d="M364 542q0 -86 -46 -133t-124 -47q-73 0 -120.5 47.5t-47.5 132.5q0 86 45.5 133t124.5 47q71 0 119.5 -47t48.5 -133zM136 542q0 -91 59 -91q58 0 58 91q0 92 -58 92q-59 0 -59 -92z" />
    <glyph glyph-name="guillemotright" unicode="&#xbb;" horiz-adv-x="645" 
d="M607 270l-184 -227l-122 64l135 170l-135 170l122 65l184 -229v-13zM345 270l-185 -227l-121 64l134 170l-134 170l121 65l185 -229v-13z" />
    <glyph glyph-name="onequarter" unicode="&#xbc;" horiz-adv-x="856" 
d="M164 0l383 714h131l-383 -714h-131zM138 484q0 11 0.5 31t1.5 40t3 32q-5 -7 -14.5 -17.5t-18.5 -18.5l-40 -32l-61 71l156 124h99v-428h-126v198zM662 0v71h-184v83l180 277h128v-270h61v-90h-61v-71h-124zM574 161h88v80q0 39 3 79q-7 -19 -17 -39.5t-17 -31.5z" />
    <glyph glyph-name="onehalf" unicode="&#xbd;" horiz-adv-x="898" 
d="M170 0l383 714h131l-383 -714h-131zM138 484q0 9 1 32t2 44.5t2 26.5q-5 -7 -15.5 -18t-19.5 -19l-38 -31l-61 71l156 124h99v-428h-126v198zM541 0v91l108 105q43 43 59 65.5t16 44.5q0 34 -38 34q-39 0 -86 -43l-64 77q35 32 76 48t96 16q66 0 105 -31t39 -88
q0 -42 -22 -76.5t-65 -74.5l-72 -64h170v-104h-322z" />
    <glyph glyph-name="threequarters" unicode="&#xbe;" horiz-adv-x="881" 
d="M185 278q-80 0 -141 34v103q31 -20 65 -31t73 -11q64 0 64 43q0 20 -16.5 32t-57.5 12h-53v86h42q44 0 59 13t15 33q0 15 -11 26.5t-36 11.5q-23 0 -44 -8.5t-48 -28.5l-53 76q33 25 72 39.5t88 14.5q66 0 107 -29.5t41 -79.5q0 -36 -19 -61.5t-62 -40.5v-5
q48 -11 71.5 -38t23.5 -65q0 -60 -45.5 -93t-134.5 -33zM208 0l383 714h131l-384 -714h-130zM686 0v71h-184v83l180 277h129v-270h61v-90h-61v-71h-125zM598 161h88v80q0 39 3 79q-7 -19 -17 -39.5t-17 -31.5z" />
    <glyph glyph-name="questiondown" unicode="&#xbf;" horiz-adv-x="490" 
d="M371 466q0 -49 -27.5 -68.5t-66.5 -19.5q-38 0 -65.5 19.5t-27.5 68.5q0 46 27.5 66.5t65.5 20.5q39 0 66.5 -20.5t27.5 -66.5zM352 258q0 -47 -19.5 -81t-71.5 -69q-47 -32 -63 -53.5t-16 -48.5q0 -26 21 -40.5t58 -14.5q39 0 81 13t88 36l60 -119q-52 -29 -111.5 -46.5
t-130.5 -17.5q-107 0 -166 49.5t-59 127.5q0 60 28 100.5t88 82.5q45 30 60 47.5t15 45.5v27h138v-39z" />
    <glyph glyph-name="Agrave" unicode="&#xc0;" horiz-adv-x="707" 
d="M521 0l-44 153h-247l-44 -153h-186l243 717h218l246 -717h-186zM397 438q-5 18 -13.5 48.5t-17 62.5t-13.5 54q-4 -22 -12.5 -54.5t-16.5 -63t-13 -47.5l-42 -143h170zM365 931q16 -22 38 -49.5t44.5 -53t38.5 -44.5v-13h-112q-20 13 -46.5 32.5t-55 41.5t-53.5 42
t-41 34v10h187z" />
    <glyph glyph-name="Aacute" unicode="&#xc1;" horiz-adv-x="707" 
d="M521 0l-44 153h-247l-44 -153h-186l243 717h218l246 -717h-186zM397 438q-5 18 -13.5 48.5t-17 62.5t-13.5 54q-4 -22 -12.5 -54.5t-16.5 -63t-13 -47.5l-42 -143h170zM577 921q-16 -14 -41 -34t-53.5 -42t-55 -41.5t-46.5 -32.5h-112v13q16 19 39 44.5t45 53t37 49.5
h187v-10z" />
    <glyph glyph-name="Acircumflex" unicode="&#xc2;" horiz-adv-x="707" 
d="M521 0l-44 153h-247l-44 -153h-186l243 717h218l246 -717h-186zM397 438q-5 18 -13.5 48.5t-17 62.5t-13.5 54q-4 -22 -12.5 -54.5t-16.5 -63t-13 -47.5l-42 -143h170zM445 931q14 -23 37 -50.5t46.5 -53t41.5 -43.5v-13h-111q-26 15 -53.5 35t-52.5 45
q-27 -25 -52.5 -44t-52.5 -36h-111v13q19 19 42.5 44.5t46 52.5t36.5 50h183z" />
    <glyph glyph-name="Atilde" unicode="&#xc3;" horiz-adv-x="707" 
d="M521 0l-44 153h-247l-44 -153h-186l243 717h218l246 -717h-186zM397 438q-5 18 -13.5 48.5t-17 62.5t-13.5 54q-4 -22 -12.5 -54.5t-16.5 -63t-13 -47.5l-42 -143h170zM150 770q6 84 41 121t87 37q26 0 53 -12.5t53.5 -24.5t50.5 -12q12 0 24.5 10.5t17.5 39.5h81
q-6 -83 -42 -120.5t-85 -37.5q-28 0 -55.5 12t-53.5 24.5t-50 12.5q-12 0 -24 -10.5t-18 -39.5h-80z" />
    <glyph glyph-name="Adieresis" unicode="&#xc4;" horiz-adv-x="707" 
d="M521 0l-44 153h-247l-44 -153h-186l243 717h218l246 -717h-186zM397 438q-5 18 -13.5 48.5t-17 62.5t-13.5 54q-4 -22 -12.5 -54.5t-16.5 -63t-13 -47.5l-42 -143h170zM171 853q0 37 21.5 54t52.5 17t53.5 -17t22.5 -54q0 -36 -22.5 -53t-53.5 -17t-52.5 17t-21.5 53z
M385 853q0 37 21.5 54t54.5 17q30 0 52.5 -17t22.5 -54q0 -36 -22.5 -53t-52.5 -17q-33 0 -54.5 17t-21.5 53z" />
    <glyph glyph-name="Aring" unicode="&#xc5;" horiz-adv-x="707" 
d="M521 0l-44 153h-247l-44 -153h-186l243 717h218l246 -717h-186zM397 438q-5 18 -13.5 48.5t-17 62.5t-13.5 54q-4 -22 -12.5 -54.5t-16.5 -63t-13 -47.5l-42 -143h170zM352 643q-56 0 -90.5 31.5t-34.5 87.5t34.5 87.5t90.5 31.5q53 0 90.5 -31.5t37.5 -86.5
q0 -56 -37 -88t-91 -32zM352 718q19 0 31.5 12t12.5 32t-12.5 32t-31.5 12t-32 -12t-13 -32t11.5 -32t33.5 -12z" />
    <glyph glyph-name="AE" unicode="&#xc6;" horiz-adv-x="949" 
d="M895 0h-425v153h-228l-62 -153h-182l314 714h583v-138h-254v-137h237v-138h-237v-161h254v-140zM299 296h171v273h-59z" />
    <glyph glyph-name="Ccedilla" unicode="&#xc7;" horiz-adv-x="643" 
d="M394 583q-78 0 -121 -61t-43 -167q0 -109 41 -166.5t128 -57.5q45 0 89 11.5t93 29.5v-144q-48 -20 -95.5 -29t-103.5 -9q-114 0 -186 46t-106.5 128t-34.5 192q0 108 39 191t115 130t186 47q52 0 107.5 -12.5t106.5 -37.5l-53 -136q-40 18 -80 31.5t-82 13.5zM490 -122
q0 -55 -34.5 -86.5t-108.5 -31.5q-28 0 -50.5 4t-38.5 9v88q16 -5 34 -8t34 -3t26.5 7t10.5 22q0 18 -17 30t-59 19l34 72h95l-11 -30q30 -8 57.5 -29.5t27.5 -62.5z" />
    <glyph glyph-name="Egrave" unicode="&#xc8;" horiz-adv-x="555" 
d="M501 0h-417v714h417v-138h-247v-137h229v-138h-229v-161h247v-140zM307 931q16 -22 38 -49.5t44.5 -53t38.5 -44.5v-13h-112q-20 13 -46.5 32.5t-55 41.5t-53.5 42t-41 34v10h187z" />
    <glyph glyph-name="Eacute" unicode="&#xc9;" horiz-adv-x="555" 
d="M501 0h-417v714h417v-138h-247v-137h229v-138h-229v-161h247v-140zM520 921q-16 -14 -41 -34t-53.5 -42t-55 -41.5t-46.5 -32.5h-112v13q16 19 39 44.5t45 53t37 49.5h187v-10z" />
    <glyph glyph-name="Ecircumflex" unicode="&#xca;" horiz-adv-x="555" 
d="M501 0h-417v714h417v-138h-247v-137h229v-138h-229v-161h247v-140zM387 931q14 -23 37 -50.5t46.5 -53t41.5 -43.5v-13h-111q-26 15 -53.5 35t-52.5 45q-27 -25 -52.5 -44t-52.5 -36h-111v13q19 19 42.5 44.5t46 52.5t36.5 50h183z" />
    <glyph glyph-name="Edieresis" unicode="&#xcb;" horiz-adv-x="555" 
d="M501 0h-417v714h417v-138h-247v-137h229v-138h-229v-161h247v-140zM113 853q0 37 21.5 54t52.5 17t53.5 -17t22.5 -54q0 -36 -22.5 -53t-53.5 -17t-52.5 17t-21.5 53zM327 853q0 37 21.5 54t54.5 17q30 0 52.5 -17t22.5 -54q0 -36 -22.5 -53t-52.5 -17q-33 0 -54.5 17
t-21.5 53z" />
    <glyph glyph-name="Igrave" unicode="&#xcc;" horiz-adv-x="413" 
d="M380 0h-347v97l88 37v446l-88 37v97h347v-97l-88 -37v-446l88 -37v-97zM218 931q16 -22 38 -49.5t44.5 -53t38.5 -44.5v-13h-112q-20 13 -46.5 32.5t-55 41.5t-53.5 42t-41 34v10h187z" />
    <glyph glyph-name="Iacute" unicode="&#xcd;" horiz-adv-x="413" 
d="M380 0h-347v97l88 37v446l-88 37v97h347v-97l-88 -37v-446l88 -37v-97zM431 921q-16 -14 -41 -34t-53.5 -42t-55 -41.5t-46.5 -32.5h-112v13q16 19 39 44.5t45 53t37 49.5h187v-10z" />
    <glyph glyph-name="Icircumflex" unicode="&#xce;" horiz-adv-x="413" 
d="M380 0h-347v97l88 37v446l-88 37v97h347v-97l-88 -37v-446l88 -37v-97zM298 931q14 -23 37 -50.5t46.5 -53t41.5 -43.5v-13h-111q-26 15 -53.5 35t-52.5 45q-27 -25 -52.5 -44t-52.5 -36h-111v13q19 19 42.5 44.5t46 52.5t36.5 50h183z" />
    <glyph glyph-name="Idieresis" unicode="&#xcf;" horiz-adv-x="413" 
d="M380 0h-347v97l88 37v446l-88 37v97h347v-97l-88 -37v-446l88 -37v-97zM24 853q0 37 21.5 54t52.5 17t53.5 -17t22.5 -54q0 -36 -22.5 -53t-53.5 -17t-52.5 17t-21.5 53zM238 853q0 37 21.5 54t54.5 17q30 0 52.5 -17t22.5 -54q0 -36 -22.5 -53t-52.5 -17q-33 0 -54.5 17
t-21.5 53z" />
    <glyph glyph-name="Eth" unicode="&#xd0;" horiz-adv-x="737" 
d="M319 714q170 0 266.5 -88.5t96.5 -257.5q0 -123 -46 -204.5t-132 -122.5t-205 -41h-215v284h-65v138h65v292h235zM323 575h-69v-153h110v-138h-110v-144h55q197 0 197 222q0 109 -47 161t-136 52z" />
    <glyph glyph-name="Ntilde" unicode="&#xd1;" horiz-adv-x="823" 
d="M739 0h-220l-288 523h-4q2 -43 4.5 -95.5t4.5 -97.5v-330h-152v714h219l287 -517h3q-2 43 -4 92.5t-3 93.5v331h153v-714zM208 770q6 84 41 121t87 37q26 0 53 -12.5t53.5 -24.5t50.5 -12q12 0 24.5 10.5t17.5 39.5h81q-6 -83 -42 -120.5t-85 -37.5q-28 0 -55.5 12
t-53.5 24.5t-50 12.5q-12 0 -24 -10.5t-18 -39.5h-80z" />
    <glyph glyph-name="Ograve" unicode="&#xd2;" horiz-adv-x="796" 
d="M741 358q0 -111 -36 -193.5t-112 -128.5t-195 -46q-118 0 -194 46t-112.5 129t-36.5 194t36.5 193t112.5 127.5t195 45.5t194.5 -45.5t111.5 -128t36 -193.5zM234 358q0 -105 38.5 -165t125.5 -60q89 0 126.5 60t37.5 165t-37.5 165.5t-125.5 60.5t-126.5 -60.5
t-38.5 -165.5zM410 931q16 -22 38 -49.5t44.5 -53t38.5 -44.5v-13h-112q-20 13 -46.5 32.5t-55 41.5t-53.5 42t-41 34v10h187z" />
    <glyph glyph-name="Oacute" unicode="&#xd3;" horiz-adv-x="796" 
d="M741 358q0 -111 -36 -193.5t-112 -128.5t-195 -46q-118 0 -194 46t-112.5 129t-36.5 194t36.5 193t112.5 127.5t195 45.5t194.5 -45.5t111.5 -128t36 -193.5zM234 358q0 -105 38.5 -165t125.5 -60q89 0 126.5 60t37.5 165t-37.5 165.5t-125.5 60.5t-126.5 -60.5
t-38.5 -165.5zM623 921q-16 -14 -41 -34t-53.5 -42t-55 -41.5t-46.5 -32.5h-112v13q16 19 39 44.5t45 53t37 49.5h187v-10z" />
    <glyph glyph-name="Ocircumflex" unicode="&#xd4;" horiz-adv-x="796" 
d="M741 358q0 -111 -36 -193.5t-112 -128.5t-195 -46q-118 0 -194 46t-112.5 129t-36.5 194t36.5 193t112.5 127.5t195 45.5t194.5 -45.5t111.5 -128t36 -193.5zM234 358q0 -105 38.5 -165t125.5 -60q89 0 126.5 60t37.5 165t-37.5 165.5t-125.5 60.5t-126.5 -60.5
t-38.5 -165.5zM490 931q14 -23 37 -50.5t46.5 -53t41.5 -43.5v-13h-111q-26 15 -53.5 35t-52.5 45q-27 -25 -52.5 -44t-52.5 -36h-111v13q19 19 42.5 44.5t46 52.5t36.5 50h183z" />
    <glyph glyph-name="Otilde" unicode="&#xd5;" horiz-adv-x="796" 
d="M741 358q0 -111 -36 -193.5t-112 -128.5t-195 -46q-118 0 -194 46t-112.5 129t-36.5 194t36.5 193t112.5 127.5t195 45.5t194.5 -45.5t111.5 -128t36 -193.5zM234 358q0 -105 38.5 -165t125.5 -60q89 0 126.5 60t37.5 165t-37.5 165.5t-125.5 60.5t-126.5 -60.5
t-38.5 -165.5zM195 770q6 84 41 121t87 37q26 0 53 -12.5t53.5 -24.5t50.5 -12q12 0 24.5 10.5t17.5 39.5h81q-6 -83 -42 -120.5t-85 -37.5q-28 0 -55.5 12t-53.5 24.5t-50 12.5q-12 0 -24 -10.5t-18 -39.5h-80z" />
    <glyph glyph-name="Odieresis" unicode="&#xd6;" horiz-adv-x="796" 
d="M741 358q0 -111 -36 -193.5t-112 -128.5t-195 -46q-118 0 -194 46t-112.5 129t-36.5 194t36.5 193t112.5 127.5t195 45.5t194.5 -45.5t111.5 -128t36 -193.5zM234 358q0 -105 38.5 -165t125.5 -60q89 0 126.5 60t37.5 165t-37.5 165.5t-125.5 60.5t-126.5 -60.5
t-38.5 -165.5zM216 853q0 37 21.5 54t52.5 17t53.5 -17t22.5 -54q0 -36 -22.5 -53t-53.5 -17t-52.5 17t-21.5 53zM430 853q0 37 21.5 54t54.5 17q30 0 52.5 -17t22.5 -54q0 -36 -22.5 -53t-52.5 -17q-33 0 -54.5 17t-21.5 53z" />
    <glyph glyph-name="multiply" unicode="&#xd7;" horiz-adv-x="578" 
d="M429 575l83 -80l-142 -142l140 -141l-81 -81l-142 140l-140 -139l-80 81l137 140l-138 140l81 82l140 -138z" />
    <glyph glyph-name="Oslash" unicode="&#xd8;" horiz-adv-x="796" 
d="M741 358q0 -111 -36 -193.5t-112 -128.5t-195 -46q-91 0 -158 27l-42 -65l-86 57l43 63q-52 49 -76 122t-24 165q0 111 36.5 193t112.5 127.5t195 45.5q96 0 165 -31l39 60l85 -53l-42 -63q49 -48 72 -119.5t23 -160.5zM234 358q0 -40 5 -74t16 -61l224 343q-17 8 -37 13
t-43 5q-88 0 -126.5 -60.5t-38.5 -165.5zM562 358q0 76 -18 126l-220 -338q16 -6 34.5 -9.5t39.5 -3.5q89 0 126.5 60t37.5 165z" />
    <glyph glyph-name="Ugrave" unicode="&#xd9;" horiz-adv-x="756" 
d="M677 267q0 -82 -33.5 -144t-100 -97.5t-168.5 -35.5q-144 0 -220 74t-76 202v448h171v-429q0 -82 32.5 -117t96.5 -35q67 0 97.5 36.5t30.5 116.5v428h170v-447zM390 931q16 -22 38 -49.5t44.5 -53t38.5 -44.5v-13h-112q-20 13 -46.5 32.5t-55 41.5t-53.5 42t-41 34v10
h187z" />
    <glyph glyph-name="Uacute" unicode="&#xda;" horiz-adv-x="756" 
d="M677 267q0 -82 -33.5 -144t-100 -97.5t-168.5 -35.5q-144 0 -220 74t-76 202v448h171v-429q0 -82 32.5 -117t96.5 -35q67 0 97.5 36.5t30.5 116.5v428h170v-447zM603 921q-16 -14 -41 -34t-53.5 -42t-55 -41.5t-46.5 -32.5h-112v13q16 19 39 44.5t45 53t37 49.5h187v-10z
" />
    <glyph glyph-name="Ucircumflex" unicode="&#xdb;" horiz-adv-x="756" 
d="M677 267q0 -82 -33.5 -144t-100 -97.5t-168.5 -35.5q-144 0 -220 74t-76 202v448h171v-429q0 -82 32.5 -117t96.5 -35q67 0 97.5 36.5t30.5 116.5v428h170v-447zM470 931q14 -23 37 -50.5t46.5 -53t41.5 -43.5v-13h-111q-26 15 -53.5 35t-52.5 45q-27 -25 -52.5 -44
t-52.5 -36h-111v13q19 19 42.5 44.5t46 52.5t36.5 50h183z" />
    <glyph glyph-name="Udieresis" unicode="&#xdc;" horiz-adv-x="756" 
d="M677 267q0 -82 -33.5 -144t-100 -97.5t-168.5 -35.5q-144 0 -220 74t-76 202v448h171v-429q0 -82 32.5 -117t96.5 -35q67 0 97.5 36.5t30.5 116.5v428h170v-447zM196 853q0 37 21.5 54t52.5 17t53.5 -17t22.5 -54q0 -36 -22.5 -53t-53.5 -17t-52.5 17t-21.5 53zM410 853
q0 37 21.5 54t54.5 17q30 0 52.5 -17t22.5 -54q0 -36 -22.5 -53t-52.5 -17q-33 0 -54.5 17t-21.5 53z" />
    <glyph glyph-name="Yacute" unicode="&#xdd;" horiz-adv-x="642" 
d="M321 433l137 281h184l-236 -436v-278h-170v273l-236 441h185zM545 921q-16 -14 -41 -34t-53.5 -42t-55 -41.5t-46.5 -32.5h-112v13q16 19 39 44.5t45 53t37 49.5h187v-10z" />
    <glyph glyph-name="Thorn" unicode="&#xde;" horiz-adv-x="628" 
d="M589 379q0 -63 -25.5 -118t-84.5 -89t-159 -34h-66v-138h-170v714h170v-108h72q134 0 198.5 -60.5t64.5 -166.5zM297 277q55 0 87 23.5t32 78.5q0 44 -25.5 66t-80.5 22h-56v-190h43z" />
    <glyph glyph-name="germandbls" unicode="&#xdf;" horiz-adv-x="729" 
d="M630 594q0 -35 -13.5 -61.5t-34 -46.5t-40.5 -35t-34 -26.5t-14 -22.5q0 -19 24.5 -33.5t77.5 -47.5q49 -32 75 -67t26 -93q0 -84 -57 -127.5t-166 -43.5q-57 0 -95 7t-69 23v129q24 -15 64.5 -27.5t72.5 -12.5q34 0 55 13t21 38q0 15 -6.5 26t-26 25t-59.5 36
q-61 34 -85 62.5t-24 68.5q0 31 13.5 52.5t34 38t41 31t34 31.5t13.5 40q0 28 -28.5 46t-74.5 18q-54 0 -84 -25t-30 -75v-535h-169v547q0 72 37 120.5t101 73t145 24.5q79 0 141.5 -19.5t98 -57.5t35.5 -94z" />
    <glyph glyph-name="agrave" unicode="&#xe0;" horiz-adv-x="613" 
d="M318 560q107 0 166 -50t59 -146v-364h-117l-33 74h-4q-35 -45 -74 -64.5t-107 -19.5q-73 0 -121 43t-48 133q0 87 61.5 129.5t180.5 47.5l94 3v16q0 40 -20.5 58t-56.5 18t-75 -11.5t-79 -28.5l-51 112q45 24 102 37t123 13zM324 248q-63 -2 -88 -22.5t-25 -55.5
q0 -31 18 -45t46 -14q42 0 71 25.5t29 69.5v44zM318 766q16 -22 38 -49.5t44.5 -53t38.5 -44.5v-13h-112q-20 13 -46.5 32.5t-55 41.5t-53.5 42t-41 34v10h187z" />
    <glyph glyph-name="aacute" unicode="&#xe1;" horiz-adv-x="613" 
d="M318 560q107 0 166 -50t59 -146v-364h-117l-33 74h-4q-35 -45 -74 -64.5t-107 -19.5q-73 0 -121 43t-48 133q0 87 61.5 129.5t180.5 47.5l94 3v16q0 40 -20.5 58t-56.5 18t-75 -11.5t-79 -28.5l-51 112q45 24 102 37t123 13zM324 248q-63 -2 -88 -22.5t-25 -55.5
q0 -31 18 -45t46 -14q42 0 71 25.5t29 69.5v44zM531 756q-16 -14 -41 -34t-53.5 -42t-55 -41.5t-46.5 -32.5h-112v13q16 19 39 44.5t45 53t37 49.5h187v-10z" />
    <glyph glyph-name="acircumflex" unicode="&#xe2;" horiz-adv-x="613" 
d="M318 560q107 0 166 -50t59 -146v-364h-117l-33 74h-4q-35 -45 -74 -64.5t-107 -19.5q-73 0 -121 43t-48 133q0 87 61.5 129.5t180.5 47.5l94 3v16q0 40 -20.5 58t-56.5 18t-75 -11.5t-79 -28.5l-51 112q45 24 102 37t123 13zM324 248q-63 -2 -88 -22.5t-25 -55.5
q0 -31 18 -45t46 -14q42 0 71 25.5t29 69.5v44zM398 766q14 -23 37 -50.5t46.5 -53t41.5 -43.5v-13h-111q-26 15 -53.5 35t-52.5 45q-27 -25 -52.5 -44t-52.5 -36h-111v13q19 19 42.5 44.5t46 52.5t36.5 50h183z" />
    <glyph glyph-name="atilde" unicode="&#xe3;" horiz-adv-x="613" 
d="M318 560q107 0 166 -50t59 -146v-364h-117l-33 74h-4q-35 -45 -74 -64.5t-107 -19.5q-73 0 -121 43t-48 133q0 87 61.5 129.5t180.5 47.5l94 3v16q0 40 -20.5 58t-56.5 18t-75 -11.5t-79 -28.5l-51 112q45 24 102 37t123 13zM324 248q-63 -2 -88 -22.5t-25 -55.5
q0 -31 18 -45t46 -14q42 0 71 25.5t29 69.5v44zM103 605q6 84 41 121t87 37q26 0 53 -12.5t53.5 -24.5t50.5 -12q12 0 24.5 10.5t17.5 39.5h81q-6 -83 -42 -120.5t-85 -37.5q-28 0 -55.5 12t-53.5 24.5t-50 12.5q-12 0 -24 -10.5t-18 -39.5h-80z" />
    <glyph glyph-name="adieresis" unicode="&#xe4;" horiz-adv-x="613" 
d="M318 560q107 0 166 -50t59 -146v-364h-117l-33 74h-4q-35 -45 -74 -64.5t-107 -19.5q-73 0 -121 43t-48 133q0 87 61.5 129.5t180.5 47.5l94 3v16q0 40 -20.5 58t-56.5 18t-75 -11.5t-79 -28.5l-51 112q45 24 102 37t123 13zM324 248q-63 -2 -88 -22.5t-25 -55.5
q0 -31 18 -45t46 -14q42 0 71 25.5t29 69.5v44zM124 688q0 37 21.5 54t52.5 17t53.5 -17t22.5 -54q0 -36 -22.5 -53t-53.5 -17t-52.5 17t-21.5 53zM338 688q0 37 21.5 54t54.5 17q30 0 52.5 -17t22.5 -54q0 -36 -22.5 -53t-52.5 -17q-33 0 -54.5 17t-21.5 53z" />
    <glyph glyph-name="aring" unicode="&#xe5;" horiz-adv-x="613" 
d="M318 560q107 0 166 -50t59 -146v-364h-117l-33 74h-4q-35 -45 -74 -64.5t-107 -19.5q-73 0 -121 43t-48 133q0 87 61.5 129.5t180.5 47.5l94 3v16q0 40 -20.5 58t-56.5 18t-75 -11.5t-79 -28.5l-51 112q45 24 102 37t123 13zM324 248q-63 -2 -88 -22.5t-25 -55.5
q0 -31 18 -45t46 -14q42 0 71 25.5t29 69.5v44zM305 605q-56 0 -90.5 31.5t-34.5 87.5t34.5 87.5t90.5 31.5q53 0 90.5 -31.5t37.5 -86.5q0 -56 -37 -88t-91 -32zM305 680q19 0 31.5 12t12.5 32t-12.5 32t-31.5 12t-32 -12t-13 -32t11.5 -32t33.5 -12z" />
    <glyph glyph-name="ae" unicode="&#xe6;" horiz-adv-x="925" 
d="M647 559q69 0 122.5 -28.5t83.5 -84t30 -138.5v-77h-347q2 -53 35.5 -85.5t96.5 -32.5q44 0 89.5 9.5t92.5 32.5v-125q-41 -21 -86 -30.5t-112 -9.5q-65 0 -120 24t-91 73q-32 -35 -61.5 -56.5t-68.5 -31t-97 -9.5q-46 0 -86 19t-64.5 58.5t-24.5 99.5q0 90 63 130.5
t176 45.5l92 3v26q0 36 -21 51t-53 15q-37 0 -75.5 -10.5t-75.5 -27.5l-51 111q93 49 213 49q105 0 166 -56q33 28 74.5 41.5t99.5 13.5zM640 442q-43 0 -70 -24t-31 -78h189q0 43 -22.5 72.5t-65.5 29.5zM322 248q-63 -2 -86.5 -23.5t-23.5 -56.5q0 -31 17 -44t45 -13
q40 0 68 25.5t28 69.5v44z" />
    <glyph glyph-name="ccedilla" unicode="&#xe7;" horiz-adv-x="526" 
d="M308 -10q-124 0 -194 67.5t-70 214.5q0 100 35.5 163.5t98.5 93.5t144 30q54 0 97.5 -11t77.5 -28l-49 -127q-35 15 -65 23.5t-61 8.5q-51 0 -79 -38t-28 -114q0 -77 29 -112.5t79 -35.5q44 0 82.5 12.5t73.5 35.5v-138q-34 -22 -74 -33.5t-97 -11.5zM418 -122
q0 -55 -34.5 -86.5t-108.5 -31.5q-28 0 -50.5 4t-38.5 9v88q16 -5 34 -8t34 -3t26.5 7t10.5 22q0 18 -17 30t-59 19l34 72h95l-11 -30q30 -8 57.5 -29.5t27.5 -62.5z" />
    <glyph glyph-name="egrave" unicode="&#xe8;" horiz-adv-x="603" 
d="M309 559q116 0 184 -63.5t68 -186.5v-78h-347q2 -54 35 -86t94 -32q52 0 95.5 10t89.5 32v-125q-41 -21 -86.5 -30.5t-112.5 -9.5q-83 0 -147.5 30t-101 92.5t-36.5 158.5q0 97 33 161t92.5 95.5t139.5 31.5zM312 442q-39 0 -64.5 -24.5t-30.5 -77.5h189q-1 43 -24 72.5
t-70 29.5zM314 766q16 -22 38 -49.5t44.5 -53t38.5 -44.5v-13h-112q-20 13 -46.5 32.5t-55 41.5t-53.5 42t-41 34v10h187z" />
    <glyph glyph-name="eacute" unicode="&#xe9;" horiz-adv-x="603" 
d="M309 559q116 0 184 -63.5t68 -186.5v-78h-347q2 -54 35 -86t94 -32q52 0 95.5 10t89.5 32v-125q-41 -21 -86.5 -30.5t-112.5 -9.5q-83 0 -147.5 30t-101 92.5t-36.5 158.5q0 97 33 161t92.5 95.5t139.5 31.5zM312 442q-39 0 -64.5 -24.5t-30.5 -77.5h189q-1 43 -24 72.5
t-70 29.5zM526 756q-16 -14 -41 -34t-53.5 -42t-55 -41.5t-46.5 -32.5h-112v13q16 19 39 44.5t45 53t37 49.5h187v-10z" />
    <glyph glyph-name="ecircumflex" unicode="&#xea;" horiz-adv-x="603" 
d="M309 559q116 0 184 -63.5t68 -186.5v-78h-347q2 -54 35 -86t94 -32q52 0 95.5 10t89.5 32v-125q-41 -21 -86.5 -30.5t-112.5 -9.5q-83 0 -147.5 30t-101 92.5t-36.5 158.5q0 97 33 161t92.5 95.5t139.5 31.5zM312 442q-39 0 -64.5 -24.5t-30.5 -77.5h189q-1 43 -24 72.5
t-70 29.5zM394 766q14 -23 37 -50.5t46.5 -53t41.5 -43.5v-13h-111q-26 15 -53.5 35t-52.5 45q-27 -25 -52.5 -44t-52.5 -36h-111v13q19 19 42.5 44.5t46 52.5t36.5 50h183z" />
    <glyph glyph-name="edieresis" unicode="&#xeb;" horiz-adv-x="603" 
d="M309 559q116 0 184 -63.5t68 -186.5v-78h-347q2 -54 35 -86t94 -32q52 0 95.5 10t89.5 32v-125q-41 -21 -86.5 -30.5t-112.5 -9.5q-83 0 -147.5 30t-101 92.5t-36.5 158.5q0 97 33 161t92.5 95.5t139.5 31.5zM312 442q-39 0 -64.5 -24.5t-30.5 -77.5h189q-1 43 -24 72.5
t-70 29.5zM119 688q0 37 21.5 54t52.5 17t53.5 -17t22.5 -54q0 -36 -22.5 -53t-53.5 -17t-52.5 17t-21.5 53zM333 688q0 37 21.5 54t54.5 17q30 0 52.5 -17t22.5 -54q0 -36 -22.5 -53t-52.5 -17q-33 0 -54.5 17t-21.5 53z" />
    <glyph glyph-name="igrave" unicode="&#xec;" horiz-adv-x="314" 
d="M241 0h-168v549h168v-549zM169 766q16 -22 38 -49.5t44.5 -53t38.5 -44.5v-13h-112q-20 13 -46.5 32.5t-55 41.5t-53.5 42t-41 34v10h187z" />
    <glyph glyph-name="iacute" unicode="&#xed;" horiz-adv-x="314" 
d="M241 0h-168v549h168v-549zM382 756q-16 -14 -41 -34t-53.5 -42t-55 -41.5t-46.5 -32.5h-112v13q16 19 39 44.5t45 53t37 49.5h187v-10z" />
    <glyph glyph-name="icircumflex" unicode="&#xee;" horiz-adv-x="314" 
d="M241 0h-168v549h168v-549zM249 766q14 -23 37 -50.5t46.5 -53t41.5 -43.5v-13h-111q-26 15 -53.5 35t-52.5 45q-27 -25 -52.5 -44t-52.5 -36h-111v13q19 19 42.5 44.5t46 52.5t36.5 50h183z" />
    <glyph glyph-name="idieresis" unicode="&#xef;" horiz-adv-x="314" 
d="M241 0h-168v549h168v-549zM-25 688q0 37 21.5 54t52.5 17t53.5 -17t22.5 -54q0 -36 -22.5 -53t-53.5 -17t-52.5 17t-21.5 53zM189 688q0 37 21.5 54t54.5 17q30 0 52.5 -17t22.5 -54q0 -36 -22.5 -53t-52.5 -17q-33 0 -54.5 17t-21.5 53z" />
    <glyph glyph-name="eth" unicode="&#xf0;" horiz-adv-x="629" 
d="M229 766q36 -16 68 -32.5t59 -34.5l107 67l52 -81l-77 -49q71 -68 108 -152.5t37 -202.5q0 -91 -33 -156.5t-94 -100t-144 -34.5q-78 0 -138.5 29t-95 85t-34.5 137q0 80 30.5 136t83.5 84.5t121 28.5q96 0 127 -45l4 2q-16 34 -35.5 63t-47.5 57l-102 -64l-52 82l78 49
q-16 11 -35 22.5t-38 22.5zM314 368q-53 0 -75.5 -31.5t-22.5 -95.5q0 -58 22.5 -93.5t75.5 -35.5t75 37.5t22 113.5q0 40 -23.5 72.5t-73.5 32.5z" />
    <glyph glyph-name="ntilde" unicode="&#xf1;" horiz-adv-x="663" 
d="M399 559q87 0 140.5 -47.5t53.5 -153.5v-358h-168v311q0 57 -19 86t-60 29q-61 0 -83 -45.5t-22 -130.5v-250h-169v549h128l23 -71h8q26 40 70 60.5t98 20.5zM128 605q6 84 41 121t87 37q26 0 53 -12.5t53.5 -24.5t50.5 -12q12 0 24.5 10.5t17.5 39.5h81
q-6 -83 -42 -120.5t-85 -37.5q-28 0 -55.5 12t-53.5 24.5t-50 12.5q-12 0 -24 -10.5t-18 -39.5h-80z" />
    <glyph glyph-name="ograve" unicode="&#xf2;" horiz-adv-x="627" 
d="M583 276q0 -138 -72.5 -212t-198.5 -74q-78 0 -138.5 33.5t-95 97t-34.5 155.5q0 136 72.5 209.5t198.5 73.5q78 0 138.5 -33t95 -96t34.5 -154zM215 276q0 -77 23 -116.5t76 -39.5q52 0 75 39.5t23 116.5q0 76 -23 114.5t-76 38.5q-52 0 -75 -38.5t-23 -114.5zM326 766
q16 -22 38 -49.5t44.5 -53t38.5 -44.5v-13h-112q-20 13 -46.5 32.5t-55 41.5t-53.5 42t-41 34v10h187z" />
    <glyph glyph-name="oacute" unicode="&#xf3;" horiz-adv-x="627" 
d="M583 276q0 -138 -72.5 -212t-198.5 -74q-78 0 -138.5 33.5t-95 97t-34.5 155.5q0 136 72.5 209.5t198.5 73.5q78 0 138.5 -33t95 -96t34.5 -154zM215 276q0 -77 23 -116.5t76 -39.5q52 0 75 39.5t23 116.5q0 76 -23 114.5t-76 38.5q-52 0 -75 -38.5t-23 -114.5zM538 756
q-16 -14 -41 -34t-53.5 -42t-55 -41.5t-46.5 -32.5h-112v13q16 19 39 44.5t45 53t37 49.5h187v-10z" />
    <glyph glyph-name="ocircumflex" unicode="&#xf4;" horiz-adv-x="627" 
d="M583 276q0 -138 -72.5 -212t-198.5 -74q-78 0 -138.5 33.5t-95 97t-34.5 155.5q0 136 72.5 209.5t198.5 73.5q78 0 138.5 -33t95 -96t34.5 -154zM215 276q0 -77 23 -116.5t76 -39.5q52 0 75 39.5t23 116.5q0 76 -23 114.5t-76 38.5q-52 0 -75 -38.5t-23 -114.5zM406 766
q14 -23 37 -50.5t46.5 -53t41.5 -43.5v-13h-111q-26 15 -53.5 35t-52.5 45q-27 -25 -52.5 -44t-52.5 -36h-111v13q19 19 42.5 44.5t46 52.5t36.5 50h183z" />
    <glyph glyph-name="otilde" unicode="&#xf5;" horiz-adv-x="627" 
d="M583 276q0 -138 -72.5 -212t-198.5 -74q-78 0 -138.5 33.5t-95 97t-34.5 155.5q0 136 72.5 209.5t198.5 73.5q78 0 138.5 -33t95 -96t34.5 -154zM215 276q0 -77 23 -116.5t76 -39.5q52 0 75 39.5t23 116.5q0 76 -23 114.5t-76 38.5q-52 0 -75 -38.5t-23 -114.5zM111 605
q6 84 41 121t87 37q26 0 53 -12.5t53.5 -24.5t50.5 -12q12 0 24.5 10.5t17.5 39.5h81q-6 -83 -42 -120.5t-85 -37.5q-28 0 -55.5 12t-53.5 24.5t-50 12.5q-12 0 -24 -10.5t-18 -39.5h-80z" />
    <glyph glyph-name="odieresis" unicode="&#xf6;" horiz-adv-x="627" 
d="M583 276q0 -138 -72.5 -212t-198.5 -74q-78 0 -138.5 33.5t-95 97t-34.5 155.5q0 136 72.5 209.5t198.5 73.5q78 0 138.5 -33t95 -96t34.5 -154zM215 276q0 -77 23 -116.5t76 -39.5q52 0 75 39.5t23 116.5q0 76 -23 114.5t-76 38.5q-52 0 -75 -38.5t-23 -114.5zM131 688
q0 37 21.5 54t52.5 17t53.5 -17t22.5 -54q0 -36 -22.5 -53t-53.5 -17t-52.5 17t-21.5 53zM345 688q0 37 21.5 54t54.5 17q30 0 52.5 -17t22.5 -54q0 -36 -22.5 -53t-52.5 -17q-33 0 -54.5 17t-21.5 53z" />
    <glyph glyph-name="divide" unicode="&#xf7;" horiz-adv-x="578" 
d="M288 454q-29 0 -50 18.5t-21 59.5q0 44 21 61t50 17t50.5 -17t21.5 -61q0 -41 -21.5 -59.5t-50.5 -18.5zM44 293v119h490v-119h-490zM288 95q-29 0 -50 18.5t-21 59.5q0 43 21 60.5t50 17.5t50.5 -17.5t21.5 -60.5q0 -41 -21.5 -59.5t-50.5 -18.5z" />
    <glyph glyph-name="oslash" unicode="&#xf8;" horiz-adv-x="640" 
d="M596 276q0 -138 -74 -212t-203 -74q-60 0 -113 20l-37 -56l-79 51l36 54q-39 37 -60.5 91t-21.5 126q0 136 74 209.5t204 73.5q62 0 117 -22l31 46l78 -52l-31 -45q38 -36 58.5 -89t20.5 -121zM210 276q0 -23 1.5 -42t6.5 -35l148 226q-20 9 -46 9q-60 0 -85 -40
t-25 -118zM430 276q0 19 -1.5 35.5t-4.5 31.5l-145 -222q17 -5 42 -5q60 0 84.5 40.5t24.5 119.5z" />
    <glyph glyph-name="ugrave" unicode="&#xf9;" horiz-adv-x="663" 
d="M591 549v-549h-128l-22 70h-10q-26 -42 -71 -61t-96 -19q-85 0 -139.5 48t-54.5 153v358h169v-311q0 -56 18.5 -85t59.5 -29q61 0 83 45t22 130v250h169zM343 766q16 -22 38 -49.5t44.5 -53t38.5 -44.5v-13h-112q-20 13 -46.5 32.5t-55 41.5t-53.5 42t-41 34v10h187z" />
    <glyph glyph-name="uacute" unicode="&#xfa;" horiz-adv-x="663" 
d="M591 549v-549h-128l-22 70h-10q-26 -42 -71 -61t-96 -19q-85 0 -139.5 48t-54.5 153v358h169v-311q0 -56 18.5 -85t59.5 -29q61 0 83 45t22 130v250h169zM556 756q-16 -14 -41 -34t-53.5 -42t-55 -41.5t-46.5 -32.5h-112v13q16 19 39 44.5t45 53t37 49.5h187v-10z" />
    <glyph glyph-name="ucircumflex" unicode="&#xfb;" horiz-adv-x="663" 
d="M591 549v-549h-128l-22 70h-10q-26 -42 -71 -61t-96 -19q-85 0 -139.5 48t-54.5 153v358h169v-311q0 -56 18.5 -85t59.5 -29q61 0 83 45t22 130v250h169zM424 766q14 -23 37 -50.5t46.5 -53t41.5 -43.5v-13h-111q-26 15 -53.5 35t-52.5 45q-27 -25 -52.5 -44t-52.5 -36
h-111v13q19 19 42.5 44.5t46 52.5t36.5 50h183z" />
    <glyph glyph-name="udieresis" unicode="&#xfc;" horiz-adv-x="663" 
d="M591 549v-549h-128l-22 70h-10q-26 -42 -71 -61t-96 -19q-85 0 -139.5 48t-54.5 153v358h169v-311q0 -56 18.5 -85t59.5 -29q61 0 83 45t22 130v250h169zM149 688q0 37 21.5 54t52.5 17t53.5 -17t22.5 -54q0 -36 -22.5 -53t-53.5 -17t-52.5 17t-21.5 53zM363 688
q0 37 21.5 54t54.5 17q30 0 52.5 -17t22.5 -54q0 -36 -22.5 -53t-52.5 -17q-33 0 -54.5 17t-21.5 53z" />
    <glyph glyph-name="yacute" unicode="&#xfd;" horiz-adv-x="588" 
d="M0 549h180l99 -311q5 -17 8.5 -37.5t5.5 -41.5h3q3 23 7.5 42.5t9.5 35.5l99 312h176l-226 -603q-34 -92 -92.5 -139t-151.5 -47q-26 0 -44.5 2.5t-32.5 5.5v133q11 -2 26.5 -4t32.5 -2q47 0 72 28t39 66l6 17zM518 756q-16 -14 -41 -34t-53.5 -42t-55 -41.5t-46.5 -32.5
h-112v13q16 19 39 44.5t45 53t37 49.5h187v-10z" />
    <glyph glyph-name="thorn" unicode="&#xfe;" horiz-adv-x="638" 
d="M594 276q0 -141 -57.5 -213.5t-147.5 -72.5q-56 0 -91.5 19.5t-56.5 45.5h-7q3 -15 5 -37t2 -38v-220h-169v1000h169v-180q0 -32 -2.5 -59.5t-5.5 -42.5h8q20 34 57 57.5t94 23.5q89 0 145.5 -72t56.5 -211zM422 278q0 73 -21 110.5t-67 37.5q-51 0 -71.5 -33.5
t-21.5 -100.5v-15q0 -73 20.5 -112t74.5 -39q45 0 65.5 39t20.5 113z" />
    <glyph glyph-name="ydieresis" unicode="&#xff;" horiz-adv-x="588" 
d="M0 549h180l99 -311q5 -17 8.5 -37.5t5.5 -41.5h3q3 23 7.5 42.5t9.5 35.5l99 312h176l-226 -603q-34 -92 -92.5 -139t-151.5 -47q-26 0 -44.5 2.5t-32.5 5.5v133q11 -2 26.5 -4t32.5 -2q47 0 72 28t39 66l6 17zM111 688q0 37 21.5 54t52.5 17t53.5 -17t22.5 -54
q0 -36 -22.5 -53t-53.5 -17t-52.5 17t-21.5 53zM325 688q0 37 21.5 54t54.5 17q30 0 52.5 -17t22.5 -54q0 -36 -22.5 -53t-52.5 -17q-33 0 -54.5 17t-21.5 53z" />
    <glyph glyph-name="Amacron" unicode="&#x100;" horiz-adv-x="707" 
d="M521 0l-44 153h-247l-44 -153h-186l243 717h218l246 -717h-186zM397 438q-5 18 -13.5 48.5t-17 62.5t-13.5 54q-4 -22 -12.5 -54.5t-16.5 -63t-13 -47.5l-42 -143h170zM524 880v-109h-342v109h342z" />
    <glyph glyph-name="amacron" unicode="&#x101;" horiz-adv-x="613" 
d="M318 560q107 0 166 -50t59 -146v-364h-117l-33 74h-4q-35 -45 -74 -64.5t-107 -19.5q-73 0 -121 43t-48 133q0 87 61.5 129.5t180.5 47.5l94 3v16q0 40 -20.5 58t-56.5 18t-75 -11.5t-79 -28.5l-51 112q45 24 102 37t123 13zM324 248q-63 -2 -88 -22.5t-25 -55.5
q0 -31 18 -45t46 -14q42 0 71 25.5t29 69.5v44zM478 715v-109h-342v109h342z" />
    <glyph glyph-name="Abreve" unicode="&#x102;" horiz-adv-x="707" 
d="M521 0l-44 153h-247l-44 -153h-186l243 717h218l246 -717h-186zM397 438q-5 18 -13.5 48.5t-17 62.5t-13.5 54q-4 -22 -12.5 -54.5t-16.5 -63t-13 -47.5l-42 -143h170zM548 943q-5 -77 -57.5 -124.5t-138.5 -47.5q-91 0 -140 46.5t-53 125.5h92q7 -42 33 -52t68 -10
q34 0 64 11.5t37 50.5h95z" />
    <glyph glyph-name="abreve" unicode="&#x103;" horiz-adv-x="613" 
d="M318 560q107 0 166 -50t59 -146v-364h-117l-33 74h-4q-35 -45 -74 -64.5t-107 -19.5q-73 0 -121 43t-48 133q0 87 61.5 129.5t180.5 47.5l94 3v16q0 40 -20.5 58t-56.5 18t-75 -11.5t-79 -28.5l-51 112q45 24 102 37t123 13zM324 248q-63 -2 -88 -22.5t-25 -55.5
q0 -31 18 -45t46 -14q42 0 71 25.5t29 69.5v44zM501 778q-5 -77 -57.5 -124.5t-138.5 -47.5q-91 0 -140 46.5t-53 125.5h92q7 -42 33 -52t68 -10q34 0 64 11.5t37 50.5h95z" />
    <glyph glyph-name="Aogonek" unicode="&#x104;" horiz-adv-x="707" 
d="M521 0l-44 153h-247l-44 -153h-186l243 717h218l246 -717h-186zM397 438q-5 18 -13.5 48.5t-17 62.5t-13.5 54q-4 -22 -12.5 -54.5t-16.5 -63t-13 -47.5l-42 -143h170zM593 -105q0 -19 10.5 -27.5t27.5 -8.5q15 0 31 3t26 7v-97q-16 -5 -35.5 -8.5t-44.5 -3.5
q-57 0 -92.5 31t-35.5 81q0 79 112 149l69 -21q-33 -32 -50.5 -56t-17.5 -49z" />
    <glyph glyph-name="aogonek" unicode="&#x105;" horiz-adv-x="613" 
d="M318 560q107 0 166 -50t59 -146v-364h-117l-33 74h-4q-35 -45 -74 -64.5t-107 -19.5q-73 0 -121 43t-48 133q0 87 61.5 129.5t180.5 47.5l94 3v16q0 40 -20.5 58t-56.5 18t-75 -11.5t-79 -28.5l-51 112q45 24 102 37t123 13zM324 248q-63 -2 -88 -22.5t-25 -55.5
q0 -31 18 -45t46 -14q42 0 71 25.5t29 69.5v44zM455 -105q0 -19 10.5 -27.5t27.5 -8.5q15 0 31 3t26 7v-97q-16 -5 -35.5 -8.5t-44.5 -3.5q-57 0 -92.5 31t-35.5 81q0 79 112 149l69 -21q-33 -32 -50.5 -56t-17.5 -49z" />
    <glyph glyph-name="Cacute" unicode="&#x106;" horiz-adv-x="643" 
d="M394 583q-78 0 -121 -61t-43 -167q0 -109 41 -166.5t128 -57.5q45 0 89 11.5t93 29.5v-144q-48 -20 -95.5 -29t-103.5 -9q-114 0 -186 46t-106.5 128t-34.5 192q0 108 39 191t115 130t186 47q52 0 107.5 -12.5t106.5 -37.5l-53 -136q-40 18 -80 31.5t-82 13.5zM596 921
q-16 -14 -41 -34t-53.5 -42t-55 -41.5t-46.5 -32.5h-112v13q16 19 39 44.5t45 53t37 49.5h187v-10z" />
    <glyph glyph-name="cacute" unicode="&#x107;" horiz-adv-x="526" 
d="M308 -10q-124 0 -194 67.5t-70 214.5q0 100 35.5 163.5t98.5 93.5t144 30q54 0 97.5 -11t77.5 -28l-49 -127q-35 15 -65 23.5t-61 8.5q-51 0 -79 -38t-28 -114q0 -77 29 -112.5t79 -35.5q44 0 82.5 12.5t73.5 35.5v-138q-34 -22 -74 -33.5t-97 -11.5zM514 756
q-16 -14 -41 -34t-53.5 -42t-55 -41.5t-46.5 -32.5h-112v13q16 19 39 44.5t45 53t37 49.5h187v-10z" />
    <glyph glyph-name="Ccircumflex" unicode="&#x108;" horiz-adv-x="643" 
d="M394 583q-78 0 -121 -61t-43 -167q0 -109 41 -166.5t128 -57.5q45 0 89 11.5t93 29.5v-144q-48 -20 -95.5 -29t-103.5 -9q-114 0 -186 46t-106.5 128t-34.5 192q0 108 39 191t115 130t186 47q52 0 107.5 -12.5t106.5 -37.5l-53 -136q-40 18 -80 31.5t-82 13.5zM463 931
q14 -23 37 -50.5t46.5 -53t41.5 -43.5v-13h-111q-26 15 -53.5 35t-52.5 45q-27 -25 -52.5 -44t-52.5 -36h-111v13q19 19 42.5 44.5t46 52.5t36.5 50h183z" />
    <glyph glyph-name="ccircumflex" unicode="&#x109;" horiz-adv-x="526" 
d="M308 -10q-124 0 -194 67.5t-70 214.5q0 100 35.5 163.5t98.5 93.5t144 30q54 0 97.5 -11t77.5 -28l-49 -127q-35 15 -65 23.5t-61 8.5q-51 0 -79 -38t-28 -114q0 -77 29 -112.5t79 -35.5q44 0 82.5 12.5t73.5 35.5v-138q-34 -22 -74 -33.5t-97 -11.5zM382 766
q14 -23 37 -50.5t46.5 -53t41.5 -43.5v-13h-111q-26 15 -53.5 35t-52.5 45q-27 -25 -52.5 -44t-52.5 -36h-111v13q19 19 42.5 44.5t46 52.5t36.5 50h183z" />
    <glyph glyph-name="Cdotaccent" unicode="&#x10a;" horiz-adv-x="643" 
d="M394 583q-78 0 -121 -61t-43 -167q0 -109 41 -166.5t128 -57.5q45 0 89 11.5t93 29.5v-144q-48 -20 -95.5 -29t-103.5 -9q-114 0 -186 46t-106.5 128t-34.5 192q0 108 39 191t115 130t186 47q52 0 107.5 -12.5t106.5 -37.5l-53 -136q-40 18 -80 31.5t-82 13.5zM371 932
q37 0 64 -16t27 -62q0 -45 -27 -61.5t-64 -16.5t-63.5 16.5t-26.5 61.5q0 46 26.5 62t63.5 16z" />
    <glyph glyph-name="cdotaccent" unicode="&#x10b;" horiz-adv-x="526" 
d="M308 -10q-124 0 -194 67.5t-70 214.5q0 100 35.5 163.5t98.5 93.5t144 30q54 0 97.5 -11t77.5 -28l-49 -127q-35 15 -65 23.5t-61 8.5q-51 0 -79 -38t-28 -114q0 -77 29 -112.5t79 -35.5q44 0 82.5 12.5t73.5 35.5v-138q-34 -22 -74 -33.5t-97 -11.5zM290 767
q37 0 64 -16t27 -62q0 -45 -27 -61.5t-64 -16.5t-63.5 16.5t-26.5 61.5q0 46 26.5 62t63.5 16z" />
    <glyph glyph-name="Ccaron" unicode="&#x10c;" horiz-adv-x="643" 
d="M394 583q-78 0 -121 -61t-43 -167q0 -109 41 -166.5t128 -57.5q45 0 89 11.5t93 29.5v-144q-48 -20 -95.5 -29t-103.5 -9q-114 0 -186 46t-106.5 128t-34.5 192q0 108 39 191t115 130t186 47q52 0 107.5 -12.5t106.5 -37.5l-53 -136q-40 18 -80 31.5t-82 13.5zM280 771
q-14 23 -36.5 50t-46 52.5t-42.5 44.5v13h111q27 -16 52.5 -35.5t52.5 -44.5q25 25 52.5 45t53.5 35h111v-13q-18 -18 -41.5 -43.5t-46.5 -53t-37 -50.5h-183z" />
    <glyph glyph-name="ccaron" unicode="&#x10d;" horiz-adv-x="526" 
d="M308 -10q-124 0 -194 67.5t-70 214.5q0 100 35.5 163.5t98.5 93.5t144 30q54 0 97.5 -11t77.5 -28l-49 -127q-35 15 -65 23.5t-61 8.5q-51 0 -79 -38t-28 -114q0 -77 29 -112.5t79 -35.5q44 0 82.5 12.5t73.5 35.5v-138q-34 -22 -74 -33.5t-97 -11.5zM199 606
q-14 23 -36.5 50t-46 52.5t-42.5 44.5v13h111q27 -16 52.5 -35.5t52.5 -44.5q25 25 52.5 45t53.5 35h111v-13q-18 -18 -41.5 -43.5t-46.5 -53t-37 -50.5h-183z" />
    <glyph glyph-name="Dcaron" unicode="&#x10e;" horiz-adv-x="737" 
d="M682 368q0 -123 -46 -204.5t-132 -122.5t-205 -41h-215v714h235q170 0 266.5 -88.5t96.5 -257.5zM506 362q0 109 -46 161t-136 52h-70v-435h55q101 0 149 55.5t48 166.5zM277 771q-14 23 -36.5 50t-46 52.5t-42.5 44.5v13h111q27 -16 52.5 -35.5t52.5 -44.5
q25 25 52.5 45t53.5 35h111v-13q-18 -18 -41.5 -43.5t-46.5 -53t-37 -50.5h-183z" />
    <glyph glyph-name="dcaron" unicode="&#x10f;" horiz-adv-x="638" 
d="M783 750q-17 -35 -37 -71.5t-46 -78.5h-100v13q8 30 16.5 72.5t12.5 74.5h154v-10zM245 -10q-89 0 -145 72t-56 212q0 141 57 213t149 72q58 0 94 -23t58 -57h4q-3 18 -6.5 51.5t-3.5 66.5v163h169v-760h-128l-34 71h-7q-21 -34 -57 -57.5t-94 -23.5zM309 124
q54 0 76.5 33t23.5 100v15q0 73 -21.5 112t-80.5 39q-43 0 -68 -38t-25 -114q0 -75 25.5 -111t69.5 -36z" />
    <glyph glyph-name="Dcroat" unicode="&#x110;" horiz-adv-x="737" 
d="M319 714q170 0 266.5 -88.5t96.5 -257.5q0 -123 -46 -204.5t-132 -122.5t-205 -41h-215v284h-65v138h65v292h235zM323 575h-69v-153h110v-138h-110v-144h55q197 0 197 222q0 109 -47 161t-136 52z" />
    <glyph glyph-name="dcroat" unicode="&#x111;" horiz-adv-x="655" 
d="M241 -10q-87 0 -142 67.5t-55 196.5q0 134 58 200t150 66q57 0 93.5 -23t59.5 -57h4q-3 17 -8 52t-5 70v16h-135v106h135v76h169v-76h76v-106h-76v-578h-133l-36 71h-6q-22 -34 -57 -57.5t-92 -23.5zM314 124q52 0 73 29t22 87v13q0 64 -23 97.5t-75 33.5
q-40 0 -64.5 -32t-24.5 -100q0 -58 23.5 -93t68.5 -35z" />
    <glyph glyph-name="Emacron" unicode="&#x112;" horiz-adv-x="555" 
d="M501 0h-417v714h417v-138h-247v-137h229v-138h-229v-161h247v-140zM466 880v-109h-342v109h342z" />
    <glyph glyph-name="emacron" unicode="&#x113;" horiz-adv-x="603" 
d="M309 559q116 0 184 -63.5t68 -186.5v-78h-347q2 -54 35 -86t94 -32q52 0 95.5 10t89.5 32v-125q-41 -21 -86.5 -30.5t-112.5 -9.5q-83 0 -147.5 30t-101 92.5t-36.5 158.5q0 97 33 161t92.5 95.5t139.5 31.5zM312 442q-39 0 -64.5 -24.5t-30.5 -77.5h189q-1 43 -24 72.5
t-70 29.5zM473 715v-109h-342v109h342z" />
    <glyph glyph-name="Ebreve" unicode="&#x114;" horiz-adv-x="555" 
d="M501 0h-417v714h417v-138h-247v-137h229v-138h-229v-161h247v-140zM490 943q-5 -77 -57.5 -124.5t-138.5 -47.5q-91 0 -140 46.5t-53 125.5h92q7 -42 33 -52t68 -10q34 0 64 11.5t37 50.5h95z" />
    <glyph glyph-name="ebreve" unicode="&#x115;" horiz-adv-x="603" 
d="M309 559q116 0 184 -63.5t68 -186.5v-78h-347q2 -54 35 -86t94 -32q52 0 95.5 10t89.5 32v-125q-41 -21 -86.5 -30.5t-112.5 -9.5q-83 0 -147.5 30t-101 92.5t-36.5 158.5q0 97 33 161t92.5 95.5t139.5 31.5zM312 442q-39 0 -64.5 -24.5t-30.5 -77.5h189q-1 43 -24 72.5
t-70 29.5zM496 778q-5 -77 -57.5 -124.5t-138.5 -47.5q-91 0 -140 46.5t-53 125.5h92q7 -42 33 -52t68 -10q34 0 64 11.5t37 50.5h95z" />
    <glyph glyph-name="Edotaccent" unicode="&#x116;" horiz-adv-x="555" 
d="M501 0h-417v714h417v-138h-247v-137h229v-138h-229v-161h247v-140zM295 932q37 0 64 -16t27 -62q0 -45 -27 -61.5t-64 -16.5t-63.5 16.5t-26.5 61.5q0 46 26.5 62t63.5 16z" />
    <glyph glyph-name="edotaccent" unicode="&#x117;" horiz-adv-x="603" 
d="M309 559q116 0 184 -63.5t68 -186.5v-78h-347q2 -54 35 -86t94 -32q52 0 95.5 10t89.5 32v-125q-41 -21 -86.5 -30.5t-112.5 -9.5q-83 0 -147.5 30t-101 92.5t-36.5 158.5q0 97 33 161t92.5 95.5t139.5 31.5zM312 442q-39 0 -64.5 -24.5t-30.5 -77.5h189q-1 43 -24 72.5
t-70 29.5zM302 767q37 0 64 -16t27 -62q0 -45 -27 -61.5t-64 -16.5t-63.5 16.5t-26.5 61.5q0 46 26.5 62t63.5 16z" />
    <glyph glyph-name="Eogonek" unicode="&#x118;" horiz-adv-x="555" 
d="M501 0h-417v714h417v-138h-247v-137h229v-138h-229v-161h247v-140zM407 -105q0 -19 10.5 -27.5t27.5 -8.5q15 0 31 3t26 7v-97q-16 -5 -35.5 -8.5t-44.5 -3.5q-57 0 -92.5 31t-35.5 81q0 79 112 149l69 -21q-33 -32 -50.5 -56t-17.5 -49z" />
    <glyph glyph-name="eogonek" unicode="&#x119;" horiz-adv-x="603" 
d="M429 -102q0 -19 11 -29t29 -10q15 0 30 3t25 7v-97q-16 -5 -35.5 -8.5t-44.5 -3.5q-57 0 -92.5 31t-35.5 81q0 63 71 120q-26 -2 -58 -2q-83 0 -147.5 30t-101 92.5t-36.5 158.5q0 97 33 161t92.5 95.5t139.5 31.5q116 0 184 -63.5t68 -186.5v-78h-347q2 -54 35 -86
t94 -32q52 0 95.5 10t89.5 32v-125q-41 -35 -62 -58.5t-29 -40.5t-8 -33zM312 442q-39 0 -64.5 -24.5t-30.5 -77.5h189q-1 43 -24 72.5t-70 29.5z" />
    <glyph glyph-name="Ecaron" unicode="&#x11a;" horiz-adv-x="555" 
d="M501 0h-417v714h417v-138h-247v-137h229v-138h-229v-161h247v-140zM204 771q-14 23 -36.5 50t-46 52.5t-42.5 44.5v13h111q27 -16 52.5 -35.5t52.5 -44.5q25 25 52.5 45t53.5 35h111v-13q-18 -18 -41.5 -43.5t-46.5 -53t-37 -50.5h-183z" />
    <glyph glyph-name="ecaron" unicode="&#x11b;" horiz-adv-x="603" 
d="M309 559q116 0 184 -63.5t68 -186.5v-78h-347q2 -54 35 -86t94 -32q52 0 95.5 10t89.5 32v-125q-41 -21 -86.5 -30.5t-112.5 -9.5q-83 0 -147.5 30t-101 92.5t-36.5 158.5q0 97 33 161t92.5 95.5t139.5 31.5zM312 442q-39 0 -64.5 -24.5t-30.5 -77.5h189q-1 43 -24 72.5
t-70 29.5zM211 606q-14 23 -36.5 50t-46 52.5t-42.5 44.5v13h111q27 -16 52.5 -35.5t52.5 -44.5q25 25 52.5 45t53.5 35h111v-13q-18 -18 -41.5 -43.5t-46.5 -53t-37 -50.5h-183z" />
    <glyph glyph-name="Gcircumflex" unicode="&#x11c;" horiz-adv-x="731" 
d="M362 409h295v-377q-56 -19 -121.5 -30.5t-142.5 -11.5q-158 0 -248 92.5t-90 275.5q0 112 43 194.5t126.5 127t204.5 44.5q61 0 118.5 -12.5t101.5 -31.5l-55 -135q-35 17 -77 27.5t-88 10.5q-65 0 -109.5 -29.5t-66.5 -81t-22 -117.5q0 -103 42.5 -163.5t132.5 -60.5
q25 0 48 3t40 6v132h-132v137zM492 931q14 -23 37 -50.5t46.5 -53t41.5 -43.5v-13h-111q-26 15 -53.5 35t-52.5 45q-27 -25 -52.5 -44t-52.5 -36h-111v13q19 19 42.5 44.5t46 52.5t36.5 50h183z" />
    <glyph glyph-name="gcircumflex" unicode="&#x11d;" horiz-adv-x="638" 
d="M249 559q54 0 92 -21t63 -58h4l13 69h144v-550q0 -117 -70.5 -178t-212.5 -61q-62 0 -112 7t-98 25v137q51 -21 100 -31.5t110 -10.5q115 0 115 105v11q0 14 1.5 32.5t3.5 35.5h-5q-24 -39 -61.5 -60t-89.5 -21q-93 0 -147.5 74t-54.5 210q0 137 55.5 211t149.5 74z
M308 426q-93 0 -93 -155q0 -77 23.5 -113.5t71.5 -36.5q53 0 76 31t23 102v21q0 77 -22.5 114t-78.5 37zM406 766q14 -23 37 -50.5t46.5 -53t41.5 -43.5v-13h-111q-26 15 -53.5 35t-52.5 45q-27 -25 -52.5 -44t-52.5 -36h-111v13q19 19 42.5 44.5t46 52.5t36.5 50h183z" />
    <glyph glyph-name="Gbreve" unicode="&#x11e;" horiz-adv-x="731" 
d="M362 409h295v-377q-56 -19 -121.5 -30.5t-142.5 -11.5q-158 0 -248 92.5t-90 275.5q0 112 43 194.5t126.5 127t204.5 44.5q61 0 118.5 -12.5t101.5 -31.5l-55 -135q-35 17 -77 27.5t-88 10.5q-65 0 -109.5 -29.5t-66.5 -81t-22 -117.5q0 -103 42.5 -163.5t132.5 -60.5
q25 0 48 3t40 6v132h-132v137zM595 943q-5 -77 -57.5 -124.5t-138.5 -47.5q-91 0 -140 46.5t-53 125.5h92q7 -42 33 -52t68 -10q34 0 64 11.5t37 50.5h95z" />
    <glyph glyph-name="gbreve" unicode="&#x11f;" horiz-adv-x="638" 
d="M249 559q54 0 92 -21t63 -58h4l13 69h144v-550q0 -117 -70.5 -178t-212.5 -61q-62 0 -112 7t-98 25v137q51 -21 100 -31.5t110 -10.5q115 0 115 105v11q0 14 1.5 32.5t3.5 35.5h-5q-24 -39 -61.5 -60t-89.5 -21q-93 0 -147.5 74t-54.5 210q0 137 55.5 211t149.5 74z
M308 426q-93 0 -93 -155q0 -77 23.5 -113.5t71.5 -36.5q53 0 76 31t23 102v21q0 77 -22.5 114t-78.5 37zM508 778q-5 -77 -57.5 -124.5t-138.5 -47.5q-91 0 -140 46.5t-53 125.5h92q7 -42 33 -52t68 -10q34 0 64 11.5t37 50.5h95z" />
    <glyph glyph-name="Gdotaccent" unicode="&#x120;" horiz-adv-x="731" 
d="M362 409h295v-377q-56 -19 -121.5 -30.5t-142.5 -11.5q-158 0 -248 92.5t-90 275.5q0 112 43 194.5t126.5 127t204.5 44.5q61 0 118.5 -12.5t101.5 -31.5l-55 -135q-35 17 -77 27.5t-88 10.5q-65 0 -109.5 -29.5t-66.5 -81t-22 -117.5q0 -103 42.5 -163.5t132.5 -60.5
q25 0 48 3t40 6v132h-132v137zM400 932q37 0 64 -16t27 -62q0 -45 -27 -61.5t-64 -16.5t-63.5 16.5t-26.5 61.5q0 46 26.5 62t63.5 16z" />
    <glyph glyph-name="gdotaccent" unicode="&#x121;" horiz-adv-x="638" 
d="M249 559q54 0 92 -21t63 -58h4l13 69h144v-550q0 -117 -70.5 -178t-212.5 -61q-62 0 -112 7t-98 25v137q51 -21 100 -31.5t110 -10.5q115 0 115 105v11q0 14 1.5 32.5t3.5 35.5h-5q-24 -39 -61.5 -60t-89.5 -21q-93 0 -147.5 74t-54.5 210q0 137 55.5 211t149.5 74z
M308 426q-93 0 -93 -155q0 -77 23.5 -113.5t71.5 -36.5q53 0 76 31t23 102v21q0 77 -22.5 114t-78.5 37zM314 767q37 0 64 -16t27 -62q0 -45 -27 -61.5t-64 -16.5t-63.5 16.5t-26.5 61.5q0 46 26.5 62t63.5 16z" />
    <glyph glyph-name="uni0122" unicode="&#x122;" horiz-adv-x="731" 
d="M362 409h295v-377q-56 -19 -121.5 -30.5t-142.5 -11.5q-158 0 -248 92.5t-90 275.5q0 112 43 194.5t126.5 127t204.5 44.5q61 0 118.5 -12.5t101.5 -31.5l-55 -135q-35 17 -77 27.5t-88 10.5q-65 0 -109.5 -29.5t-66.5 -81t-22 -117.5q0 -103 42.5 -163.5t132.5 -60.5
q25 0 48 3t40 6v132h-132v137zM476 -71q-16 -37 -35 -73.5t-46 -76.5h-100v13q9 31 17 73.5t10 73.5h154v-10z" />
    <glyph glyph-name="uni0123" unicode="&#x123;" horiz-adv-x="638" 
d="M402 753q-7 -31 -15 -73t-11 -74h-155v10q18 35 37.5 71.5t44.5 78.5h99v-13zM249 559q54 0 92 -21t63 -58h4l13 69h144v-550q0 -117 -70.5 -178t-212.5 -61q-62 0 -112 7t-98 25v137q51 -21 100 -31.5t110 -10.5q115 0 115 105v11q0 14 1.5 32.5t3.5 35.5h-5
q-24 -39 -61.5 -60t-89.5 -21q-93 0 -147.5 74t-54.5 210q0 137 55.5 211t149.5 74zM308 426q-93 0 -93 -155q0 -77 23.5 -113.5t71.5 -36.5q53 0 76 31t23 102v21q0 77 -22.5 114t-78.5 37z" />
    <glyph glyph-name="Hcircumflex" unicode="&#x124;" horiz-adv-x="765" 
d="M681 0h-170v300h-256v-300h-171v714h171v-273h256v273h170v-714zM475 931q14 -23 37 -50.5t46.5 -53t41.5 -43.5v-13h-111q-26 15 -53.5 35t-52.5 45q-27 -25 -52.5 -44t-52.5 -36h-111v13q19 19 42.5 44.5t46 52.5t36.5 50h183z" />
    <glyph glyph-name="hcircumflex" unicode="&#x125;" horiz-adv-x="663" 
d="M241 627q0 -50 -3 -89.5t-5 -57.5h9q26 43 65.5 61t89.5 18q57 0 101.5 -21t69.5 -65t25 -115v-358h-169v311q0 115 -78 115q-60 0 -82.5 -45.5t-22.5 -129.5v-251h-169v760h169v-133zM251 977q14 -23 37 -50.5t46.5 -53t41.5 -43.5v-13h-111q-26 15 -53.5 35t-52.5 45
q-27 -25 -52.5 -44t-52.5 -36h-111v13q19 19 42.5 44.5t46 52.5t36.5 50h183z" />
    <glyph glyph-name="Hbar" unicode="&#x126;" horiz-adv-x="773" 
d="M88 0v522h-88v104h88v88h170v-88h256v88h171v-88h88v-104h-88v-522h-171v300h-256v-300h-170zM258 441h256v81h-256v-81z" />
    <glyph glyph-name="hbar" unicode="&#x127;" horiz-adv-x="668" 
d="M245 760v-76h136v-106h-136v-15q0 -32 -2.5 -67.5t-4.5 -54.5h10q27 42 65.5 60.5t89.5 18.5q85 0 140 -47.5t55 -152.5v-320h-169v272q0 115 -78 115q-60 0 -83 -45.5t-23 -130.5v-211h-168v578h-76v106h76v76h168z" />
    <glyph glyph-name="Itilde" unicode="&#x128;" horiz-adv-x="413" 
d="M380 0h-347v97l88 37v446l-88 37v97h347v-97l-88 -37v-446l88 -37v-97zM3 770q6 84 41 121t87 37q26 0 53 -12.5t53.5 -24.5t50.5 -12q12 0 24.5 10.5t17.5 39.5h81q-6 -83 -42 -120.5t-85 -37.5q-28 0 -55.5 12t-53.5 24.5t-50 12.5q-12 0 -24 -10.5t-18 -39.5h-80z" />
    <glyph glyph-name="itilde" unicode="&#x129;" horiz-adv-x="314" 
d="M241 0h-168v549h168v-549zM-46 605q6 84 41 121t87 37q26 0 53 -12.5t53.5 -24.5t50.5 -12q12 0 24.5 10.5t17.5 39.5h81q-6 -83 -42 -120.5t-85 -37.5q-28 0 -55.5 12t-53.5 24.5t-50 12.5q-12 0 -24 -10.5t-18 -39.5h-80z" />
    <glyph glyph-name="Imacron" unicode="&#x12a;" horiz-adv-x="413" 
d="M380 0h-347v97l88 37v446l-88 37v97h347v-97l-88 -37v-446l88 -37v-97zM377 880v-109h-342v109h342z" />
    <glyph glyph-name="imacron" unicode="&#x12b;" horiz-adv-x="314" 
d="M241 0h-168v549h168v-549zM329 715v-109h-342v109h342z" />
    <glyph glyph-name="Ibreve" unicode="&#x12c;" horiz-adv-x="413" 
d="M380 0h-347v97l88 37v446l-88 37v97h347v-97l-88 -37v-446l88 -37v-97zM401 943q-5 -77 -57.5 -124.5t-138.5 -47.5q-91 0 -140 46.5t-53 125.5h92q7 -42 33 -52t68 -10q34 0 64 11.5t37 50.5h95z" />
    <glyph glyph-name="ibreve" unicode="&#x12d;" horiz-adv-x="314" 
d="M241 0h-168v549h168v-549zM352 778q-5 -77 -57.5 -124.5t-138.5 -47.5q-91 0 -140 46.5t-53 125.5h92q7 -42 33 -52t68 -10q34 0 64 11.5t37 50.5h95z" />
    <glyph glyph-name="Iogonek" unicode="&#x12e;" horiz-adv-x="413" 
d="M380 0h-347v97l88 37v446l-88 37v97h347v-97l-88 -37v-446l88 -37v-97zM286 -105q0 -19 10.5 -27.5t27.5 -8.5q15 0 31 3t26 7v-97q-16 -5 -35.5 -8.5t-44.5 -3.5q-57 0 -92.5 31t-35.5 81q0 79 112 149l69 -21q-33 -32 -50.5 -56t-17.5 -49z" />
    <glyph glyph-name="iogonek" unicode="&#x12f;" horiz-adv-x="314" 
d="M158 767q36 0 63 -16t27 -62q0 -45 -27 -61.5t-63 -16.5q-38 0 -64.5 16.5t-26.5 61.5q0 46 26.5 62t64.5 16zM241 549v-549h-168v549h168zM160 -105q0 -19 10.5 -27.5t27.5 -8.5q15 0 31 3t26 7v-97q-16 -5 -35.5 -8.5t-44.5 -3.5q-57 0 -92.5 31t-35.5 81q0 79 112 149
l69 -21q-33 -32 -50.5 -56t-17.5 -49z" />
    <glyph glyph-name="Idotaccent" unicode="&#x130;" horiz-adv-x="413" 
d="M380 0h-347v97l88 37v446l-88 37v97h347v-97l-88 -37v-446l88 -37v-97zM206 932q37 0 64 -16t27 -62q0 -45 -27 -61.5t-64 -16.5t-63.5 16.5t-26.5 61.5q0 46 26.5 62t63.5 16z" />
    <glyph glyph-name="dotlessi" unicode="&#x131;" horiz-adv-x="314" 
d="M241 0h-168v549h168v-549z" />
    <glyph glyph-name="IJ" unicode="&#x132;" horiz-adv-x="753" 
d="M380 0h-347v97l88 37v446l-88 37v97h347v-97l-88 -37v-446l88 -37v-97zM431 -216q-31 0 -54.5 3t-39.5 7v137l32.5 -6.5t38.5 -3.5q45 0 68 28t23 100v665h171v-657q0 -99 -30.5 -159t-84.5 -87t-124 -27z" />
    <glyph glyph-name="ij" unicode="&#x133;" horiz-adv-x="628" 
d="M158 767q36 0 63 -16t27 -62q0 -45 -27 -61.5t-63 -16.5q-38 0 -64.5 16.5t-26.5 61.5q0 46 26.5 62t64.5 16zM241 549v-549h-168v549h168zM381 689q0 46 26.5 62t63.5 16t64 -16t27 -62q0 -45 -27 -61.5t-64 -16.5t-63.5 16.5t-26.5 61.5zM356 -240q-24 0 -52.5 3.5
t-47.5 8.5v132q17 -5 31.5 -7t33.5 -2q27 0 46 16.5t19 66.5v571h169v-602q0 -50 -19.5 -92.5t-63 -68.5t-116.5 -26z" />
    <glyph glyph-name="Jcircumflex" unicode="&#x134;" horiz-adv-x="341" 
d="M18 -216q-31 0 -54.5 3t-39.5 7v137l32.5 -6.5t38.5 -3.5q45 0 68 28t23 100v665h171v-657q0 -99 -30.5 -159t-84.5 -87t-124 -27zM262 931q14 -23 37 -50.5t46.5 -53t41.5 -43.5v-13h-111q-26 15 -53.5 35t-52.5 45q-27 -25 -52.5 -44t-52.5 -36h-111v13
q19 19 42.5 44.5t46 52.5t36.5 50h183z" />
    <glyph glyph-name="jcircumflex" unicode="&#x135;" horiz-adv-x="314" 
d="M42 -240q-24 0 -52.5 3.5t-47.5 8.5v132q17 -5 31.5 -7t33.5 -2q27 0 46 16.5t19 66.5v571h169v-602q0 -50 -19.5 -92.5t-63 -68.5t-116.5 -26zM249 766q14 -23 37 -50.5t46.5 -53t41.5 -43.5v-13h-111q-26 15 -53.5 35t-52.5 45q-27 -25 -52.5 -44t-52.5 -36h-111v13
q19 19 42.5 44.5t46 52.5t36.5 50h183z" />
    <glyph glyph-name="uni0136" unicode="&#x136;" horiz-adv-x="675" 
d="M675 0h-194l-165 288l-61 -40v-248h-171v714h171v-319q13 22 28.5 44t30.5 43l174 232h187l-238 -318zM444 -71q-16 -37 -35 -73.5t-46 -76.5h-100v13q9 31 17 73.5t10 73.5h154v-10z" />
    <glyph glyph-name="uni0137" unicode="&#x137;" horiz-adv-x="638" 
d="M241 439q0 -32 -2.5 -67.5t-6.5 -68.5h3q13 20 29.5 43t32.5 42l140 161h188l-205 -236l218 -313h-193l-141 210l-63 -49v-161h-169v760h169v-321zM409 -71q-16 -37 -35 -73.5t-46 -76.5h-100v13q9 31 17 73.5t10 73.5h154v-10z" />
    <glyph glyph-name="kgreenlandic" unicode="&#x138;" horiz-adv-x="638" 
d="M627 549l-207 -246l218 -303h-191l-139 202l-67 -46v-156h-169v549h169v-132q0 -35 -1 -65t-3 -54h3q14 17 30 38.5t35 45.5l137 167h185z" />
    <glyph glyph-name="Lacute" unicode="&#x139;" horiz-adv-x="573" 
d="M84 0v714h170v-575h283v-139h-453zM391 921q-16 -14 -41 -34t-53.5 -42t-55 -41.5t-46.5 -32.5h-112v13q16 19 39 44.5t45 53t37 49.5h187v-10z" />
    <glyph glyph-name="lacute" unicode="&#x13a;" horiz-adv-x="313" 
d="M241 0h-169v760h169v-760zM381 967q-16 -14 -41 -34t-53.5 -42t-55 -41.5t-46.5 -32.5h-112v13q16 19 39 44.5t45 53t37 49.5h187v-10z" />
    <glyph glyph-name="uni013B" unicode="&#x13b;" horiz-adv-x="573" 
d="M84 0v714h170v-575h283v-139h-453zM399 -71q-16 -37 -35 -73.5t-46 -76.5h-100v13q9 31 17 73.5t10 73.5h154v-10z" />
    <glyph glyph-name="uni013C" unicode="&#x13c;" horiz-adv-x="313" 
d="M241 0h-169v760h169v-760zM247 -71q-16 -37 -35 -73.5t-46 -76.5h-100v13q9 31 17 73.5t10 73.5h154v-10z" />
    <glyph glyph-name="Lcaron" unicode="&#x13d;" horiz-adv-x="573" 
d="M566 704q-17 -35 -37 -71.5t-46 -78.5h-100v13q8 30 16.5 72.5t12.5 74.5h154v-10zM84 0v714h170v-575h283v-139h-453z" />
    <glyph glyph-name="lcaron" unicode="&#x13e;" horiz-adv-x="313" 
d="M453 750q-18 -35 -37.5 -71.5t-46.5 -78.5h-99v13q8 30 16.5 72.5t12.5 74.5h154v-10zM241 0h-169v760h169v-760z" />
    <glyph glyph-name="Ldot" unicode="&#x13f;" horiz-adv-x="573" 
d="M84 0v714h170v-575h283v-139h-453zM442 472q37 0 64 -16t27 -62q0 -45 -27 -61.5t-64 -16.5t-63.5 16.5t-26.5 61.5q0 46 26.5 62t63.5 16z" />
    <glyph glyph-name="ldot" unicode="&#x140;" horiz-adv-x="395" 
d="M241 0h-169v760h169v-760zM353 457q37 0 64 -16t27 -62q0 -45 -27 -61.5t-64 -16.5t-63.5 16.5t-26.5 61.5q0 46 26.5 62t63.5 16z" />
    <glyph glyph-name="Lslash" unicode="&#x141;" horiz-adv-x="585" 
d="M96 0v238l-41 -24l-61 108l102 61v331h171v-226l85 53l64 -107l-149 -92v-203h283v-139h-454z" />
    <glyph glyph-name="lslash" unicode="&#x142;" horiz-adv-x="357" 
d="M95 0v216l-47 -26l-61 107l108 64v399h168v-297l44 27l64 -107l-108 -65v-318h-168z" />
    <glyph glyph-name="Nacute" unicode="&#x143;" horiz-adv-x="823" 
d="M739 0h-220l-288 523h-4q2 -43 4.5 -95.5t4.5 -97.5v-330h-152v714h219l287 -517h3q-2 43 -4 92.5t-3 93.5v331h153v-714zM636 921q-16 -14 -41 -34t-53.5 -42t-55 -41.5t-46.5 -32.5h-112v13q16 19 39 44.5t45 53t37 49.5h187v-10z" />
    <glyph glyph-name="nacute" unicode="&#x144;" horiz-adv-x="663" 
d="M399 559q87 0 140.5 -47.5t53.5 -153.5v-358h-168v311q0 57 -19 86t-60 29q-61 0 -83 -45.5t-22 -130.5v-250h-169v549h128l23 -71h8q26 40 70 60.5t98 20.5zM556 756q-16 -14 -41 -34t-53.5 -42t-55 -41.5t-46.5 -32.5h-112v13q16 19 39 44.5t45 53t37 49.5h187v-10z
" />
    <glyph glyph-name="uni0145" unicode="&#x145;" horiz-adv-x="823" 
d="M739 0h-220l-288 523h-4q2 -43 4.5 -95.5t4.5 -97.5v-330h-152v714h219l287 -517h3q-2 43 -4 92.5t-3 93.5v331h153v-714zM502 -71q-16 -37 -35 -73.5t-46 -76.5h-100v13q9 31 17 73.5t10 73.5h154v-10z" />
    <glyph glyph-name="uni0146" unicode="&#x146;" horiz-adv-x="663" 
d="M399 559q87 0 140.5 -47.5t53.5 -153.5v-358h-168v311q0 57 -19 86t-60 29q-61 0 -83 -45.5t-22 -130.5v-250h-169v549h128l23 -71h8q26 40 70 60.5t98 20.5zM422 -71q-16 -37 -35 -73.5t-46 -76.5h-100v13q9 31 17 73.5t10 73.5h154v-10z" />
    <glyph glyph-name="Ncaron" unicode="&#x147;" horiz-adv-x="823" 
d="M739 0h-220l-288 523h-4q2 -43 4.5 -95.5t4.5 -97.5v-330h-152v714h219l287 -517h3q-2 43 -4 92.5t-3 93.5v331h153v-714zM320 771q-14 23 -36.5 50t-46 52.5t-42.5 44.5v13h111q27 -16 52.5 -35.5t52.5 -44.5q25 25 52.5 45t53.5 35h111v-13q-18 -18 -41.5 -43.5
t-46.5 -53t-37 -50.5h-183z" />
    <glyph glyph-name="ncaron" unicode="&#x148;" horiz-adv-x="663" 
d="M399 559q87 0 140.5 -47.5t53.5 -153.5v-358h-168v311q0 57 -19 86t-60 29q-61 0 -83 -45.5t-22 -130.5v-250h-169v549h128l23 -71h8q26 40 70 60.5t98 20.5zM241 606q-14 23 -36.5 50t-46 52.5t-42.5 44.5v13h111q27 -16 52.5 -35.5t52.5 -44.5q25 25 52.5 45t53.5 35
h111v-13q-18 -18 -41.5 -43.5t-46.5 -53t-37 -50.5h-183z" />
    <glyph glyph-name="napostrophe" unicode="&#x149;" horiz-adv-x="798" 
d="M534 559q87 0 140.5 -47.5t53.5 -153.5v-358h-168v311q0 57 -19 86t-60 29q-61 0 -83 -45.5t-22 -130.5v-250h-169v549h128l23 -71h8q26 40 70 60.5t98 20.5zM207 703q-9 -36 -23 -81t-30 -90t-33 -82h-120q14 63 27.5 135.5t20.5 128.5h151z" />
    <glyph glyph-name="Eng" unicode="&#x14a;" horiz-adv-x="823" 
d="M499 -223q-34 0 -59.5 3t-42.5 7v133q18 -3 38 -6.5t44 -3.5q57 0 84 22t30 69l-362 522h-4q2 -24 4 -60t3.5 -74.5t1.5 -69.5v-319h-152v714h210l296 -419h4q-2 24 -3.5 60t-3 74t-1.5 67v218h153v-716q0 -74 -30.5 -123.5t-84.5 -73.5t-125 -24z" />
    <glyph glyph-name="eng" unicode="&#x14b;" horiz-adv-x="663" 
d="M405 -240q-23 0 -50.5 3.5t-45.5 8.5v132q16 -5 28.5 -7t29.5 -2q23 0 40 16.5t17 66.5v347q0 101 -78 101q-61 0 -83 -45.5t-22 -130.5v-250h-169v549h128l22 -69h11q26 42 71.5 60.5t95.5 18.5q84 0 138.5 -47.5t54.5 -153.5v-411q0 -50 -18.5 -92.5t-59.5 -68.5
t-110 -26z" />
    <glyph glyph-name="Omacron" unicode="&#x14c;" horiz-adv-x="796" 
d="M741 358q0 -111 -36 -193.5t-112 -128.5t-195 -46q-118 0 -194 46t-112.5 129t-36.5 194t36.5 193t112.5 127.5t195 45.5t194.5 -45.5t111.5 -128t36 -193.5zM234 358q0 -105 38.5 -165t125.5 -60q89 0 126.5 60t37.5 165t-37.5 165.5t-125.5 60.5t-126.5 -60.5
t-38.5 -165.5zM569 880v-109h-342v109h342z" />
    <glyph glyph-name="omacron" unicode="&#x14d;" horiz-adv-x="627" 
d="M583 276q0 -138 -72.5 -212t-198.5 -74q-78 0 -138.5 33.5t-95 97t-34.5 155.5q0 136 72.5 209.5t198.5 73.5q78 0 138.5 -33t95 -96t34.5 -154zM215 276q0 -77 23 -116.5t76 -39.5q52 0 75 39.5t23 116.5q0 76 -23 114.5t-76 38.5q-52 0 -75 -38.5t-23 -114.5zM485 715
v-109h-342v109h342z" />
    <glyph glyph-name="Obreve" unicode="&#x14e;" horiz-adv-x="796" 
d="M741 358q0 -111 -36 -193.5t-112 -128.5t-195 -46q-118 0 -194 46t-112.5 129t-36.5 194t36.5 193t112.5 127.5t195 45.5t194.5 -45.5t111.5 -128t36 -193.5zM234 358q0 -105 38.5 -165t125.5 -60q89 0 126.5 60t37.5 165t-37.5 165.5t-125.5 60.5t-126.5 -60.5
t-38.5 -165.5zM593 943q-5 -77 -57.5 -124.5t-138.5 -47.5q-91 0 -140 46.5t-53 125.5h92q7 -42 33 -52t68 -10q34 0 64 11.5t37 50.5h95z" />
    <glyph glyph-name="obreve" unicode="&#x14f;" horiz-adv-x="627" 
d="M583 276q0 -138 -72.5 -212t-198.5 -74q-78 0 -138.5 33.5t-95 97t-34.5 155.5q0 136 72.5 209.5t198.5 73.5q78 0 138.5 -33t95 -96t34.5 -154zM215 276q0 -77 23 -116.5t76 -39.5q52 0 75 39.5t23 116.5q0 76 -23 114.5t-76 38.5q-52 0 -75 -38.5t-23 -114.5zM508 778
q-5 -77 -57.5 -124.5t-138.5 -47.5q-91 0 -140 46.5t-53 125.5h92q7 -42 33 -52t68 -10q34 0 64 11.5t37 50.5h95z" />
    <glyph glyph-name="Ohungarumlaut" unicode="&#x150;" horiz-adv-x="796" 
d="M741 358q0 -111 -36 -193.5t-112 -128.5t-195 -46q-118 0 -194 46t-112.5 129t-36.5 194t36.5 193t112.5 127.5t195 45.5t194.5 -45.5t111.5 -128t36 -193.5zM234 358q0 -105 38.5 -165t125.5 -60q89 0 126.5 60t37.5 165t-37.5 165.5t-125.5 60.5t-126.5 -60.5
t-38.5 -165.5zM633 921q-8 -13 -28.5 -33t-47 -42t-52.5 -42t-45 -33h-88v13q14 19 32.5 45t36 53t29.5 49h163v-10zM423 921q-7 -13 -27.5 -33t-47 -42t-52.5 -42t-45 -33h-88v13q14 19 32 45t35.5 53t30.5 49h162v-10z" />
    <glyph glyph-name="ohungarumlaut" unicode="&#x151;" horiz-adv-x="627" 
d="M583 276q0 -138 -72.5 -212t-198.5 -74q-78 0 -138.5 33.5t-95 97t-34.5 155.5q0 136 72.5 209.5t198.5 73.5q78 0 138.5 -33t95 -96t34.5 -154zM215 276q0 -77 23 -116.5t76 -39.5q52 0 75 39.5t23 116.5q0 76 -23 114.5t-76 38.5q-52 0 -75 -38.5t-23 -114.5zM549 756
q-8 -13 -28.5 -33t-47 -42t-52.5 -42t-45 -33h-88v13q14 19 32.5 45t36 53t29.5 49h163v-10zM339 756q-7 -13 -27.5 -33t-47 -42t-52.5 -42t-45 -33h-88v13q14 19 32 45t35.5 53t30.5 49h162v-10z" />
    <glyph glyph-name="OE" unicode="&#x152;" horiz-adv-x="966" 
d="M379 725q27 0 60.5 -3t55.5 -8h417v-138h-255v-137h237v-138h-237v-161h255v-140h-420q-21 -4 -54.5 -7t-59.5 -3q-109 0 -180.5 46t-107 129t-35.5 194t35 193t107 127.5t182 45.5zM379 584q-75 0 -111 -60.5t-36 -165.5t35.5 -165t110.5 -60q30 0 60 5t49 15v409
q-18 11 -48 16.5t-60 5.5z" />
    <glyph glyph-name="oe" unicode="&#x153;" horiz-adv-x="979" 
d="M690 559q111 0 178.5 -63.5t67.5 -187.5v-77h-353q3 -53 37.5 -85.5t97.5 -32.5q47 0 92.5 9.5t93.5 32.5v-125q-42 -21 -87.5 -30.5t-113.5 -9.5q-58 0 -108.5 17.5t-87.5 54.5q-71 -72 -194 -72q-78 0 -139 33.5t-95.5 97t-34.5 155.5q0 136 71.5 209.5t198.5 73.5
q54 0 102 -17.5t83 -51.5q36 34 83 51.5t108 17.5zM686 442q-40 0 -67.5 -24t-31.5 -78h195q-1 43 -24.5 72.5t-71.5 29.5zM313 429q-52 0 -75 -38.5t-23 -114.5q0 -77 23 -116.5t76 -39.5q52 0 75 39.5t23 116.5q0 76 -23 114.5t-76 38.5z" />
    <glyph glyph-name="Racute" unicode="&#x154;" horiz-adv-x="668" 
d="M304 714q288 0 288 -213q0 -69 -36.5 -116t-91.5 -74l209 -311h-191l-161 268h-67v-268h-170v714h220zM297 580h-43v-179h43q61 0 91.5 22.5t30.5 71.5q0 43 -29 64t-93 21zM563 921q-16 -14 -41 -34t-53.5 -42t-55 -41.5t-46.5 -32.5h-112v13q16 19 39 44.5t45 53
t37 49.5h187v-10z" />
    <glyph glyph-name="racute" unicode="&#x155;" horiz-adv-x="461" 
d="M391 559q13 0 29 -1.5t25 -3.5l-14 -158q-9 2 -23 3.5t-31 1.5q-32 0 -63.5 -10t-52 -37.5t-20.5 -78.5v-275h-169v549h127l26 -90h7q24 41 66 70.5t93 29.5zM477 756q-16 -14 -41 -34t-53.5 -42t-55 -41.5t-46.5 -32.5h-112v13q16 19 39 44.5t45 53t37 49.5h187v-10z
" />
    <glyph glyph-name="uni0156" unicode="&#x156;" horiz-adv-x="668" 
d="M304 714q288 0 288 -213q0 -69 -36.5 -116t-91.5 -74l209 -311h-191l-161 268h-67v-268h-170v714h220zM297 580h-43v-179h43q61 0 91.5 22.5t30.5 71.5q0 43 -29 64t-93 21zM446 -71q-16 -37 -35 -73.5t-46 -76.5h-100v13q9 31 17 73.5t10 73.5h154v-10z" />
    <glyph glyph-name="uni0157" unicode="&#x157;" horiz-adv-x="461" 
d="M391 559q13 0 29 -1.5t25 -3.5l-14 -158q-9 2 -23 3.5t-31 1.5q-32 0 -63.5 -10t-52 -37.5t-20.5 -78.5v-275h-169v549h127l26 -90h7q24 41 66 70.5t93 29.5zM250 -71q-16 -37 -35 -73.5t-46 -76.5h-100v13q9 31 17 73.5t10 73.5h154v-10z" />
    <glyph glyph-name="Rcaron" unicode="&#x158;" horiz-adv-x="668" 
d="M304 714q288 0 288 -213q0 -69 -36.5 -116t-91.5 -74l209 -311h-191l-161 268h-67v-268h-170v714h220zM297 580h-43v-179h43q61 0 91.5 22.5t30.5 71.5q0 43 -29 64t-93 21zM247 771q-14 23 -36.5 50t-46 52.5t-42.5 44.5v13h111q27 -16 52.5 -35.5t52.5 -44.5
q25 25 52.5 45t53.5 35h111v-13q-18 -18 -41.5 -43.5t-46.5 -53t-37 -50.5h-183z" />
    <glyph glyph-name="rcaron" unicode="&#x159;" horiz-adv-x="461" 
d="M391 559q13 0 29 -1.5t25 -3.5l-14 -158q-9 2 -23 3.5t-31 1.5q-32 0 -63.5 -10t-52 -37.5t-20.5 -78.5v-275h-169v549h127l26 -90h7q24 41 66 70.5t93 29.5zM161 606q-14 23 -36.5 50t-46 52.5t-42.5 44.5v13h111q27 -16 52.5 -35.5t52.5 -44.5q25 25 52.5 45t53.5 35
h111v-13q-18 -18 -41.5 -43.5t-46.5 -53t-37 -50.5h-183z" />
    <glyph glyph-name="Sacute" unicode="&#x15a;" horiz-adv-x="563" 
d="M526 207q0 -61 -30 -110.5t-90 -78t-151 -28.5q-63 0 -113 11t-97 33v155q54 -25 110.5 -42t108.5 -17q49 0 71 18.5t22 46.5q0 34 -35 55.5t-99 51.5q-42 19 -81.5 45.5t-64.5 67t-25 103.5q0 100 69.5 153t184.5 53q62 0 115 -14.5t104 -35.5l-54 -133
q-48 21 -89.5 32.5t-80.5 11.5q-41 0 -61 -17t-20 -43q0 -21 14 -36.5t44 -31.5t79 -39q53 -24 91 -52t58 -65.5t20 -93.5zM510 921q-16 -14 -41 -34t-53.5 -42t-55 -41.5t-46.5 -32.5h-112v13q16 19 39 44.5t45 53t37 49.5h187v-10z" />
    <glyph glyph-name="sacute" unicode="&#x15b;" horiz-adv-x="506" 
d="M467 166q0 -81 -56.5 -128.5t-176.5 -47.5q-58 0 -101.5 7t-87.5 25v136q48 -22 100 -33.5t88 -11.5q38 0 55 10t17 28q0 13 -8.5 23t-34 22.5t-75.5 33.5q-49 21 -80.5 43t-47 52.5t-15.5 76.5q0 78 60.5 117.5t160.5 39.5q53 0 100 -11t97 -34l-48 -114
q-41 18 -79.5 29t-69.5 11q-58 0 -58 -30q0 -11 8.5 -20.5t33 -20.5t71.5 -31q47 -19 80 -40.5t50 -52.5t17 -79zM474 756q-16 -14 -41 -34t-53.5 -42t-55 -41.5t-46.5 -32.5h-112v13q16 19 39 44.5t45 53t37 49.5h187v-10z" />
    <glyph glyph-name="Scircumflex" unicode="&#x15c;" horiz-adv-x="563" 
d="M526 207q0 -61 -30 -110.5t-90 -78t-151 -28.5q-63 0 -113 11t-97 33v155q54 -25 110.5 -42t108.5 -17q49 0 71 18.5t22 46.5q0 34 -35 55.5t-99 51.5q-42 19 -81.5 45.5t-64.5 67t-25 103.5q0 100 69.5 153t184.5 53q62 0 115 -14.5t104 -35.5l-54 -133
q-48 21 -89.5 32.5t-80.5 11.5q-41 0 -61 -17t-20 -43q0 -21 14 -36.5t44 -31.5t79 -39q53 -24 91 -52t58 -65.5t20 -93.5zM378 931q14 -23 37 -50.5t46.5 -53t41.5 -43.5v-13h-111q-26 15 -53.5 35t-52.5 45q-27 -25 -52.5 -44t-52.5 -36h-111v13q19 19 42.5 44.5t46 52.5
t36.5 50h183z" />
    <glyph glyph-name="scircumflex" unicode="&#x15d;" horiz-adv-x="506" 
d="M467 166q0 -81 -56.5 -128.5t-176.5 -47.5q-58 0 -101.5 7t-87.5 25v136q48 -22 100 -33.5t88 -11.5q38 0 55 10t17 28q0 13 -8.5 23t-34 22.5t-75.5 33.5q-49 21 -80.5 43t-47 52.5t-15.5 76.5q0 78 60.5 117.5t160.5 39.5q53 0 100 -11t97 -34l-48 -114
q-41 18 -79.5 29t-69.5 11q-58 0 -58 -30q0 -11 8.5 -20.5t33 -20.5t71.5 -31q47 -19 80 -40.5t50 -52.5t17 -79zM342 766q14 -23 37 -50.5t46.5 -53t41.5 -43.5v-13h-111q-26 15 -53.5 35t-52.5 45q-27 -25 -52.5 -44t-52.5 -36h-111v13q19 19 42.5 44.5t46 52.5t36.5 50
h183z" />
    <glyph glyph-name="Scedilla" unicode="&#x15e;" horiz-adv-x="563" 
d="M526 207q0 -61 -30 -110.5t-90 -78t-151 -28.5q-63 0 -113 11t-97 33v155q54 -25 110.5 -42t108.5 -17q49 0 71 18.5t22 46.5q0 34 -35 55.5t-99 51.5q-42 19 -81.5 45.5t-64.5 67t-25 103.5q0 100 69.5 153t184.5 53q62 0 115 -14.5t104 -35.5l-54 -133
q-48 21 -89.5 32.5t-80.5 11.5q-41 0 -61 -17t-20 -43q0 -21 14 -36.5t44 -31.5t79 -39q53 -24 91 -52t58 -65.5t20 -93.5zM394 -122q0 -55 -34.5 -86.5t-108.5 -31.5q-28 0 -50.5 4t-38.5 9v88q16 -5 34 -8t34 -3t26.5 7t10.5 22q0 18 -17 30t-59 19l34 72h95l-11 -30
q30 -8 57.5 -29.5t27.5 -62.5z" />
    <glyph glyph-name="scedilla" unicode="&#x15f;" horiz-adv-x="506" 
d="M467 166q0 -81 -56.5 -128.5t-176.5 -47.5q-58 0 -101.5 7t-87.5 25v136q48 -22 100 -33.5t88 -11.5q38 0 55 10t17 28q0 13 -8.5 23t-34 22.5t-75.5 33.5q-49 21 -80.5 43t-47 52.5t-15.5 76.5q0 78 60.5 117.5t160.5 39.5q53 0 100 -11t97 -34l-48 -114
q-41 18 -79.5 29t-69.5 11q-58 0 -58 -30q0 -11 8.5 -20.5t33 -20.5t71.5 -31q47 -19 80 -40.5t50 -52.5t17 -79zM366 -122q0 -55 -34.5 -86.5t-108.5 -31.5q-28 0 -50.5 4t-38.5 9v88q16 -5 34 -8t34 -3t26.5 7t10.5 22q0 18 -17 30t-59 19l34 72h95l-11 -30
q30 -8 57.5 -29.5t27.5 -62.5z" />
    <glyph glyph-name="Scaron" unicode="&#x160;" horiz-adv-x="563" 
d="M526 207q0 -61 -30 -110.5t-90 -78t-151 -28.5q-63 0 -113 11t-97 33v155q54 -25 110.5 -42t108.5 -17q49 0 71 18.5t22 46.5q0 34 -35 55.5t-99 51.5q-42 19 -81.5 45.5t-64.5 67t-25 103.5q0 100 69.5 153t184.5 53q62 0 115 -14.5t104 -35.5l-54 -133
q-48 21 -89.5 32.5t-80.5 11.5q-41 0 -61 -17t-20 -43q0 -21 14 -36.5t44 -31.5t79 -39q53 -24 91 -52t58 -65.5t20 -93.5zM195 771q-14 23 -36.5 50t-46 52.5t-42.5 44.5v13h111q27 -16 52.5 -35.5t52.5 -44.5q25 25 52.5 45t53.5 35h111v-13q-18 -18 -41.5 -43.5
t-46.5 -53t-37 -50.5h-183z" />
    <glyph glyph-name="scaron" unicode="&#x161;" horiz-adv-x="506" 
d="M467 166q0 -81 -56.5 -128.5t-176.5 -47.5q-58 0 -101.5 7t-87.5 25v136q48 -22 100 -33.5t88 -11.5q38 0 55 10t17 28q0 13 -8.5 23t-34 22.5t-75.5 33.5q-49 21 -80.5 43t-47 52.5t-15.5 76.5q0 78 60.5 117.5t160.5 39.5q53 0 100 -11t97 -34l-48 -114
q-41 18 -79.5 29t-69.5 11q-58 0 -58 -30q0 -11 8.5 -20.5t33 -20.5t71.5 -31q47 -19 80 -40.5t50 -52.5t17 -79zM159 606q-14 23 -36.5 50t-46 52.5t-42.5 44.5v13h111q27 -16 52.5 -35.5t52.5 -44.5q25 25 52.5 45t53.5 35h111v-13q-18 -18 -41.5 -43.5t-46.5 -53
t-37 -50.5h-183z" />
    <glyph glyph-name="uni0162" unicode="&#x162;" horiz-adv-x="585" 
d="M377 0h-170v573h-185v141h540v-141h-185v-573zM409 -122q0 -55 -34.5 -86.5t-108.5 -31.5q-28 0 -50.5 4t-38.5 9v88q16 -5 34 -8t34 -3t26.5 7t10.5 22q0 18 -17 30t-59 19l34 72h95l-11 -30q30 -8 57.5 -29.5t27.5 -62.5z" />
    <glyph glyph-name="uni0163" unicode="&#x163;" horiz-adv-x="446" 
d="M321 124q25 0 47.5 5t45.5 13v-124q-27 -12 -62 -20t-83 -8q-51 0 -90.5 16.5t-62 56.5t-22.5 113v247h-70v70l84 54l46 116h108v-114h146v-126h-146v-241q0 -29 16 -43.5t43 -14.5zM367 -122q0 -55 -34.5 -86.5t-108.5 -31.5q-28 0 -50.5 4t-38.5 9v88q16 -5 34 -8
t34 -3t26.5 7t10.5 22q0 18 -17 30t-59 19l34 72h95l-11 -30q30 -8 57.5 -29.5t27.5 -62.5z" />
    <glyph glyph-name="Tcaron" unicode="&#x164;" horiz-adv-x="585" 
d="M377 0h-170v573h-185v141h540v-141h-185v-573zM202 771q-14 23 -36.5 50t-46 52.5t-42.5 44.5v13h111q27 -16 52.5 -35.5t52.5 -44.5q25 25 52.5 45t53.5 35h111v-13q-18 -18 -41.5 -43.5t-46.5 -53t-37 -50.5h-183z" />
    <glyph glyph-name="tcaron" unicode="&#x165;" horiz-adv-x="446" 
d="M599 750q-18 -35 -38 -71.5t-46 -78.5h-100v13q8 30 17 72.5t12 74.5h155v-10zM321 124q25 0 47.5 5t45.5 13v-124q-27 -12 -62 -20t-83 -8q-51 0 -90.5 16.5t-62 56.5t-22.5 113v247h-70v70l84 54l46 116h108v-114h146v-126h-146v-241q0 -29 16 -43.5t43 -14.5z" />
    <glyph glyph-name="Tbar" unicode="&#x166;" horiz-adv-x="585" 
d="M207 0v280h-112v140h112v153h-185v141h540v-141h-185v-153h113v-140h-113v-280h-170z" />
    <glyph glyph-name="tbar" unicode="&#x167;" horiz-adv-x="455" 
d="M34 231v107h60v85h-70v70l84 54l46 116h108v-114h146v-126h-146v-85h129v-107h-129v-49q0 -29 16 -43.5t43 -14.5q25 0 47.5 5t45.5 13v-124q-27 -12 -62 -20t-83 -8q-51 0 -90.5 16.5t-62 56.5t-22.5 113v55h-60z" />
    <glyph glyph-name="Utilde" unicode="&#x168;" horiz-adv-x="756" 
d="M677 267q0 -82 -33.5 -144t-100 -97.5t-168.5 -35.5q-144 0 -220 74t-76 202v448h171v-429q0 -82 32.5 -117t96.5 -35q67 0 97.5 36.5t30.5 116.5v428h170v-447zM175 770q6 84 41 121t87 37q26 0 53 -12.5t53.5 -24.5t50.5 -12q12 0 24.5 10.5t17.5 39.5h81
q-6 -83 -42 -120.5t-85 -37.5q-28 0 -55.5 12t-53.5 24.5t-50 12.5q-12 0 -24 -10.5t-18 -39.5h-80z" />
    <glyph glyph-name="utilde" unicode="&#x169;" horiz-adv-x="663" 
d="M591 549v-549h-128l-22 70h-10q-26 -42 -71 -61t-96 -19q-85 0 -139.5 48t-54.5 153v358h169v-311q0 -56 18.5 -85t59.5 -29q61 0 83 45t22 130v250h169zM128 605q6 84 41 121t87 37q26 0 53 -12.5t53.5 -24.5t50.5 -12q12 0 24.5 10.5t17.5 39.5h81q-6 -83 -42 -120.5
t-85 -37.5q-28 0 -55.5 12t-53.5 24.5t-50 12.5q-12 0 -24 -10.5t-18 -39.5h-80z" />
    <glyph glyph-name="Umacron" unicode="&#x16a;" horiz-adv-x="756" 
d="M677 267q0 -82 -33.5 -144t-100 -97.5t-168.5 -35.5q-144 0 -220 74t-76 202v448h171v-429q0 -82 32.5 -117t96.5 -35q67 0 97.5 36.5t30.5 116.5v428h170v-447zM549 880v-109h-342v109h342z" />
    <glyph glyph-name="umacron" unicode="&#x16b;" horiz-adv-x="663" 
d="M591 549v-549h-128l-22 70h-10q-26 -42 -71 -61t-96 -19q-85 0 -139.5 48t-54.5 153v358h169v-311q0 -56 18.5 -85t59.5 -29q61 0 83 45t22 130v250h169zM503 715v-109h-342v109h342z" />
    <glyph glyph-name="Ubreve" unicode="&#x16c;" horiz-adv-x="756" 
d="M677 267q0 -82 -33.5 -144t-100 -97.5t-168.5 -35.5q-144 0 -220 74t-76 202v448h171v-429q0 -82 32.5 -117t96.5 -35q67 0 97.5 36.5t30.5 116.5v428h170v-447zM573 943q-5 -77 -57.5 -124.5t-138.5 -47.5q-91 0 -140 46.5t-53 125.5h92q7 -42 33 -52t68 -10
q34 0 64 11.5t37 50.5h95z" />
    <glyph glyph-name="ubreve" unicode="&#x16d;" horiz-adv-x="663" 
d="M591 549v-549h-128l-22 70h-10q-26 -42 -71 -61t-96 -19q-85 0 -139.5 48t-54.5 153v358h169v-311q0 -56 18.5 -85t59.5 -29q61 0 83 45t22 130v250h169zM526 778q-5 -77 -57.5 -124.5t-138.5 -47.5q-91 0 -140 46.5t-53 125.5h92q7 -42 33 -52t68 -10q34 0 64 11.5
t37 50.5h95z" />
    <glyph glyph-name="Uring" unicode="&#x16e;" horiz-adv-x="756" 
d="M677 267q0 -82 -33.5 -144t-100 -97.5t-168.5 -35.5q-144 0 -220 74t-76 202v448h171v-429q0 -82 32.5 -117t96.5 -35q67 0 97.5 36.5t30.5 116.5v428h170v-447zM377 770q-56 0 -90.5 31.5t-34.5 87.5t34.5 87.5t90.5 31.5q53 0 90.5 -31.5t37.5 -86.5q0 -56 -37 -88
t-91 -32zM377 845q19 0 31.5 12t12.5 32t-12.5 32t-31.5 12t-32 -12t-13 -32t11.5 -32t33.5 -12z" />
    <glyph glyph-name="uring" unicode="&#x16f;" horiz-adv-x="663" 
d="M591 549v-549h-128l-22 70h-10q-26 -42 -71 -61t-96 -19q-85 0 -139.5 48t-54.5 153v358h169v-311q0 -56 18.5 -85t59.5 -29q61 0 83 45t22 130v250h169zM330 605q-56 0 -90.5 31.5t-34.5 87.5t34.5 87.5t90.5 31.5q53 0 90.5 -31.5t37.5 -86.5q0 -56 -37 -88t-91 -32z
M330 680q19 0 31.5 12t12.5 32t-12.5 32t-31.5 12t-32 -12t-13 -32t11.5 -32t33.5 -12z" />
    <glyph glyph-name="Uhungarumlaut" unicode="&#x170;" horiz-adv-x="756" 
d="M677 267q0 -82 -33.5 -144t-100 -97.5t-168.5 -35.5q-144 0 -220 74t-76 202v448h171v-429q0 -82 32.5 -117t96.5 -35q67 0 97.5 36.5t30.5 116.5v428h170v-447zM613 921q-8 -13 -28.5 -33t-47 -42t-52.5 -42t-45 -33h-88v13q14 19 32.5 45t36 53t29.5 49h163v-10z
M403 921q-7 -13 -27.5 -33t-47 -42t-52.5 -42t-45 -33h-88v13q14 19 32 45t35.5 53t30.5 49h162v-10z" />
    <glyph glyph-name="uhungarumlaut" unicode="&#x171;" horiz-adv-x="663" 
d="M591 549v-549h-128l-22 70h-10q-26 -42 -71 -61t-96 -19q-85 0 -139.5 48t-54.5 153v358h169v-311q0 -56 18.5 -85t59.5 -29q61 0 83 45t22 130v250h169zM567 756q-8 -13 -28.5 -33t-47 -42t-52.5 -42t-45 -33h-88v13q14 19 32.5 45t36 53t29.5 49h163v-10zM357 756
q-7 -13 -27.5 -33t-47 -42t-52.5 -42t-45 -33h-88v13q14 19 32 45t35.5 53t30.5 49h162v-10z" />
    <glyph glyph-name="Uogonek" unicode="&#x172;" horiz-adv-x="756" 
d="M501 -94q0 -26 11 -36.5t28 -10.5q15 0 30.5 3t25.5 7v-97q-16 -5 -35.5 -8.5t-44.5 -3.5q-57 0 -92.5 32t-35.5 88q0 59 47 114q-28 -4 -60 -4q-144 0 -220 74t-76 202v448h171v-429q0 -82 32.5 -117t96.5 -35q67 0 97.5 36.5t30.5 116.5v428h170v-447q0 -68 -23 -123.5
t-70 -92.5q-42 -43 -62.5 -77.5t-20.5 -67.5z" />
    <glyph glyph-name="uogonek" unicode="&#x173;" horiz-adv-x="663" 
d="M591 549v-549h-128l-22 70h-10q-26 -42 -71 -61t-96 -19q-85 0 -139.5 48t-54.5 153v358h169v-311q0 -56 18.5 -85t59.5 -29q61 0 83 45t22 130v250h169zM487 -105q0 -19 10.5 -27.5t27.5 -8.5q15 0 31 3t26 7v-97q-16 -5 -35.5 -8.5t-44.5 -3.5q-57 0 -92.5 31t-35.5 81
q0 79 112 149l69 -21q-33 -32 -50.5 -56t-17.5 -49z" />
    <glyph glyph-name="Wcircumflex" unicode="&#x174;" horiz-adv-x="1000" 
d="M993 714l-179 -714h-198l-83 345q-3 10 -7.5 32t-9.5 48t-9.5 50.5t-5.5 40.5q-2 -16 -6.5 -40.5t-9.5 -50.5t-10 -48t-7 -32l-84 -345h-197l-180 714h166l85 -375q5 -21 12 -56t13.5 -71.5t9.5 -60.5q4 32 12 75.5t16.5 84t14.5 63.5l85 340h159l85 -340q4 -17 10 -45
t12 -60.5t11.5 -63.5t8.5 -54q3 24 9.5 60.5t13.5 71t12 55.5l85 376h166zM592 931q14 -23 37 -50.5t46.5 -53t41.5 -43.5v-13h-111q-26 15 -53.5 35t-52.5 45q-27 -25 -52.5 -44t-52.5 -36h-111v13q19 19 42.5 44.5t46 52.5t36.5 50h183z" />
    <glyph glyph-name="wcircumflex" unicode="&#x175;" horiz-adv-x="881" 
d="M485 215q-5 17 -11 46t-13 61t-12 58.5t-8 39.5h-4q-2 -13 -7.5 -39.5t-12.5 -59t-13.5 -62t-10.5 -49.5l-50 -210h-179l-153 549h166l55 -228q6 -24 11.5 -58t10 -67t6.5 -55h3q1 17 4.5 41.5t8 50t8.5 45.5t5 27l60 244h186l56 -245q3 -16 9 -46.5t10.5 -62.5t6.5 -54
h3q2 21 6.5 54.5t10.5 67.5t12 58l57 228h164l-155 -549h-181zM532 766q14 -23 37 -50.5t46.5 -53t41.5 -43.5v-13h-111q-26 15 -53.5 35t-52.5 45q-27 -25 -52.5 -44t-52.5 -36h-111v13q19 19 42.5 44.5t46 52.5t36.5 50h183z" />
    <glyph glyph-name="Ycircumflex" unicode="&#x176;" horiz-adv-x="642" 
d="M321 433l137 281h184l-236 -436v-278h-170v273l-236 441h185zM413 931q14 -23 37 -50.5t46.5 -53t41.5 -43.5v-13h-111q-26 15 -53.5 35t-52.5 45q-27 -25 -52.5 -44t-52.5 -36h-111v13q19 19 42.5 44.5t46 52.5t36.5 50h183z" />
    <glyph glyph-name="ycircumflex" unicode="&#x177;" horiz-adv-x="588" 
d="M0 549h180l99 -311q5 -17 8.5 -37.5t5.5 -41.5h3q3 23 7.5 42.5t9.5 35.5l99 312h176l-226 -603q-34 -92 -92.5 -139t-151.5 -47q-26 0 -44.5 2.5t-32.5 5.5v133q11 -2 26.5 -4t32.5 -2q47 0 72 28t39 66l6 17zM386 766q14 -23 37 -50.5t46.5 -53t41.5 -43.5v-13h-111
q-26 15 -53.5 35t-52.5 45q-27 -25 -52.5 -44t-52.5 -36h-111v13q19 19 42.5 44.5t46 52.5t36.5 50h183z" />
    <glyph glyph-name="Ydieresis" unicode="&#x178;" horiz-adv-x="642" 
d="M321 433l137 281h184l-236 -436v-278h-170v273l-236 441h185zM138 853q0 37 21.5 54t52.5 17t53.5 -17t22.5 -54q0 -36 -22.5 -53t-53.5 -17t-52.5 17t-21.5 53zM352 853q0 37 21.5 54t54.5 17q30 0 52.5 -17t22.5 -54q0 -36 -22.5 -53t-52.5 -17q-33 0 -54.5 17
t-21.5 53z" />
    <glyph glyph-name="Zacute" unicode="&#x179;" horiz-adv-x="594" 
d="M569 0h-542v108l327 467h-319v139h526v-108l-327 -467h335v-139zM528 921q-16 -14 -41 -34t-53.5 -42t-55 -41.5t-46.5 -32.5h-112v13q16 19 39 44.5t45 53t37 49.5h187v-10z" />
    <glyph glyph-name="zacute" unicode="&#x17a;" horiz-adv-x="497" 
d="M469 0h-443v98l242 322h-228v129h419v-106l-233 -314h243v-129zM473 756q-16 -14 -41 -34t-53.5 -42t-55 -41.5t-46.5 -32.5h-112v13q16 19 39 44.5t45 53t37 49.5h187v-10z" />
    <glyph glyph-name="Zdotaccent" unicode="&#x17b;" horiz-adv-x="594" 
d="M569 0h-542v108l327 467h-319v139h526v-108l-327 -467h335v-139zM304 932q37 0 64 -16t27 -62q0 -45 -27 -61.5t-64 -16.5t-63.5 16.5t-26.5 61.5q0 46 26.5 62t63.5 16z" />
    <glyph glyph-name="zdotaccent" unicode="&#x17c;" horiz-adv-x="497" 
d="M469 0h-443v98l242 322h-228v129h419v-106l-233 -314h243v-129zM248 767q37 0 64 -16t27 -62q0 -45 -27 -61.5t-64 -16.5t-63.5 16.5t-26.5 61.5q0 46 26.5 62t63.5 16z" />
    <glyph glyph-name="Zcaron" unicode="&#x17d;" horiz-adv-x="594" 
d="M569 0h-542v108l327 467h-319v139h526v-108l-327 -467h335v-139zM213 771q-14 23 -36.5 50t-46 52.5t-42.5 44.5v13h111q27 -16 52.5 -35.5t52.5 -44.5q25 25 52.5 45t53.5 35h111v-13q-18 -18 -41.5 -43.5t-46.5 -53t-37 -50.5h-183z" />
    <glyph glyph-name="zcaron" unicode="&#x17e;" horiz-adv-x="497" 
d="M469 0h-443v98l242 322h-228v129h419v-106l-233 -314h243v-129zM157 606q-14 23 -36.5 50t-46 52.5t-42.5 44.5v13h111q27 -16 52.5 -35.5t52.5 -44.5q25 25 52.5 45t53.5 35h111v-13q-18 -18 -41.5 -43.5t-46.5 -53t-37 -50.5h-183z" />
    <glyph glyph-name="longs" unicode="&#x17f;" horiz-adv-x="392" 
d="M299 638q-34 0 -46 -18.5t-12 -51.5v-568h-169v574q0 77 24.5 118.5t68.5 57t105 15.5q49 0 84.5 -7.5t59.5 -16.5l-36 -118q-18 6 -36.5 10.5t-42.5 4.5z" />
    <glyph glyph-name="uni0180" unicode="&#x180;" horiz-adv-x="641" 
d="M392 -10q-61 0 -93 21t-54 45h-10l-28 -56h-131v576h-76v109h76v75h169v-75h139v-109h-139v-6q0 -53 -6 -101h6q20 30 56 54t95 24t104.5 -26.5t72 -86t26.5 -158.5q0 -96 -27 -159.5t-73.5 -95t-106.5 -31.5zM341 127q37 0 60.5 38.5t23.5 112.5q0 73 -23.5 103.5
t-62.5 30.5q-41 0 -66.5 -31t-27.5 -97v-5q0 -74 20.5 -113t75.5 -39z" />
    <glyph glyph-name="uni0181" unicode="&#x181;" horiz-adv-x="811" 
d="M220 0v573h-26q-28 0 -41 -15t-13 -35q0 -17 3.5 -28t6.5 -19h-133q-4 8 -8 23t-4 36q0 48 18 88.5t60.5 65.5t115.5 25h248q145 0 220 -39t75 -142q0 -61 -26.5 -103t-75.5 -51v-5q31 -7 58.5 -24.5t44.5 -51t17 -91.5q0 -95 -70 -151t-194 -56h-276zM465 438
q59 0 80 18.5t21 52.5q0 35 -25.5 49.5t-82.5 14.5h-67v-135h74zM476 142q62 0 84 23.5t22 60.5q0 32 -22.5 54.5t-87.5 22.5h-81v-161h85z" />
    <glyph glyph-name="uni0182" unicode="&#x182;" horiz-adv-x="642" 
d="M84 0v714h460v-139h-290v-125h65q96 0 158.5 -28t92.5 -77t30 -113q0 -109 -73 -170.5t-219 -61.5h-224zM306 137q59 0 90.5 21.5t31.5 69.5q0 47 -34.5 66t-91.5 19h-48v-176h52z" />
    <glyph glyph-name="uni0183" unicode="&#x183;" horiz-adv-x="641" 
d="M392 -10q-61 0 -93 21t-54 45h-10l-28 -56h-131v760h470v-127h-301v-59q0 -34 -2 -64.5t-4 -40.5h6q20 30 56 54t95 24t104.5 -26.5t72 -86t26.5 -158.5q0 -96 -27 -159.5t-73.5 -95t-106.5 -31.5zM341 127q37 0 60.5 38.5t23.5 112.5q0 73 -23.5 103.5t-62.5 30.5
q-41 0 -66.5 -31t-27.5 -97v-5q0 -74 20.5 -113t75.5 -39z" />
    <glyph glyph-name="uni0184" unicode="&#x184;" horiz-adv-x="673" 
d="M355 -12q-130 0 -201.5 52t-71.5 171v503h172v-266h77q104 0 170.5 -29.5t98.5 -81t32 -116.5q0 -107 -68.5 -170t-208.5 -63zM350 128q47 0 77.5 21.5t30.5 71.5q0 55 -40.5 71t-110.5 16h-53v-89q0 -47 24.5 -69t71.5 -22z" />
    <glyph glyph-name="uni0185" unicode="&#x185;" horiz-adv-x="642" 
d="M340 -10q-126 0 -197 73t-71 206v491h170v-173q0 -32 -2 -59t-4 -47h6q21 31 58.5 54.5t96.5 23.5t104.5 -32t72 -95.5t26.5 -157.5q0 -97 -34.5 -160t-93.5 -93.5t-132 -30.5zM336 126q44 0 67.5 33.5t23.5 114.5q0 76 -24 113.5t-63 37.5q-52 0 -75 -33t-23 -96v-30
q0 -77 25 -108.5t69 -31.5z" />
    <glyph glyph-name="uni0186" unicode="&#x186;" horiz-adv-x="643" 
d="M248 -10q-55 0 -100 9.5t-90 28.5v144q48 -18 90.5 -29.5t87.5 -11.5q87 0 131.5 58t44.5 167q0 106 -43.5 166.5t-122.5 60.5q-44 0 -85 -12.5t-78 -31.5l-48 135q49 25 109 37.5t117 12.5q108 0 181 -45t109.5 -126t36.5 -189q0 -110 -37.5 -194.5t-113 -132
t-189.5 -47.5z" />
    <glyph glyph-name="uni0187" unicode="&#x187;" horiz-adv-x="640" 
d="M635 883q23 0 43.5 -5.5t28.5 -9.5v-130q-8 3 -23 6.5t-32 3.5q-23 0 -35.5 -12t-12.5 -41v-35l-55 -127q-39 18 -79.5 33t-79.5 15q-76 0 -116 -60.5t-40 -165.5q0 -108 37 -165t121 -57q43 0 87.5 10.5t97.5 30.5v-145q-49 -21 -95.5 -30t-103.5 -9q-112 0 -183 45.5
t-104.5 128t-33.5 192.5q0 107 38 190.5t112.5 130.5t183.5 47q20 0 39.5 -2.5t38.5 -6.5v3q0 57 22.5 93.5t60 54t83.5 17.5z" />
    <glyph glyph-name="uni0188" unicode="&#x188;" horiz-adv-x="522" 
d="M300 -10q-123 0 -190.5 66t-67.5 216q0 103 35 166.5t96.5 92t140.5 28.5q11 0 21.5 -0.5t20.5 -2.5v24q0 100 46.5 142.5t120.5 42.5q23 0 43 -6t29 -10v-130q-9 3 -23.5 6.5t-32.5 3.5q-22 0 -34.5 -12t-12.5 -41v-62l-51 -125q-35 15 -65.5 25t-61.5 10
q-99 0 -99 -151q0 -78 27 -112t74 -34q48 0 84.5 13.5t71.5 37.5v-144q-36 -24 -74 -34t-98 -10z" />
    <glyph glyph-name="Dtail" unicode="&#x189;" horiz-adv-x="737" 
d="M319 714q170 0 266.5 -88.5t96.5 -257.5q0 -123 -46 -204.5t-132 -122.5t-205 -41h-215v284h-65v138h65v292h235zM323 575h-69v-153h110v-138h-110v-144h55q197 0 197 222q0 109 -47 161t-136 52z" />
    <glyph glyph-name="uni018A" unicode="&#x18a;" horiz-adv-x="876" 
d="M219 0v573h-26q-27 0 -40.5 -15t-13.5 -35q0 -17 3.5 -28t6.5 -19h-132q-4 8 -8.5 23t-4.5 36q0 48 18 88.5t60.5 65.5t115.5 25h252q111 0 195 -40t130.5 -117.5t46.5 -192.5q0 -181 -104.5 -272.5t-289.5 -91.5h-209zM445 142q101 0 149.5 54.5t48.5 163.5
q0 111 -46.5 162t-134.5 51h-71v-431h54z" />
    <glyph glyph-name="uni018B" unicode="&#x18b;" horiz-adv-x="640" 
d="M321 0q-143 0 -212 57t-69 165q0 64 31.5 116t95.5 82t162 30h57v123h-288v141h458v-714h-235zM334 137h52v176h-47q-58 0 -92.5 -20t-34.5 -68q0 -47 31.5 -67.5t90.5 -20.5z" />
    <glyph glyph-name="uni018C" unicode="&#x18c;" horiz-adv-x="641" 
d="M244 -10q-88 0 -145 72.5t-57 212.5q0 87 26.5 148t73.5 92.5t107 31.5q59 0 96 -23.5t57 -53.5h6q-1 3 -4 21.5t-6 42.5t-3 42v57h-300v127h470v-760h-131l-33 69h-6q-20 -32 -55.5 -55.5t-95.5 -23.5zM307 125q54 0 76 31.5t24 98.5v17q0 65 -22 101.5t-80 36.5
q-42 0 -66.5 -35.5t-24.5 -102.5q0 -73 25 -110t68 -37z" />
    <glyph glyph-name="uni018D" unicode="&#x18d;" horiz-adv-x="627" 
d="M328 559q77 0 137 -28t94 -80.5t34 -124.5q0 -91 -46.5 -148.5t-124.5 -86.5q43 -25 68.5 -60t25.5 -88q0 -73 -58.5 -116t-164.5 -43q-62 0 -119 16.5t-99 54.5l63 116q35 -33 73.5 -49t73.5 -16q39 0 54.5 15t15.5 33q0 25 -23.5 41t-73.5 43q-76 41 -120.5 81.5
t-63.5 87t-19 105.5q0 117 74 182t199 65zM324 429q-48 0 -74 -34t-26 -87q0 -52 25.5 -86.5t68.5 -56.5q50 19 78.5 54.5t28.5 90.5t-27.5 87t-73.5 32z" />
    <glyph glyph-name="uni018E" unicode="&#x18e;" horiz-adv-x="555" 
d="M54 0v140h247v161h-230v138h230v137h-247v138h417v-714h-417z" />
    <glyph glyph-name="uni018F" unicode="&#x18f;" horiz-adv-x="806" 
d="M385 584q-84 0 -156.5 -25t-121.5 -57v149q47 29 118.5 51.5t170.5 22.5q107 0 187 -42.5t124.5 -124t44.5 -199.5q0 -181 -92.5 -275t-255.5 -94q-176 0 -258 102t-82 285v33h508q-5 77 -49.5 125.5t-137.5 48.5zM407 126q68 0 113 40.5t51 113.5h-330q2 -70 41.5 -112
t124.5 -42z" />
    <glyph glyph-name="uni0190" unicode="&#x190;" horiz-adv-x="642" 
d="M331 725q89 0 153 -21.5t120 -57.5l-72 -114q-39 24 -85 40t-99 16q-59 0 -88 -19t-29 -50q0 -24 18 -42.5t62.5 -29t123.5 -10.5h48v-132h-57q-103 0 -159.5 -21t-56.5 -67q0 -43 37.5 -68t128.5 -25q50 0 110.5 12t105.5 35v-143q-45 -19 -109.5 -29t-147.5 -10
q-151 0 -223 59t-72 152q0 74 53.5 120t149.5 52v3q-51 7 -91.5 25.5t-63.5 52t-23 84.5q0 84 70 136t196 52z" />
    <glyph glyph-name="uni0191" unicode="&#x191;" horiz-adv-x="691" 
d="M193 -242q-98 0 -153 47.5t-55 132.5q0 31 9 56t21 43l123 -46q-13 -26 -13 -51q0 -29 16 -44.5t43 -15.5t43 20t16 63v751h393v-140h-225v-134h207v-140h-207v-337q0 -70 -28 -115.5t-77.5 -67.5t-112.5 -22z" />
    <glyph glyph-name="fhook" unicode="&#x192;" horiz-adv-x="534" 
d="M195 -241q-99 0 -146.5 48t-47.5 126q0 30 7 53.5t16 40.5l128 -43q-11 -27 -11 -54q0 -24 12 -36.5t31 -12.5q23 0 36 17t13 51v474h-77v82l79 43v26q0 106 48.5 148.5t142.5 42.5q43 0 78.5 -7t64.5 -17l-39 -116q-16 4 -34.5 8t-42.5 4q-27 0 -39 -16.5t-12 -46.5v-25
h124v-126h-124v-467q0 -68 -27 -112t-73.5 -64.5t-106.5 -20.5z" />
    <glyph glyph-name="uni0193" unicode="&#x193;" horiz-adv-x="724" 
d="M676 883q23 0 43.5 -5.5t28.5 -9.5v-130q-8 3 -23 6.5t-32 3.5q-23 0 -35 -12t-12 -41v-26l-58 -126q-30 15 -71 26.5t-86 11.5q-59 0 -103.5 -28t-69 -79t-24.5 -119q0 -63 16 -113t51 -79.5t93 -29.5q29 0 47 2.5t35 3.5v128h-119v142h287v-378q-57 -19 -118.5 -30
t-140.5 -11q-157 0 -242.5 93.5t-85.5 274.5q0 114 43.5 196t127 126t204.5 44q38 0 78 -6v1q0 58 22.5 94t60.5 53t83 17z" />
    <glyph glyph-name="Gammalatin" unicode="&#x194;" horiz-adv-x="660" 
d="M326 -240q-76 0 -115.5 42.5t-39.5 113.5q0 53 21 107.5t50 114.5l-242 576h179l109 -293q10 -27 21 -62t17 -67q8 32 19.5 65.5t23.5 62.5l119 294h179l-258 -579q30 -56 52 -111.5t22 -108.5q0 -67 -40.5 -111t-116.5 -44zM327 -130q32 0 32 50q0 21 -8 50.5t-24 59.5
q-16 -29 -23.5 -58.5t-7.5 -50.5q0 -51 31 -51z" />
    <glyph glyph-name="uni0195" unicode="&#x195;" horiz-adv-x="1003" 
d="M674 -12q-133 0 -194 52.5t-61 171.5v102q0 111 -74 111q-56 0 -78 -46t-22 -129v-250h-169v760h169v-136q0 -35 -2 -71t-5 -71h8q52 77 150 77q84 0 138.5 -49.5t54.5 -157.5v-114q0 -114 84 -114q45 0 66 31.5t21 105.5v286h170v-301q0 -132 -63.5 -195t-192.5 -63z
" />
    <glyph glyph-name="Iotalatin" unicode="&#x196;" horiz-adv-x="421" 
d="M274 -10q-53 0 -96 17.5t-68.5 60t-25.5 118.5v528h181v-514q0 -31 16.5 -48.5t43.5 -17.5q25 0 45 4.5t42 13.5v-135q-24 -11 -60 -19t-78 -8z" />
    <glyph glyph-name="uni0197" unicode="&#x197;" horiz-adv-x="407" 
d="M379 714v-97l-90 -47v-145h93v-142h-93v-139l90 -47v-97h-351v97l89 47v139h-92v142h92v145l-89 47v97h351z" />
    <glyph glyph-name="uni0198" unicode="&#x198;" horiz-adv-x="681" 
d="M582 726q29 0 49.5 -5.5t33.5 -11.5v-134q-9 4 -22 7t-29 3q-21 0 -40 -12t-31 -29l-104 -149l242 -395h-195l-169 285l-58 -38v-247h-171v714h171v-320q15 23 31 48.5t31 48.5l57 81q29 43 59 78t65 55.5t80 20.5z" />
    <glyph glyph-name="uni0199" unicode="&#x199;" horiz-adv-x="648" 
d="M263 767q26 0 49 -5.5t34 -10.5v-128q-8 3 -23 6.5t-32 3.5q-21 0 -33.5 -11.5t-12.5 -40.5v-152q0 -30 -2.5 -60t-5.5 -59h2q27 46 65 87l141 152h191l-218 -239l230 -310h-195l-148 211l-60 -45v-166h-169v584q0 100 52 141.5t135 41.5z" />
    <glyph glyph-name="uni019A" unicode="&#x19a;" horiz-adv-x="327" 
d="M79 0v303h-70v122h70v335h168v-335h72v-122h-72v-303h-168z" />
    <glyph glyph-name="uni019B" unicode="&#x19b;" horiz-adv-x="638" 
d="M2 0l234 516l-6 18l-99 -30l-28 90l80 23q-11 11 -28 15t-38 4q-14 0 -28 -2t-26 -5v129q13 3 40.5 5.5t45.5 2.5q72 0 117 -24t75 -73l90 29l29 -93l-79 -24l132 -366q20 -56 39 -72t42 -16q17 0 37 5v-125q-12 -6 -37.5 -11t-51.5 -5q-69 0 -105.5 33t-57.5 91l-39 112
q-11 31 -19.5 58t-12.5 47h-3q-7 -25 -16 -52.5t-18 -48.5l-95 -231h-174z" />
    <glyph glyph-name="uni019C" unicode="&#x19c;" horiz-adv-x="1045" 
d="M287 -10q-90 0 -146.5 47t-56.5 154v523h172v-471q0 -109 73 -109q57 0 80.5 41.5t23.5 117.5v421h172v-471q0 -109 73 -109q60 0 82 46t22 128v406h173v-714h-130l-23 75h-10q-27 -43 -72.5 -64t-95.5 -21q-58 0 -98 22.5t-65 62.5h-8q-56 -85 -166 -85z" />
    <glyph glyph-name="uni019D" unicode="&#x19d;" horiz-adv-x="832" 
d="M59 -252q-26 0 -46 5.5t-31 9.5v129q8 -3 23 -6.5t32 -3.5q22 0 36.5 14t14.5 43v775h220l287 -515h3q-1 20 -3 56.5t-3.5 77t-1.5 70.5v311h154v-714h-221l-288 521h-4q2 -24 4 -60.5t4 -76.5t2 -74v-376q0 -99 -50.5 -142.5t-131.5 -43.5z" />
    <glyph glyph-name="uni019E" unicode="&#x19e;" horiz-adv-x="663" 
d="M417 -240v557q0 52 -18.5 80.5t-57.5 28.5q-58 0 -79 -45.5t-21 -130.5v-250h-169v549h128l22 -69h10q26 42 69 60.5t92 18.5q84 0 138 -47.5t54 -153.5v-598h-168z" />
    <glyph glyph-name="uni019F" unicode="&#x19f;" horiz-adv-x="796" 
d="M741 358q0 -111 -36 -193.5t-112 -128.5t-195 -46q-118 0 -194 46t-112.5 129t-36.5 194t36.5 193t112.5 127.5t195 45.5t194.5 -45.5t111.5 -128t36 -193.5zM399 589q-77 0 -118 -41.5t-52 -116.5h338q-10 75 -50.5 116.5t-117.5 41.5zM398 128q82 0 123 45t48 124h-343
q8 -79 50 -124t122 -45z" />
    <glyph glyph-name="Ohorn" unicode="&#x1a0;" horiz-adv-x="834" 
d="M742 358q0 -111 -36.5 -193.5t-112.5 -128.5t-195 -46q-118 0 -194 46t-112.5 129t-36.5 194t37 193t113.5 127.5t194.5 45.5q88 0 153 -25.5t106 -71.5q18 19 28.5 52t10.5 80h164l7 -11q-18 -89 -53.5 -140.5t-98.5 -77.5q25 -75 25 -173zM234 358q0 -105 38.5 -165
t125.5 -60q88 0 126 60t38 165q0 106 -37.5 166t-125.5 60q-87 0 -126 -60t-39 -166z" />
    <glyph glyph-name="ohorn" unicode="&#x1a1;" horiz-adv-x="699" 
d="M583 276q0 -138 -72.5 -212t-198.5 -74q-78 0 -138.5 33.5t-95 97t-34.5 155.5q0 136 72.5 209.5t198.5 73.5q56 0 106 -16.5t85 -49.5q33 11 48 48t15 90h164l7 -11q-9 -49 -26.5 -91.5t-53 -74.5t-99.5 -49q22 -57 22 -129zM215 276q0 -75 23 -113t76 -38q52 0 75 38
t23 113t-23 111.5t-76 36.5q-52 0 -75 -36.5t-23 -111.5z" />
    <glyph glyph-name="uni01A2" unicode="&#x1a2;" horiz-adv-x="1145" 
d="M728 358q0 -113 -35.5 -195.5t-110 -127.5t-190.5 -45t-190 45t-109.5 128t-35.5 196q0 111 35.5 193t110 127.5t190.5 45.5q81 0 141 -23t101 -65q37 38 88 63t122 25q62 0 111 -25t77.5 -77.5t28.5 -136.5v-486h-173v472q0 110 -92 110q-41 0 -64 -10.5t-39 -23.5
q17 -40 25.5 -88t8.5 -102zM238 358q0 -106 36 -165t118 -59q84 0 119.5 59t35.5 165q0 104 -34.5 164.5t-119.5 60.5q-83 0 -119 -59.5t-36 -165.5z" />
    <glyph glyph-name="uni01A3" unicode="&#x1a3;" horiz-adv-x="945" 
d="M560 276q0 -140 -71 -213t-190 -73q-74 0 -132 31.5t-91.5 95t-33.5 159.5q0 138 70.5 210.5t189.5 72.5q60 0 107.5 -19.5t83.5 -61.5q35 44 81 62.5t99 18.5q91 0 146.5 -48t55.5 -155v-596h-170v552q0 55 -19.5 84t-62.5 29q-55 0 -80 -33q7 -25 12 -54t5 -62z
M215 276q0 -77 20.5 -113.5t65.5 -36.5t65 36.5t20 113.5q0 76 -20 112t-66 36t-65.5 -36.5t-19.5 -111.5z" />
    <glyph glyph-name="uni01A4" unicode="&#x1a4;" horiz-adv-x="767" 
d="M219 0v573h-26q-27 0 -40.5 -15t-13.5 -35q0 -17 3.5 -28t6.5 -19h-132q-4 8 -8.5 23t-4.5 36q0 48 18 88.5t60.5 65.5t115.5 25h260q141 0 204 -61t63 -166q0 -45 -13 -88t-44 -77.5t-85 -55t-136 -20.5h-56v-246h-172zM431 386q55 0 88 23.5t33 72.5q0 91 -102 91h-59
v-187h40z" />
    <glyph glyph-name="uni01A5" unicode="&#x1a5;" horiz-adv-x="641" 
d="M261 765q26 0 48.5 -5.5t32.5 -10.5v-129q-7 3 -21.5 6.5t-31.5 3.5q-44 0 -44 -47v-19q0 -20 -1.5 -39.5t-4.5 -44.5h6q21 32 57.5 55.5t92.5 23.5q89 0 146.5 -72t57.5 -211q0 -143 -57.5 -214.5t-145.5 -71.5q-59 0 -94 19t-55 43h-7q3 -13 4 -31.5t1 -39.5v-221h-169
v826q0 98 51.5 138.5t133.5 40.5zM338 425q-51 0 -71 -32.5t-22 -99.5v-16q0 -72 21 -111t74 -39q85 0 85 152q0 72 -21 109t-66 37z" />
    <glyph glyph-name="uni01A6" unicode="&#x1a6;" horiz-adv-x="674" 
d="M488 -100l-167 266h-62v-166h-171v714h171v-100h45q148 0 219 -54t71 -164q0 -49 -19 -85t-48.5 -61.5t-61.5 -41.5l213 -308h-190zM290 306q72 0 101 22t29 64q0 43 -30.5 62t-98.5 19h-32v-167h31z" />
    <glyph glyph-name="uni01A7" unicode="&#x1a7;" horiz-adv-x="552" 
d="M284 724q106 0 167 -52t61 -150q0 -66 -26.5 -107.5t-67 -67.5t-82.5 -44q-56 -25 -92 -49t-36 -59q0 -29 20.5 -46t66.5 -17q53 0 105.5 13t107.5 35v-142q-45 -22 -102.5 -35t-120.5 -13q-127 0 -185.5 55.5t-58.5 150.5q0 80 42 132t124 89q73 31 105 53t32 57
q0 25 -18.5 39.5t-56.5 14.5q-39 0 -79 -11t-91 -32l-50 134q53 24 111.5 38t123.5 14z" />
    <glyph glyph-name="uni01A8" unicode="&#x1a8;" horiz-adv-x="503" 
d="M257 559q59 0 106.5 -16t75.5 -50t28 -87q0 -68 -34.5 -106t-112.5 -70q-56 -22 -80 -36t-29.5 -23.5t-5.5 -18.5q0 -40 74 -40q37 0 82.5 10t91.5 35v-127q-44 -22 -88 -31t-98 -9q-113 0 -171 42.5t-58 123.5q0 70 39 111.5t110 68.5q49 19 72.5 30.5t31 20t7.5 17.5
q0 15 -16 23t-42 8q-36 0 -70.5 -11.5t-76.5 -29.5l-45 120q51 24 104 34.5t105 10.5z" />
    <glyph glyph-name="uni01A9" unicode="&#x1a9;" horiz-adv-x="593" 
d="M27 0v128l215 244l-207 215v127h526v-139l-224 1q-18 0 -42.5 0.5t-53.5 4.5l167 -181v-39l-198 -227q67 6 138 6h221v-140h-542z" />
    <glyph glyph-name="uni01AA" unicode="&#x1aa;" horiz-adv-x="430" 
d="M142 771q99 0 139.5 -51.5t40.5 -137.5v-636q0 -26 16 -39t43 -13q26 0 50 5t50 14v-126q-25 -11 -61.5 -19t-78.5 -8q-53 0 -96 16t-68 56.5t-25 114.5v581h-15q-76 0 -111 35t-35 90q0 47 37.5 82.5t113.5 35.5zM118 681q-12 0 -20 -8.5t-8 -20.5q0 -15 12.5 -27.5
t35.5 -12.5h14v28q0 20 -9.5 30.5t-24.5 10.5z" />
    <glyph glyph-name="uni01AB" unicode="&#x1ab;" horiz-adv-x="455" 
d="M272 -240q-48 0 -84 13v117q10 -3 22 -6t24 -3q24 0 35.5 11.5t11.5 43.5v54h-13q-46 0 -85.5 15.5t-64 56t-24.5 114.5v246h-69v71l83 56l47 113h109v-113h153v-127h-153v-238q0 -32 17 -45.5t44 -13.5q24 0 48 5t48 14v-207q0 -94 -37.5 -135.5t-111.5 -41.5z" />
    <glyph glyph-name="uni01AC" unicode="&#x1ac;" horiz-adv-x="637" 
d="M256 0v571h-63q-27 0 -40.5 -15t-13.5 -36q0 -15 3.5 -25.5t6.5 -18.5h-132q-4 8 -8.5 23t-4.5 36q0 48 18 88.5t60.5 65.5t115.5 25h417v-143h-187v-571h-172z" />
    <glyph glyph-name="uni01AD" unicode="&#x1ad;" horiz-adv-x="455" 
d="M297 765q30 0 56.5 -6t40.5 -11v-129q-11 3 -32.5 7t-43.5 4q-54 0 -54 -48v-33h153v-127h-153v-247q0 -26 17 -38t44 -12q24 0 48 5t48 14v-126q-25 -12 -63.5 -20t-84.5 -8q-50 0 -90.5 15.5t-64.5 56t-24 114.5v246h-69v71l69 47v46q0 98 55.5 138.5t147.5 40.5z" />
    <glyph glyph-name="uni01AE" unicode="&#x1ae;" horiz-adv-x="591" 
d="M397 -252q-88 0 -138 43.5t-50 144.5v635h-186v143h544v-143h-186v-632q0 -30 14.5 -43.5t36.5 -13.5q17 0 32 3.5t23 6.5v-129q-12 -5 -37.5 -10t-52.5 -5z" />
    <glyph glyph-name="Uhorn" unicode="&#x1af;" horiz-adv-x="892" 
d="M677 619q36 15 52 53.5t16 87.5h164l7 -11q-12 -56 -34.5 -103.5t-70 -80.5t-134.5 -45v-268q0 -74 -34 -133.5t-101.5 -94t-168.5 -34.5q-143 0 -218.5 72.5t-75.5 191.5v460h171v-444q0 -77 32 -107t96 -30q67 0 98 33t31 105v443h170v-95z" />
    <glyph glyph-name="uhorn" unicode="&#x1b0;" horiz-adv-x="783" 
d="M824 620q-11 -57 -33 -104.5t-68.5 -80.5t-131.5 -46v-389h-128l-22 70h-11q-26 -42 -71.5 -61t-95.5 -19q-84 0 -138.5 48t-54.5 153v358h169v-311q0 -56 18.5 -85t59.5 -29q61 0 83 45t22 130v250h169v-60q32 13 47 52t15 90h164z" />
    <glyph glyph-name="Upsilonlatin" unicode="&#x1b1;" horiz-adv-x="788" 
d="M394 133q77 0 122 47t45 142q0 80 -23.5 142t-92.5 93v157h319v-144h-177q69 -37 110 -114t41 -173q0 -89 -42 -155t-119 -102t-183 -36q-105 0 -182 36.5t-119.5 103t-42.5 154.5q0 99 42.5 174.5t111.5 111.5h-180v144h322v-157q-47 -20 -72.5 -55.5t-36 -82
t-10.5 -98.5q0 -94 45 -141t122 -47z" />
    <glyph glyph-name="uni01B2" unicode="&#x1b2;" horiz-adv-x="756" 
d="M375 -10q-144 0 -220 74t-76 202v448h171v-429q0 -82 32.5 -117t96.5 -35q67 0 97.5 36.5t30.5 116.5v244q0 29 -14.5 40.5t-34.5 11.5q-37 0 -69 -16v133q20 10 52 17.5t68 7.5q85 0 126.5 -42.5t41.5 -116.5v-298q0 -82 -33.5 -144t-100 -97.5t-168.5 -35.5z" />
    <glyph glyph-name="uni01B3" unicode="&#x1b3;" horiz-adv-x="651" 
d="M236 0v273l-236 441h185l136 -281l72 160q28 61 64 96t99 35q24 0 47.5 -6t37.5 -13v-132q-19 9 -38 9q-17 0 -29.5 -6t-27.5 -28.5t-39 -70.5l-101 -199v-278h-170z" />
    <glyph glyph-name="uni01B4" unicode="&#x1b4;" horiz-adv-x="640" 
d="M543 560q23 0 49.5 -5.5t41.5 -12.5v-129q-21 5 -35 5q-16 0 -30 -8.5t-28 -32t-31 -69.5l-133 -369q-31 -85 -94 -132t-156 -47q-19 0 -40 2.5t-34 5.5v133q8 -2 25.5 -3.5t30.5 -1.5q42 0 72 22t44 66l7 21l-220 544h185l81 -245q5 -17 12.5 -47t12.5 -65h3q4 20 11 49
t17 57l47 130q12 32 31.5 62.5t51.5 50t79 19.5z" />
    <glyph glyph-name="uni01B5" unicode="&#x1b5;" horiz-adv-x="579" 
d="M61 424h180l106 149h-320v141h523v-110l-127 -180h81v-141h-180l-100 -142h335v-141h-538v110l122 173h-82v141z" />
    <glyph glyph-name="uni01B6" unicode="&#x1b6;" horiz-adv-x="497" 
d="M459 549v-106l-82 -111h73v-108h-154l-70 -95h243v-129h-443v98l94 126h-73v108h155l66 88h-228v129h419z" />
    <glyph glyph-name="uni01B7" unicode="&#x1b7;" horiz-adv-x="611" 
d="M532 714v-107l-204 -188q117 -6 179 -60.5t62 -145.5q0 -64 -33.5 -114.5t-103 -79.5t-176.5 -29q-63 0 -119.5 10t-104.5 29v146q50 -24 108 -35.5t104 -11.5q59 0 92 12t46.5 33t13.5 48q0 25 -17.5 43.5t-61 29t-119.5 10.5h-58v117l164 153h-247v140h475z" />
    <glyph glyph-name="uni01B8" unicode="&#x1b8;" horiz-adv-x="597" 
d="M344 -10q-153 0 -230 60t-77 155q0 99 61 151.5t172 63.5l-200 186v108h477v-141h-244l159 -149v-119h-57q-75 0 -118 -11t-61 -30t-18 -45q0 -45 34 -69.5t118 -24.5q47 0 104.5 12.5t107.5 35.5v-144q-49 -20 -104.5 -29.5t-123.5 -9.5z" />
    <glyph glyph-name="uni01B9" unicode="&#x1b9;" horiz-adv-x="606" 
d="M332 -240q-99 0 -164 31.5t-96.5 86t-32.5 125.5q0 61 23 112.5t73.5 87.5t135.5 51l-205 185v110h492v-129h-283l183 -169v-120h-57q-76 0 -117 -16t-57 -43t-16 -59q0 -31 13.5 -57.5t45 -43t86.5 -16.5q45 0 101.5 12.5t105.5 36.5v-143q-48 -20 -104 -31t-127 -11z
" />
    <glyph glyph-name="uni01BA" unicode="&#x1ba;" horiz-adv-x="571" 
d="M250 -240q-62 0 -110 18t-75.5 54.5t-27.5 91.5q0 68 43.5 113t150.5 55q66 6 94.5 17t28.5 43q0 30 -32 41t-107 11h-66v100l144 122h-240v123h447v-106l-170 -131q53 -4 97.5 -20.5t71.5 -51t27 -92.5q0 -34 -10 -64t-37 -54.5t-78 -41t-134 -22.5q-43 -3 -64.5 -11.5
t-21.5 -28.5q0 -23 24.5 -33t66.5 -10q68 0 121.5 14.5t89.5 26.5v-123q-38 -16 -100 -28.5t-133 -12.5z" />
    <glyph glyph-name="uni01BB" unicode="&#x1bb;" horiz-adv-x="570" 
d="M266 763q73 0 126 -28t81.5 -75t28.5 -104q0 -37 -7.5 -69t-25.5 -64h63v-108h-141l-171 -179v-8h311v-128h-510v125l180 190h-168v108h259q25 31 32 61.5t7 61.5q0 35 -23 58.5t-61 23.5q-44 0 -77.5 -21t-64.5 -52l-82 102q20 20 52 45t79 43t112 18z" />
    <glyph glyph-name="uni01BC" unicode="&#x1bc;" horiz-adv-x="593" 
d="M239 -10q-64 0 -120.5 11t-90.5 28v146q23 -12 57 -22.5t72 -16.5t72 -6q68 0 110 21.5t42 73.5q0 51 -34 73t-103 22h-122v249h-98v145h510v-145h-251v-112h20q113 0 182 -55t69 -165q0 -112 -75.5 -179.5t-239.5 -67.5z" />
    <glyph glyph-name="uni01BD" unicode="&#x1bd;" horiz-adv-x="578" 
d="M242 -10q-60 0 -114.5 9.5t-85.5 23.5v137q21 -10 54 -19.5t72 -15t76 -5.5q129 2 129 59q0 29 -34 41t-95 12h-111v191h-89v126h474v-126h-231v-79h26q104 0 164 -38.5t60 -128.5q0 -85 -70.5 -136t-224.5 -51z" />
    <glyph glyph-name="uni01BE" unicode="&#x1be;" horiz-adv-x="507" 
d="M231 -10q-34 0 -71 4.5t-70.5 13t-55.5 19.5v136q21 -12 52.5 -23.5t66.5 -19.5t67 -8q46 0 66 11.5t20 35.5q0 21 -18 32.5t-46 26.5q-35 18 -60.5 37.5t-39.5 50t-14 80.5v36h-98v71l100 56l47 113h110v-113h134v-127h-134v-27q0 -25 11 -38.5t40 -28.5q36 -20 66 -40
t48.5 -49t18.5 -74q0 -48 -23.5 -88t-76 -63.5t-140.5 -23.5z" />
    <glyph glyph-name="uni01BF" unicode="&#x1bf;" horiz-adv-x="641" 
d="M396 559q92 0 148.5 -67.5t56.5 -186.5q0 -79 -36 -148.5t-114.5 -116t-205.5 -58.5v-222h-169v789h137l24 -68h8q21 31 57 54.5t94 23.5zM339 423q-51 0 -72.5 -33.5t-21.5 -97.5v-174q82 10 132.5 58.5t50.5 129.5q0 52 -22 84.5t-67 32.5z" />
    <glyph glyph-name="uni01C0" unicode="&#x1c0;" horiz-adv-x="321" 
d="M98 0v760h125v-760h-125z" />
    <glyph glyph-name="uni01C1" unicode="&#x1c1;" horiz-adv-x="588" 
d="M98 0v760h125v-760h-125zM365 0v760h125v-760h-125z" />
    <glyph glyph-name="uni01C2" unicode="&#x1c2;" horiz-adv-x="516" 
d="M320 760v-214h150v-115h-150v-80h150v-115h-150v-236h-125v236h-148v115h148v80h-148v115h148v214h125z" />
    <glyph glyph-name="uni01C3" unicode="&#x1c3;" horiz-adv-x="288" 
d="M214 244h-139l-25 470h189zM50 75q0 49 27.5 68.5t66.5 19.5q38 0 65 -19.5t27 -68.5q0 -47 -27 -67.5t-65 -20.5q-39 0 -66.5 20.5t-27.5 67.5z" />
    <glyph glyph-name="uni01C4" unicode="&#x1c4;" horiz-adv-x="1321" 
d="M682 368q0 -123 -46 -204.5t-132 -122.5t-205 -41h-215v714h235q170 0 266.5 -88.5t96.5 -257.5zM506 362q0 109 -46 161t-136 52h-70v-435h55q101 0 149 55.5t48 166.5zM1296 0h-542v108l327 467h-319v139h526v-108l-327 -467h335v-139zM942 771q-14 23 -36.5 50
t-46 52.5t-42.5 44.5v13h111q27 -16 52.5 -35.5t52.5 -44.5q25 25 52.5 45t53.5 35h111v-13q-18 -18 -41.5 -43.5t-46.5 -53t-37 -50.5h-183z" />
    <glyph glyph-name="uni01C5" unicode="&#x1c5;" horiz-adv-x="1234" 
d="M682 368q0 -123 -46 -204.5t-132 -122.5t-205 -41h-215v714h235q170 0 266.5 -88.5t96.5 -257.5zM506 362q0 109 -46 161t-136 52h-70v-435h55q101 0 149 55.5t48 166.5zM1206 0h-443v98l242 322h-228v129h419v-106l-233 -314h243v-129zM896 606q-14 23 -36.5 50
t-46 52.5t-42.5 44.5v13h111q27 -16 52.5 -35.5t52.5 -44.5q25 25 52.5 45t53.5 35h111v-13q-18 -18 -41.5 -43.5t-46.5 -53t-37 -50.5h-183z" />
    <glyph glyph-name="uni01C6" unicode="&#x1c6;" horiz-adv-x="1134" 
d="M245 -10q-89 0 -145 72t-56 212q0 141 57 213t149 72q58 0 94 -23t58 -57h4q-3 18 -6.5 51.5t-3.5 66.5v163h169v-760h-128l-34 71h-7q-21 -34 -57 -57.5t-94 -23.5zM309 124q54 0 76.5 33t23.5 100v15q0 73 -21.5 112t-80.5 39q-43 0 -68 -38t-25 -114q0 -75 25.5 -111
t69.5 -36zM1107 0h-443v98l242 322h-228v129h419v-106l-233 -314h243v-129zM797 606q-14 23 -36.5 50t-46 52.5t-42.5 44.5v13h111q27 -16 52.5 -35.5t52.5 -44.5q25 25 52.5 45t53.5 35h111v-13q-18 -18 -41.5 -43.5t-46.5 -53t-37 -50.5h-183z" />
    <glyph glyph-name="uni01C7" unicode="&#x1c7;" horiz-adv-x="914" 
d="M84 0v714h170v-575h283v-139h-453zM591 -216q-31 0 -54.5 3t-39.5 7v137l32.5 -6.5t38.5 -3.5q45 0 68 28t23 100v665h171v-657q0 -99 -30.5 -159t-84.5 -87t-124 -27z" />
    <glyph glyph-name="uni01C8" unicode="&#x1c8;" horiz-adv-x="887" 
d="M84 0v714h170v-575h283v-139h-453zM640 689q0 46 26.5 62t63.5 16t64 -16t27 -62q0 -45 -27 -61.5t-64 -16.5t-63.5 16.5t-26.5 61.5zM615 -240q-24 0 -52.5 3.5t-47.5 8.5v132q17 -5 31.5 -7t33.5 -2q27 0 46 16.5t19 66.5v571h169v-602q0 -50 -19.5 -92.5t-63 -68.5
t-116.5 -26z" />
    <glyph glyph-name="uni01C9" unicode="&#x1c9;" horiz-adv-x="627" 
d="M241 0h-169v760h169v-760zM380 689q0 46 26.5 62t63.5 16t64 -16t27 -62q0 -45 -27 -61.5t-64 -16.5t-63.5 16.5t-26.5 61.5zM355 -240q-24 0 -52.5 3.5t-47.5 8.5v132q17 -5 31.5 -7t33.5 -2q27 0 46 16.5t19 66.5v571h169v-602q0 -50 -19.5 -92.5t-63 -68.5t-116.5 -26
z" />
    <glyph glyph-name="uni01CA" unicode="&#x1ca;" horiz-adv-x="1163" 
d="M739 0h-220l-288 523h-4q2 -43 4.5 -95.5t4.5 -97.5v-330h-152v714h219l287 -517h3q-2 43 -4 92.5t-3 93.5v331h153v-714zM841 -216q-31 0 -54.5 3t-39.5 7v137l32.5 -6.5t38.5 -3.5q45 0 68 28t23 100v665h171v-657q0 -99 -30.5 -159t-84.5 -87t-124 -27z" />
    <glyph glyph-name="uni01CB" unicode="&#x1cb;" horiz-adv-x="1136" 
d="M739 0h-220l-288 523h-4q2 -43 4.5 -95.5t4.5 -97.5v-330h-152v714h219l287 -517h3q-2 43 -4 92.5t-3 93.5v331h153v-714zM890 689q0 46 26.5 62t63.5 16t64 -16t27 -62q0 -45 -27 -61.5t-64 -16.5t-63.5 16.5t-26.5 61.5zM865 -240q-24 0 -52.5 3.5t-47.5 8.5v132
q17 -5 31.5 -7t33.5 -2q27 0 46 16.5t19 66.5v571h169v-602q0 -50 -19.5 -92.5t-63 -68.5t-116.5 -26z" />
    <glyph glyph-name="uni01CC" unicode="&#x1cc;" horiz-adv-x="977" 
d="M399 559q87 0 140.5 -47.5t53.5 -153.5v-358h-168v311q0 57 -19 86t-60 29q-61 0 -83 -45.5t-22 -130.5v-250h-169v549h128l23 -71h8q26 40 70 60.5t98 20.5zM730 689q0 46 26.5 62t63.5 16t64 -16t27 -62q0 -45 -27 -61.5t-64 -16.5t-63.5 16.5t-26.5 61.5zM705 -240
q-24 0 -52.5 3.5t-47.5 8.5v132q17 -5 31.5 -7t33.5 -2q27 0 46 16.5t19 66.5v571h169v-602q0 -50 -19.5 -92.5t-63 -68.5t-116.5 -26z" />
    <glyph glyph-name="uni01CD" unicode="&#x1cd;" horiz-adv-x="707" 
d="M521 0l-44 153h-247l-44 -153h-186l243 717h218l246 -717h-186zM397 438q-5 18 -13.5 48.5t-17 62.5t-13.5 54q-4 -22 -12.5 -54.5t-16.5 -63t-13 -47.5l-42 -143h170zM264 771q-14 23 -36.5 50t-46 52.5t-42.5 44.5v13h111q27 -16 52.5 -35.5t52.5 -44.5q25 25 52.5 45
t53.5 35h111v-13q-18 -18 -41.5 -43.5t-46.5 -53t-37 -50.5h-183z" />
    <glyph glyph-name="uni01CE" unicode="&#x1ce;" horiz-adv-x="613" 
d="M318 560q107 0 166 -50t59 -146v-364h-117l-33 74h-4q-35 -45 -74 -64.5t-107 -19.5q-73 0 -121 43t-48 133q0 87 61.5 129.5t180.5 47.5l94 3v16q0 40 -20.5 58t-56.5 18t-75 -11.5t-79 -28.5l-51 112q45 24 102 37t123 13zM324 248q-63 -2 -88 -22.5t-25 -55.5
q0 -31 18 -45t46 -14q42 0 71 25.5t29 69.5v44zM217 606q-14 23 -36.5 50t-46 52.5t-42.5 44.5v13h111q27 -16 52.5 -35.5t52.5 -44.5q25 25 52.5 45t53.5 35h111v-13q-18 -18 -41.5 -43.5t-46.5 -53t-37 -50.5h-183z" />
    <glyph glyph-name="uni01CF" unicode="&#x1cf;" horiz-adv-x="413" 
d="M380 0h-347v97l88 37v446l-88 37v97h347v-97l-88 -37v-446l88 -37v-97zM117 771q-14 23 -36.5 50t-46 52.5t-42.5 44.5v13h111q27 -16 52.5 -35.5t52.5 -44.5q25 25 52.5 45t53.5 35h111v-13q-18 -18 -41.5 -43.5t-46.5 -53t-37 -50.5h-183z" />
    <glyph glyph-name="uni01D0" unicode="&#x1d0;" horiz-adv-x="314" 
d="M241 0h-168v549h168v-549zM68 606q-14 23 -36.5 50t-46 52.5t-42.5 44.5v13h111q27 -16 52.5 -35.5t52.5 -44.5q25 25 52.5 45t53.5 35h111v-13q-18 -18 -41.5 -43.5t-46.5 -53t-37 -50.5h-183z" />
    <glyph glyph-name="uni01D1" unicode="&#x1d1;" horiz-adv-x="796" 
d="M741 358q0 -111 -36 -193.5t-112 -128.5t-195 -46q-118 0 -194 46t-112.5 129t-36.5 194t36.5 193t112.5 127.5t195 45.5t194.5 -45.5t111.5 -128t36 -193.5zM234 358q0 -105 38.5 -165t125.5 -60q89 0 126.5 60t37.5 165t-37.5 165.5t-125.5 60.5t-126.5 -60.5
t-38.5 -165.5zM309 771q-14 23 -36.5 50t-46 52.5t-42.5 44.5v13h111q27 -16 52.5 -35.5t52.5 -44.5q25 25 52.5 45t53.5 35h111v-13q-18 -18 -41.5 -43.5t-46.5 -53t-37 -50.5h-183z" />
    <glyph glyph-name="uni01D2" unicode="&#x1d2;" horiz-adv-x="627" 
d="M583 276q0 -138 -72.5 -212t-198.5 -74q-78 0 -138.5 33.5t-95 97t-34.5 155.5q0 136 72.5 209.5t198.5 73.5q78 0 138.5 -33t95 -96t34.5 -154zM215 276q0 -77 23 -116.5t76 -39.5q52 0 75 39.5t23 116.5q0 76 -23 114.5t-76 38.5q-52 0 -75 -38.5t-23 -114.5zM225 606
q-14 23 -36.5 50t-46 52.5t-42.5 44.5v13h111q27 -16 52.5 -35.5t52.5 -44.5q25 25 52.5 45t53.5 35h111v-13q-18 -18 -41.5 -43.5t-46.5 -53t-37 -50.5h-183z" />
    <glyph glyph-name="uni01D3" unicode="&#x1d3;" horiz-adv-x="756" 
d="M677 267q0 -82 -33.5 -144t-100 -97.5t-168.5 -35.5q-144 0 -220 74t-76 202v448h171v-429q0 -82 32.5 -117t96.5 -35q67 0 97.5 36.5t30.5 116.5v428h170v-447zM289 771q-14 23 -36.5 50t-46 52.5t-42.5 44.5v13h111q27 -16 52.5 -35.5t52.5 -44.5q25 25 52.5 45
t53.5 35h111v-13q-18 -18 -41.5 -43.5t-46.5 -53t-37 -50.5h-183z" />
    <glyph glyph-name="uni01D4" unicode="&#x1d4;" horiz-adv-x="663" 
d="M591 549v-549h-128l-22 70h-10q-26 -42 -71 -61t-96 -19q-85 0 -139.5 48t-54.5 153v358h169v-311q0 -56 18.5 -85t59.5 -29q61 0 83 45t22 130v250h169zM242 606q-14 23 -36.5 50t-46 52.5t-42.5 44.5v13h111q27 -16 52.5 -35.5t52.5 -44.5q25 25 52.5 45t53.5 35h111
v-13q-18 -18 -41.5 -43.5t-46.5 -53t-37 -50.5h-183z" />
    <glyph glyph-name="uni01D5" unicode="&#x1d5;" horiz-adv-x="756" 
d="M550 1025v-99h-341v99h341zM278 891q31 0 50 -16t19 -48q0 -31 -19 -47.5t-50 -16.5q-32 0 -50 16.5t-18 47.5q0 32 18 48t50 16zM478 891q30 0 49.5 -16t19.5 -48q0 -31 -19.5 -47.5t-49.5 -16.5q-31 0 -49.5 16.5t-18.5 47.5q0 32 18.5 48t49.5 16zM677 267
q0 -82 -33.5 -144t-100 -97.5t-168.5 -35.5q-144 0 -220 74t-76 202v448h171v-429q0 -82 32.5 -117t96.5 -35q67 0 97.5 36.5t30.5 116.5v428h170v-447z" />
    <glyph glyph-name="uni01D6" unicode="&#x1d6;" horiz-adv-x="663" 
d="M503 861v-100h-341v100h341zM231 726q31 0 50 -16t19 -48q0 -31 -19 -47t-50 -16t-49.5 16t-18.5 47q0 32 18.5 48t49.5 16zM431 726q30 0 49.5 -16t19.5 -48q0 -31 -19.5 -47t-49.5 -16q-31 0 -49 16t-18 47q0 32 18 48t49 16zM591 549v-549h-128l-22 70h-10
q-26 -42 -71 -61t-96 -19q-85 0 -139.5 48t-54.5 153v358h169v-311q0 -56 18.5 -85t59.5 -29q61 0 83 45t22 130v250h169z" />
    <glyph glyph-name="uni01D7" unicode="&#x1d7;" horiz-adv-x="756" 
d="M310 917q25 28 48 63t43 69h179v-10q-19 -21 -47 -46t-57 -49t-54 -40h-112v13zM278 763q-32 0 -50 16.5t-18 47.5q0 32 18 48t50 16q31 0 50 -16t19 -48q0 -31 -19 -47.5t-50 -16.5zM478 763q-31 0 -49.5 16.5t-18.5 47.5q0 32 18.5 48t49.5 16q30 0 49.5 -16t19.5 -48
q0 -31 -19.5 -47.5t-49.5 -16.5zM677 267q0 -82 -33.5 -144t-100 -97.5t-168.5 -35.5q-144 0 -220 74t-76 202v448h171v-429q0 -82 32.5 -117t96.5 -35q67 0 97.5 36.5t30.5 116.5v428h170v-447z" />
    <glyph glyph-name="uni01D8" unicode="&#x1d8;" horiz-adv-x="663" 
d="M264 752q25 28 48 63t42 69h179v-10q-19 -20 -46.5 -45.5t-57 -49.5t-53.5 -40h-112v13zM231 599q-31 0 -49.5 16t-18.5 47q0 32 18.5 48t49.5 16t50 -16t19 -48q0 -31 -19 -47t-50 -16zM431 599q-31 0 -49 16t-18 47q0 32 18 48t49 16q30 0 49.5 -16t19.5 -48
q0 -31 -19.5 -47t-49.5 -16zM591 549v-549h-128l-22 70h-10q-26 -42 -71 -61t-96 -19q-85 0 -139.5 48t-54.5 153v358h169v-311q0 -56 18.5 -85t59.5 -29q61 0 83 45t22 130v250h169z" />
    <glyph glyph-name="uni01D9" unicode="&#x1d9;" horiz-adv-x="756" 
d="M305 910q-24 34 -53.5 65t-58.5 59v13h71q31 -14 60 -31.5t55 -39.5q26 22 55.5 39.5t58.5 31.5h71v-13q-26 -26 -56.5 -58t-55.5 -66h-147zM278 763q-32 0 -50 16.5t-18 47.5q0 32 18 48t50 16q31 0 50 -16t19 -48q0 -31 -19 -47.5t-50 -16.5zM478 763q-31 0 -49.5 16.5
t-18.5 47.5q0 32 18.5 48t49.5 16q30 0 49.5 -16t19.5 -48q0 -31 -19.5 -47.5t-49.5 -16.5zM677 267q0 -82 -33.5 -144t-100 -97.5t-168.5 -35.5q-144 0 -220 74t-76 202v448h171v-429q0 -82 32.5 -117t96.5 -35q67 0 97.5 36.5t30.5 116.5v428h170v-447z" />
    <glyph glyph-name="uni01DA" unicode="&#x1da;" horiz-adv-x="663" 
d="M258 745q-24 34 -53 65t-59 59v13h71q32 -14 61 -31.5t54 -39.5q26 22 55.5 39.5t59.5 31.5h70v-13q-26 -26 -56.5 -58t-54.5 -66h-148zM231 599q-31 0 -49.5 16t-18.5 47q0 32 18.5 48t49.5 16t50 -16t19 -48q0 -31 -19 -47t-50 -16zM431 599q-31 0 -49 16t-18 47
q0 32 18 48t49 16q30 0 49.5 -16t19.5 -48q0 -31 -19.5 -47t-49.5 -16zM591 549v-549h-128l-22 70h-10q-26 -42 -71 -61t-96 -19q-85 0 -139.5 48t-54.5 153v358h169v-311q0 -56 18.5 -85t59.5 -29q61 0 83 45t22 130v250h169z" />
    <glyph glyph-name="uni01DB" unicode="&#x1db;" horiz-adv-x="756" 
d="M356 1049q20 -34 43 -69t48 -63v-13h-113q-24 16 -53.5 40t-57 49t-46.5 46v10h179zM278 891q31 0 50 -16t19 -48q0 -31 -19 -47.5t-50 -16.5q-32 0 -50 16.5t-18 47.5q0 32 18 48t50 16zM478 891q30 0 49.5 -16t19.5 -48q0 -31 -19.5 -47.5t-49.5 -16.5
q-31 0 -49.5 16.5t-18.5 47.5q0 32 18.5 48t49.5 16zM677 267q0 -82 -33.5 -144t-100 -97.5t-168.5 -35.5q-144 0 -220 74t-76 202v448h171v-429q0 -82 32.5 -117t96.5 -35q67 0 97.5 36.5t30.5 116.5v428h170v-447z" />
    <glyph glyph-name="uni01DC" unicode="&#x1dc;" horiz-adv-x="663" 
d="M309 884q20 -34 43 -69t48 -63v-13h-112q-25 16 -54 40t-57 49.5t-47 45.5v10h179zM231 726q31 0 50 -16t19 -48q0 -31 -19 -47t-50 -16t-49.5 16t-18.5 47q0 32 18.5 48t49.5 16zM431 726q30 0 49.5 -16t19.5 -48q0 -31 -19.5 -47t-49.5 -16q-31 0 -49 16t-18 47
q0 32 18 48t49 16zM591 549v-549h-128l-22 70h-10q-26 -42 -71 -61t-96 -19q-85 0 -139.5 48t-54.5 153v358h169v-311q0 -56 18.5 -85t59.5 -29q61 0 83 45t22 130v250h169z" />
    <glyph glyph-name="uni01DD" unicode="&#x1dd;" horiz-adv-x="603" 
d="M275 559q82 0 146.5 -30t101.5 -92t37 -159t-33.5 -161t-93 -95.5t-138.5 -31.5q-117 0 -184.5 64t-67.5 186v78h346q-2 54 -35 86.5t-94 32.5q-52 0 -95 -10.5t-89 -32.5v125q40 19 86 29.5t113 10.5zM198 210q1 -44 24 -73.5t69 -29.5q39 0 65 25t30 78h-188z" />
    <glyph glyph-name="uni01DE" unicode="&#x1de;" horiz-adv-x="707" 
d="M525 1025v-99h-341v99h341zM253 891q30 0 49.5 -16t19.5 -48q0 -31 -19.5 -47.5t-49.5 -16.5q-32 0 -50 16.5t-18 47.5q0 32 18 48t50 16zM453 891q30 0 49.5 -16t19.5 -48q0 -31 -19.5 -47.5t-49.5 -16.5q-32 0 -50 16.5t-18 47.5q0 32 18 48t50 16zM521 0l-44 153h-247
l-44 -153h-186l243 717h218l246 -717h-186zM397 438q-5 18 -13.5 48.5t-17 62.5t-13.5 54q-4 -22 -12.5 -54.5t-16.5 -63t-13 -47.5l-42 -143h170z" />
    <glyph glyph-name="uni01DF" unicode="&#x1df;" horiz-adv-x="613" 
d="M478 861v-100h-341v100h341zM206 726q31 0 50 -16t19 -48q0 -31 -19 -47t-50 -16t-49.5 16t-18.5 47q0 32 18.5 48t49.5 16zM406 726q30 0 49.5 -16t19.5 -48q0 -31 -19.5 -47t-49.5 -16q-31 0 -49.5 16t-18.5 47q0 32 18.5 48t49.5 16zM318 560q107 0 166 -50t59 -146
v-364h-117l-33 74h-4q-35 -45 -74 -64.5t-107 -19.5q-73 0 -121 43t-48 133q0 87 61.5 129.5t180.5 47.5l94 3v16q0 40 -20.5 58t-56.5 18t-75 -11.5t-79 -28.5l-51 112q45 24 102 37t123 13zM324 248q-63 -2 -88 -22.5t-25 -55.5q0 -31 18 -45t46 -14q42 0 71 25.5t29 69.5
v44z" />
    <glyph glyph-name="uni01E0" unicode="&#x1e0;" horiz-adv-x="707" 
d="M524 1027v-100h-341v100h341zM353 891q30 0 49.5 -16.5t19.5 -48.5q0 -30 -19.5 -46.5t-49.5 -16.5q-31 0 -49.5 16.5t-18.5 46.5q0 32 18.5 48.5t49.5 16.5zM521 0l-44 153h-247l-44 -153h-186l243 717h218l246 -717h-186zM397 438q-5 18 -13.5 48.5t-17 62.5t-13.5 54
q-4 -22 -12.5 -54.5t-16.5 -63t-13 -47.5l-42 -143h170z" />
    <glyph glyph-name="uni01E1" unicode="&#x1e1;" horiz-adv-x="613" 
d="M478 864v-100h-341v100h341zM306 728q31 0 50 -16.5t19 -48.5q0 -30 -19 -46.5t-50 -16.5t-49.5 16.5t-18.5 46.5q0 32 18.5 48.5t49.5 16.5zM318 560q107 0 166 -50t59 -146v-364h-117l-33 74h-4q-35 -45 -74 -64.5t-107 -19.5q-73 0 -121 43t-48 133q0 87 61.5 129.5
t180.5 47.5l94 3v16q0 40 -20.5 58t-56.5 18t-75 -11.5t-79 -28.5l-51 112q45 24 102 37t123 13zM324 248q-63 -2 -88 -22.5t-25 -55.5q0 -31 18 -45t46 -14q42 0 71 25.5t29 69.5v44z" />
    <glyph glyph-name="uni01E2" unicode="&#x1e2;" horiz-adv-x="949" 
d="M895 0h-425v153h-228l-62 -153h-182l314 714h583v-138h-254v-137h237v-138h-237v-161h254v-140zM299 296h171v273h-59zM687 880v-109h-342v109h342z" />
    <glyph glyph-name="uni01E3" unicode="&#x1e3;" horiz-adv-x="925" 
d="M647 559q69 0 122.5 -28.5t83.5 -84t30 -138.5v-77h-347q2 -53 35.5 -85.5t96.5 -32.5q44 0 89.5 9.5t92.5 32.5v-125q-41 -21 -86 -30.5t-112 -9.5q-65 0 -120 24t-91 73q-32 -35 -61.5 -56.5t-68.5 -31t-97 -9.5q-46 0 -86 19t-64.5 58.5t-24.5 99.5q0 90 63 130.5
t176 45.5l92 3v26q0 36 -21 51t-53 15q-37 0 -75.5 -10.5t-75.5 -27.5l-51 111q93 49 213 49q105 0 166 -56q33 28 74.5 41.5t99.5 13.5zM640 442q-43 0 -70 -24t-31 -78h189q0 43 -22.5 72.5t-65.5 29.5zM322 248q-63 -2 -86.5 -23.5t-23.5 -56.5q0 -31 17 -44t45 -13
q40 0 68 25.5t28 69.5v44zM646 715v-109h-342v109h342z" />
    <glyph glyph-name="uni01E4" unicode="&#x1e4;" horiz-adv-x="724" 
d="M390 -10q-154 0 -243.5 89t-89.5 270q0 116 43.5 200t127 129.5t204.5 45.5q57 0 112.5 -12.5t99.5 -31.5l-54 -136q-30 15 -74.5 26t-88.5 11q-92 0 -142.5 -61t-50.5 -170q0 -119 41.5 -174t126.5 -55q22 0 39.5 2t34.5 6v40h-113v106h113v43h-118v115h286v-158h65
v-106h-65v-138q-53 -17 -114 -29t-140 -12z" />
    <glyph glyph-name="uni01E5" unicode="&#x1e5;" horiz-adv-x="641" 
d="M253 559q96 0 152 -76h4l13 66h143v-550h56v-85h-67q-24 -79 -91 -116.5t-178 -37.5q-58 0 -110 7t-101 25v124q101 -40 209 -40q35 0 61 9t35 29h-140v85h156v46q0 15 1 34.5t3 33.5h-4q-27 -42 -65 -60t-85 -18q-95 0 -149 65t-54 192q0 128 57 197.5t154 69.5z
M308 422q-93 0 -93 -130q0 -69 24 -100t71 -31t72 25t25 85v13q0 77 -24 107.5t-75 30.5z" />
    <glyph glyph-name="Gcaron" unicode="&#x1e6;" horiz-adv-x="731" 
d="M362 409h295v-377q-56 -19 -121.5 -30.5t-142.5 -11.5q-158 0 -248 92.5t-90 275.5q0 112 43 194.5t126.5 127t204.5 44.5q61 0 118.5 -12.5t101.5 -31.5l-55 -135q-35 17 -77 27.5t-88 10.5q-65 0 -109.5 -29.5t-66.5 -81t-22 -117.5q0 -103 42.5 -163.5t132.5 -60.5
q25 0 48 3t40 6v132h-132v137zM311 771q-14 23 -36.5 50t-46 52.5t-42.5 44.5v13h111q27 -16 52.5 -35.5t52.5 -44.5q25 25 52.5 45t53.5 35h111v-13q-18 -18 -41.5 -43.5t-46.5 -53t-37 -50.5h-183z" />
    <glyph glyph-name="gcaron" unicode="&#x1e7;" horiz-adv-x="638" 
d="M249 559q54 0 92 -21t63 -58h4l13 69h144v-550q0 -117 -70.5 -178t-212.5 -61q-62 0 -112 7t-98 25v137q51 -21 100 -31.5t110 -10.5q115 0 115 105v11q0 14 1.5 32.5t3.5 35.5h-5q-24 -39 -61.5 -60t-89.5 -21q-93 0 -147.5 74t-54.5 210q0 137 55.5 211t149.5 74z
M308 426q-93 0 -93 -155q0 -77 23.5 -113.5t71.5 -36.5q53 0 76 31t23 102v21q0 77 -22.5 114t-78.5 37zM224 606q-14 23 -36.5 50t-46 52.5t-42.5 44.5v13h111q27 -16 52.5 -35.5t52.5 -44.5q25 25 52.5 45t53.5 35h111v-13q-18 -18 -41.5 -43.5t-46.5 -53t-37 -50.5h-183z
" />
    <glyph glyph-name="uni01E8" unicode="&#x1e8;" horiz-adv-x="675" 
d="M675 0h-194l-165 288l-61 -40v-248h-171v714h171v-319q13 22 28.5 44t30.5 43l174 232h187l-238 -318zM267 771q-14 23 -36.5 50t-46 52.5t-42.5 44.5v13h111q27 -16 52.5 -35.5t52.5 -44.5q25 25 52.5 45t53.5 35h111v-13q-18 -18 -41.5 -43.5t-46.5 -53t-37 -50.5h-183
z" />
    <glyph glyph-name="uni01E9" unicode="&#x1e9;" horiz-adv-x="638" 
d="M241 439q0 -32 -2.5 -67.5t-6.5 -68.5h3q13 20 29.5 43t32.5 42l140 161h188l-205 -236l218 -313h-193l-141 210l-63 -49v-161h-169v760h169v-321zM71 817q-14 23 -36.5 50t-46 52.5t-42.5 44.5v13h111q27 -16 52.5 -35.5t52.5 -44.5q25 25 52.5 45t53.5 35h111v-13
q-18 -18 -41.5 -43.5t-46.5 -53t-37 -50.5h-183z" />
    <glyph glyph-name="uni01EA" unicode="&#x1ea;" horiz-adv-x="796" 
d="M741 358q0 -111 -36 -193.5t-112 -128.5t-195 -46q-118 0 -194 46t-112.5 129t-36.5 194t36.5 193t112.5 127.5t195 45.5t194.5 -45.5t111.5 -128t36 -193.5zM234 358q0 -105 38.5 -165t125.5 -60q89 0 126.5 60t37.5 165t-37.5 165.5t-125.5 60.5t-126.5 -60.5
t-38.5 -165.5zM407 -105q0 -19 10.5 -27.5t27.5 -8.5q15 0 31 3t26 7v-97q-16 -5 -35.5 -8.5t-44.5 -3.5q-57 0 -92.5 31t-35.5 81q0 79 112 149l69 -21q-33 -32 -50.5 -56t-17.5 -49z" />
    <glyph glyph-name="uni01EB" unicode="&#x1eb;" horiz-adv-x="627" 
d="M583 276q0 -138 -72.5 -212t-198.5 -74q-78 0 -138.5 33.5t-95 97t-34.5 155.5q0 136 72.5 209.5t198.5 73.5q78 0 138.5 -33t95 -96t34.5 -154zM215 276q0 -77 23 -116.5t76 -39.5q52 0 75 39.5t23 116.5q0 76 -23 114.5t-76 38.5q-52 0 -75 -38.5t-23 -114.5zM313 -105
q0 -19 10.5 -27.5t27.5 -8.5q15 0 31 3t26 7v-97q-16 -5 -35.5 -8.5t-44.5 -3.5q-57 0 -92.5 31t-35.5 81q0 79 112 149l69 -21q-33 -32 -50.5 -56t-17.5 -49z" />
    <glyph glyph-name="uni01EC" unicode="&#x1ec;" horiz-adv-x="796" 
d="M741 358q0 -111 -36 -193.5t-112 -128.5t-195 -46q-118 0 -194 46t-112.5 129t-36.5 194t36.5 193t112.5 127.5t195 45.5t194.5 -45.5t111.5 -128t36 -193.5zM234 358q0 -105 38.5 -165t125.5 -60q89 0 126.5 60t37.5 165t-37.5 165.5t-125.5 60.5t-126.5 -60.5
t-38.5 -165.5zM571 880v-109h-342v109h342zM406 -105q0 -19 10.5 -27.5t27.5 -8.5q15 0 31 3t26 7v-97q-16 -5 -35.5 -8.5t-44.5 -3.5q-57 0 -92.5 31t-35.5 81q0 79 112 149l69 -21q-33 -32 -50.5 -56t-17.5 -49z" />
    <glyph glyph-name="uni01ED" unicode="&#x1ed;" horiz-adv-x="627" 
d="M583 276q0 -138 -72.5 -212t-198.5 -74q-78 0 -138.5 33.5t-95 97t-34.5 155.5q0 136 72.5 209.5t198.5 73.5q78 0 138.5 -33t95 -96t34.5 -154zM215 276q0 -77 23 -116.5t76 -39.5q52 0 75 39.5t23 116.5q0 76 -23 114.5t-76 38.5q-52 0 -75 -38.5t-23 -114.5zM487 715
v-109h-342v109h342zM315 -105q0 -19 10.5 -27.5t27.5 -8.5q15 0 31 3t26 7v-97q-16 -5 -35.5 -8.5t-44.5 -3.5q-57 0 -92.5 31t-35.5 81q0 79 112 149l69 -21q-33 -32 -50.5 -56t-17.5 -49z" />
    <glyph glyph-name="uni01EE" unicode="&#x1ee;" horiz-adv-x="611" 
d="M532 714v-107l-204 -188q117 -6 179 -60.5t62 -145.5q0 -64 -33.5 -114.5t-103 -79.5t-176.5 -29q-63 0 -119.5 10t-104.5 29v146q50 -24 108 -35.5t104 -11.5q59 0 92 12t46.5 33t13.5 48q0 25 -17.5 43.5t-61 29t-119.5 10.5h-58v117l164 153h-247v140h475zM206 771
q-14 23 -36.5 50t-46 52.5t-42.5 44.5v13h111q27 -16 52.5 -35.5t52.5 -44.5q25 25 52.5 45t53.5 35h111v-13q-18 -18 -41.5 -43.5t-46.5 -53t-37 -50.5h-183z" />
    <glyph glyph-name="uni01EF" unicode="&#x1ef;" horiz-adv-x="593" 
d="M534 549v-106l-212 -192q82 -8 133 -40.5t75 -82.5t24 -111q0 -75 -33 -133t-102 -91t-176 -33q-69 0 -122.5 10t-100.5 29v144q48 -22 104.5 -35t108.5 -13q57 0 89.5 16.5t47 43.5t14.5 59q0 33 -15.5 60.5t-56 44t-117.5 16.5h-62v113l188 172h-277v129h490zM202 606
q-14 23 -36.5 50t-46 52.5t-42.5 44.5v13h111q27 -16 52.5 -35.5t52.5 -44.5q25 25 52.5 45t53.5 35h111v-13q-18 -18 -41.5 -43.5t-46.5 -53t-37 -50.5h-183z" />
    <glyph glyph-name="uni01F0" unicode="&#x1f0;" horiz-adv-x="314" 
d="M42 -240q-24 0 -52.5 3.5t-47.5 8.5v132q17 -5 31.5 -7t33.5 -2q27 0 46 16.5t19 66.5v571h169v-602q0 -50 -19.5 -92.5t-63 -68.5t-116.5 -26zM68 606q-14 23 -36.5 50t-46 52.5t-42.5 44.5v13h111q27 -16 52.5 -35.5t52.5 -44.5q25 25 52.5 45t53.5 35h111v-13
q-18 -18 -41.5 -43.5t-46.5 -53t-37 -50.5h-183z" />
    <glyph glyph-name="uni01F1" unicode="&#x1f1;" horiz-adv-x="1321" 
d="M682 368q0 -123 -46 -204.5t-132 -122.5t-205 -41h-215v714h235q170 0 266.5 -88.5t96.5 -257.5zM506 362q0 109 -46 161t-136 52h-70v-435h55q101 0 149 55.5t48 166.5zM1296 0h-542v108l327 467h-319v139h526v-108l-327 -467h335v-139z" />
    <glyph glyph-name="uni01F2" unicode="&#x1f2;" horiz-adv-x="1234" 
d="M682 368q0 -123 -46 -204.5t-132 -122.5t-205 -41h-215v714h235q170 0 266.5 -88.5t96.5 -257.5zM506 362q0 109 -46 161t-136 52h-70v-435h55q101 0 149 55.5t48 166.5zM1206 0h-443v98l242 322h-228v129h419v-106l-233 -314h243v-129z" />
    <glyph glyph-name="uni01F3" unicode="&#x1f3;" horiz-adv-x="1134" 
d="M245 -10q-89 0 -145 72t-56 212q0 141 57 213t149 72q58 0 94 -23t58 -57h4q-3 18 -6.5 51.5t-3.5 66.5v163h169v-760h-128l-34 71h-7q-21 -34 -57 -57.5t-94 -23.5zM309 124q54 0 76.5 33t23.5 100v15q0 73 -21.5 112t-80.5 39q-43 0 -68 -38t-25 -114q0 -75 25.5 -111
t69.5 -36zM1107 0h-443v98l242 322h-228v129h419v-106l-233 -314h243v-129z" />
    <glyph glyph-name="uni01F4" unicode="&#x1f4;" horiz-adv-x="731" 
d="M362 409h295v-377q-56 -19 -121.5 -30.5t-142.5 -11.5q-158 0 -248 92.5t-90 275.5q0 112 43 194.5t126.5 127t204.5 44.5q61 0 118.5 -12.5t101.5 -31.5l-55 -135q-35 17 -77 27.5t-88 10.5q-65 0 -109.5 -29.5t-66.5 -81t-22 -117.5q0 -103 42.5 -163.5t132.5 -60.5
q25 0 48 3t40 6v132h-132v137zM625 921q-16 -14 -41 -34t-53.5 -42t-55 -41.5t-46.5 -32.5h-112v13q16 19 39 44.5t45 53t37 49.5h187v-10z" />
    <glyph glyph-name="uni01F5" unicode="&#x1f5;" horiz-adv-x="638" 
d="M249 559q54 0 92 -21t63 -58h4l13 69h144v-550q0 -117 -70.5 -178t-212.5 -61q-62 0 -112 7t-98 25v137q51 -21 100 -31.5t110 -10.5q115 0 115 105v11q0 14 1.5 32.5t3.5 35.5h-5q-24 -39 -61.5 -60t-89.5 -21q-93 0 -147.5 74t-54.5 210q0 137 55.5 211t149.5 74z
M308 426q-93 0 -93 -155q0 -77 23.5 -113.5t71.5 -36.5q53 0 76 31t23 102v21q0 77 -22.5 114t-78.5 37zM538 756q-16 -14 -41 -34t-53.5 -42t-55 -41.5t-46.5 -32.5h-112v13q16 19 39 44.5t45 53t37 49.5h187v-10z" />
    <glyph glyph-name="uni01F6" unicode="&#x1f6;" horiz-adv-x="1063" 
d="M88 0v714h171v-272h208v272h172v-472q0 -60 19 -88t64 -28q46 0 65.5 29t19.5 101v293h173v-295q0 -130 -62 -198t-195 -68q-135 0 -195.5 57.5t-60.5 180.5v73h-208v-299h-171z" />
    <glyph glyph-name="uni01F7" unicode="&#x1f7;" horiz-adv-x="695" 
d="M432 725q98 0 156.5 -68t58.5 -197q0 -95 -41.5 -184.5t-127 -160t-218.5 -109.5v-246h-172v954h130l27 -90h5q15 25 40 48t60 38t82 15zM378 582q-58 0 -88 -49t-30 -142v-232q60 23 108 66.5t76.5 102.5t28.5 128q0 60 -24 93t-71 33z" />
    <glyph glyph-name="uni01F8" unicode="&#x1f8;" horiz-adv-x="823" 
d="M739 0h-220l-288 523h-4q2 -43 4.5 -95.5t4.5 -97.5v-330h-152v714h219l287 -517h3q-2 43 -4 92.5t-3 93.5v331h153v-714zM423 931q16 -22 38 -49.5t44.5 -53t38.5 -44.5v-13h-112q-20 13 -46.5 32.5t-55 41.5t-53.5 42t-41 34v10h187z" />
    <glyph glyph-name="uni01F9" unicode="&#x1f9;" horiz-adv-x="663" 
d="M399 559q87 0 140.5 -47.5t53.5 -153.5v-358h-168v311q0 57 -19 86t-60 29q-61 0 -83 -45.5t-22 -130.5v-250h-169v549h128l23 -71h8q26 40 70 60.5t98 20.5zM343 766q16 -22 38 -49.5t44.5 -53t38.5 -44.5v-13h-112q-20 13 -46.5 32.5t-55 41.5t-53.5 42t-41 34v10h187z
" />
    <glyph glyph-name="Aringacute" unicode="&#x1fa;" horiz-adv-x="706" 
d="M282 874q21 17 45 40.5t40 43.5h187v-8q-8 -8 -27 -19.5t-43.5 -24t-48.5 -24t-41 -18.5h-112v10zM240 662q-13 23 -13 56q0 55 34.5 87t90.5 32q53 0 90.5 -31.5t37.5 -86.5q0 -32 -15 -58l242 -661h-185l-46 149h-246l-45 -149h-185zM352 674q20 0 32 11.5t12 32.5
q0 20 -12.5 32t-31.5 12q-20 0 -32 -12t-12 -32t11 -32t33 -12zM268 291h173l-41 123q-6 17 -15.5 46t-18.5 58.5t-13 49.5q-4 -19 -13 -49.5t-18 -59.5t-14 -45z" />
    <glyph glyph-name="aringacute" unicode="&#x1fb;" horiz-adv-x="613" 
d="M492 955q-11 -12 -39 -30t-60 -36.5t-54 -29.5h-111v8q21 19 45 45.5t40 48.5h179v-6zM312 826q53 0 90.5 -32t37.5 -87q0 -56 -37 -88t-91 -32q-56 0 -90.5 32t-34.5 87q0 56 34.5 88t90.5 32zM312 750q-19 0 -31.5 -12t-12.5 -32t11 -32t33 -12q19 0 31.5 12t12.5 32
t-12.5 32t-31.5 12zM318 560q107 0 166 -50t59 -146v-364h-117l-33 74h-4q-35 -45 -74 -64.5t-107 -19.5q-73 0 -121 43.5t-48 133.5t60.5 130.5t181.5 45.5l94 3v16q0 40 -20.5 58t-56.5 18t-75 -11.5t-79 -28.5l-51 112q45 24 102 37t123 13zM324 248q-63 -2 -87.5 -23.5
t-24.5 -56.5q0 -31 17.5 -44t45.5 -13q42 0 71 25.5t29 69.5v44z" />
    <glyph glyph-name="AEacute" unicode="&#x1fc;" horiz-adv-x="949" 
d="M895 0h-425v153h-228l-62 -153h-182l314 714h583v-138h-254v-137h237v-138h-237v-161h254v-140zM299 296h171v273h-59zM740 921q-16 -14 -41 -34t-53.5 -42t-55 -41.5t-46.5 -32.5h-112v13q16 19 39 44.5t45 53t37 49.5h187v-10z" />
    <glyph glyph-name="aeacute" unicode="&#x1fd;" horiz-adv-x="925" 
d="M647 559q69 0 122.5 -28.5t83.5 -84t30 -138.5v-77h-347q2 -53 35.5 -85.5t96.5 -32.5q44 0 89.5 9.5t92.5 32.5v-125q-41 -21 -86 -30.5t-112 -9.5q-65 0 -120 24t-91 73q-32 -35 -61.5 -56.5t-68.5 -31t-97 -9.5q-46 0 -86 19t-64.5 58.5t-24.5 99.5q0 90 63 130.5
t176 45.5l92 3v26q0 36 -21 51t-53 15q-37 0 -75.5 -10.5t-75.5 -27.5l-51 111q93 49 213 49q105 0 166 -56q33 28 74.5 41.5t99.5 13.5zM640 442q-43 0 -70 -24t-31 -78h189q0 43 -22.5 72.5t-65.5 29.5zM322 248q-63 -2 -86.5 -23.5t-23.5 -56.5q0 -31 17 -44t45 -13
q40 0 68 25.5t28 69.5v44zM697 756q-16 -14 -41 -34t-53.5 -42t-55 -41.5t-46.5 -32.5h-112v13q16 19 39 44.5t45 53t37 49.5h187v-10z" />
    <glyph glyph-name="Oslashacute" unicode="&#x1fe;" horiz-adv-x="796" 
d="M741 358q0 -111 -36 -193.5t-112 -128.5t-195 -46q-91 0 -158 27l-42 -65l-86 57l43 63q-52 49 -76 122t-24 165q0 111 36.5 193t112.5 127.5t195 45.5q96 0 165 -31l39 60l85 -53l-42 -63q49 -48 72 -119.5t23 -160.5zM234 358q0 -40 5 -74t16 -61l224 343q-17 8 -37 13
t-43 5q-88 0 -126.5 -60.5t-38.5 -165.5zM562 358q0 76 -18 126l-220 -338q16 -6 34.5 -9.5t39.5 -3.5q89 0 126.5 60t37.5 165zM626 921q-16 -14 -41 -34t-53.5 -42t-55 -41.5t-46.5 -32.5h-112v13q16 19 39 44.5t45 53t37 49.5h187v-10z" />
    <glyph glyph-name="oslashacute" unicode="&#x1ff;" horiz-adv-x="640" 
d="M596 276q0 -138 -74 -212t-203 -74q-60 0 -113 20l-37 -56l-79 51l36 54q-39 37 -60.5 91t-21.5 126q0 136 74 209.5t204 73.5q62 0 117 -22l31 46l78 -52l-31 -45q38 -36 58.5 -89t20.5 -121zM210 276q0 -23 1.5 -42t6.5 -35l148 226q-20 9 -46 9q-60 0 -85 -40
t-25 -118zM430 276q0 19 -1.5 35.5t-4.5 31.5l-145 -222q17 -5 42 -5q60 0 84.5 40.5t24.5 119.5zM546 756q-16 -14 -41 -34t-53.5 -42t-55 -41.5t-46.5 -32.5h-112v13q16 19 39 44.5t45 53t37 49.5h187v-10z" />
    <glyph glyph-name="uni0200" unicode="&#x200;" horiz-adv-x="707" 
d="M521 0l-44 153h-247l-44 -153h-186l243 717h218l246 -717h-186zM397 438q-5 18 -13.5 48.5t-17 62.5t-13.5 54q-4 -22 -12.5 -54.5t-16.5 -63t-13 -47.5l-42 -143h170zM430 931q16 -34 40 -76t45 -71v-13h-88q-17 13 -39.5 33t-45.5 42t-41.5 42t-26.5 33v10h156z
M231 931q16 -34 39.5 -76t44.5 -71v-13h-88q-17 13 -39.5 33t-45.5 42t-41 42t-26 33v10h156z" />
    <glyph glyph-name="uni0201" unicode="&#x201;" horiz-adv-x="613" 
d="M318 560q107 0 166 -50t59 -146v-364h-117l-33 74h-4q-35 -45 -74 -64.5t-107 -19.5q-73 0 -121 43t-48 133q0 87 61.5 129.5t180.5 47.5l94 3v16q0 40 -20.5 58t-56.5 18t-75 -11.5t-79 -28.5l-51 112q45 24 102 37t123 13zM324 248q-63 -2 -88 -22.5t-25 -55.5
q0 -31 18 -45t46 -14q42 0 71 25.5t29 69.5v44zM383 766q16 -34 40 -76t45 -71v-13h-88q-17 13 -39.5 33t-45.5 42t-41.5 42t-26.5 33v10h156zM184 766q16 -34 39.5 -76t44.5 -71v-13h-88q-17 13 -39.5 33t-45.5 42t-41 42t-26 33v10h156z" />
    <glyph glyph-name="uni0202" unicode="&#x202;" horiz-adv-x="707" 
d="M521 0l-44 153h-247l-44 -153h-186l243 717h218l246 -717h-186zM397 438q-5 18 -13.5 48.5t-17 62.5t-13.5 54q-4 -22 -12.5 -54.5t-16.5 -63t-13 -47.5l-42 -143h170zM355 945q90 0 143.5 -47.5t57.5 -126.5h-92q-2 28 -17.5 41t-40 16.5t-52.5 3.5q-22 0 -46.5 -4.5
t-42.5 -17.5t-21 -39h-94q4 51 30.5 90.5t71.5 61.5t103 22z" />
    <glyph glyph-name="uni0203" unicode="&#x203;" horiz-adv-x="613" 
d="M318 560q107 0 166 -50t59 -146v-364h-117l-33 74h-4q-35 -45 -74 -64.5t-107 -19.5q-73 0 -121 43t-48 133q0 87 61.5 129.5t180.5 47.5l94 3v16q0 40 -20.5 58t-56.5 18t-75 -11.5t-79 -28.5l-51 112q45 24 102 37t123 13zM324 248q-63 -2 -88 -22.5t-25 -55.5
q0 -31 18 -45t46 -14q42 0 71 25.5t29 69.5v44zM309 780q90 0 143.5 -47.5t57.5 -126.5h-92q-2 28 -17.5 41t-40 16.5t-52.5 3.5q-22 0 -46.5 -4.5t-42.5 -17.5t-21 -39h-94q4 51 30.5 90.5t71.5 61.5t103 22z" />
    <glyph glyph-name="uni0204" unicode="&#x204;" horiz-adv-x="555" 
d="M501 0h-417v714h417v-138h-247v-137h229v-138h-229v-161h247v-140zM372 931q16 -34 40 -76t45 -71v-13h-88q-17 13 -39.5 33t-45.5 42t-41.5 42t-26.5 33v10h156zM173 931q16 -34 39.5 -76t44.5 -71v-13h-88q-17 13 -39.5 33t-45.5 42t-41 42t-26 33v10h156z" />
    <glyph glyph-name="uni0205" unicode="&#x205;" horiz-adv-x="603" 
d="M309 559q116 0 184 -63.5t68 -186.5v-78h-347q2 -54 35 -86t94 -32q52 0 95.5 10t89.5 32v-125q-41 -21 -86.5 -30.5t-112.5 -9.5q-83 0 -147.5 30t-101 92.5t-36.5 158.5q0 97 33 161t92.5 95.5t139.5 31.5zM312 442q-39 0 -64.5 -24.5t-30.5 -77.5h189q-1 43 -24 72.5
t-70 29.5zM379 766q16 -34 40 -76t45 -71v-13h-88q-17 13 -39.5 33t-45.5 42t-41.5 42t-26.5 33v10h156zM180 766q16 -34 39.5 -76t44.5 -71v-13h-88q-17 13 -39.5 33t-45.5 42t-41 42t-26 33v10h156z" />
    <glyph glyph-name="uni0206" unicode="&#x206;" horiz-adv-x="555" 
d="M501 0h-417v714h417v-138h-247v-137h229v-138h-229v-161h247v-140zM297 945q90 0 143.5 -47.5t57.5 -126.5h-92q-2 28 -17.5 41t-40 16.5t-52.5 3.5q-22 0 -46.5 -4.5t-42.5 -17.5t-21 -39h-94q4 51 30.5 90.5t71.5 61.5t103 22z" />
    <glyph glyph-name="uni0207" unicode="&#x207;" horiz-adv-x="603" 
d="M309 559q116 0 184 -63.5t68 -186.5v-78h-347q2 -54 35 -86t94 -32q52 0 95.5 10t89.5 32v-125q-41 -21 -86.5 -30.5t-112.5 -9.5q-83 0 -147.5 30t-101 92.5t-36.5 158.5q0 97 33 161t92.5 95.5t139.5 31.5zM312 442q-39 0 -64.5 -24.5t-30.5 -77.5h189q-1 43 -24 72.5
t-70 29.5zM304 780q90 0 143.5 -47.5t57.5 -126.5h-92q-2 28 -17.5 41t-40 16.5t-52.5 3.5q-22 0 -46.5 -4.5t-42.5 -17.5t-21 -39h-94q4 51 30.5 90.5t71.5 61.5t103 22z" />
    <glyph glyph-name="uni0208" unicode="&#x208;" horiz-adv-x="413" 
d="M380 0h-347v97l88 37v446l-88 37v97h347v-97l-88 -37v-446l88 -37v-97zM283 931q16 -34 40 -76t45 -71v-13h-88q-17 13 -39.5 33t-45.5 42t-41.5 42t-26.5 33v10h156zM84 931q16 -34 39.5 -76t44.5 -71v-13h-88q-17 13 -39.5 33t-45.5 42t-41 42t-26 33v10h156z" />
    <glyph glyph-name="uni0209" unicode="&#x209;" horiz-adv-x="314" 
d="M241 0h-168v549h168v-549zM234 766q16 -34 40 -76t45 -71v-13h-88q-17 13 -39.5 33t-45.5 42t-41.5 42t-26.5 33v10h156zM35 766q16 -34 39.5 -76t44.5 -71v-13h-88q-17 13 -39.5 33t-45.5 42t-41 42t-26 33v10h156z" />
    <glyph glyph-name="uni020A" unicode="&#x20a;" horiz-adv-x="413" 
d="M380 0h-347v97l88 37v446l-88 37v97h347v-97l-88 -37v-446l88 -37v-97zM209 945q90 0 143.5 -47.5t57.5 -126.5h-92q-2 28 -17.5 41t-40 16.5t-52.5 3.5q-22 0 -46.5 -4.5t-42.5 -17.5t-21 -39h-94q4 51 30.5 90.5t71.5 61.5t103 22z" />
    <glyph glyph-name="uni020B" unicode="&#x20b;" horiz-adv-x="314" 
d="M241 0h-168v549h168v-549zM160 780q90 0 143.5 -47.5t57.5 -126.5h-92q-2 28 -17.5 41t-40 16.5t-52.5 3.5q-22 0 -46.5 -4.5t-42.5 -17.5t-21 -39h-94q4 51 30.5 90.5t71.5 61.5t103 22z" />
    <glyph glyph-name="uni020C" unicode="&#x20c;" horiz-adv-x="796" 
d="M741 358q0 -111 -36 -193.5t-112 -128.5t-195 -46q-118 0 -194 46t-112.5 129t-36.5 194t36.5 193t112.5 127.5t195 45.5t194.5 -45.5t111.5 -128t36 -193.5zM234 358q0 -105 38.5 -165t125.5 -60q89 0 126.5 60t37.5 165t-37.5 165.5t-125.5 60.5t-126.5 -60.5
t-38.5 -165.5zM475 931q16 -34 40 -76t45 -71v-13h-88q-17 13 -39.5 33t-45.5 42t-41.5 42t-26.5 33v10h156zM276 931q16 -34 39.5 -76t44.5 -71v-13h-88q-17 13 -39.5 33t-45.5 42t-41 42t-26 33v10h156z" />
    <glyph glyph-name="uni020D" unicode="&#x20d;" horiz-adv-x="627" 
d="M583 276q0 -138 -72.5 -212t-198.5 -74q-78 0 -138.5 33.5t-95 97t-34.5 155.5q0 136 72.5 209.5t198.5 73.5q78 0 138.5 -33t95 -96t34.5 -154zM215 276q0 -77 23 -116.5t76 -39.5q52 0 75 39.5t23 116.5q0 76 -23 114.5t-76 38.5q-52 0 -75 -38.5t-23 -114.5zM391 766
q16 -34 40 -76t45 -71v-13h-88q-17 13 -39.5 33t-45.5 42t-41.5 42t-26.5 33v10h156zM192 766q16 -34 39.5 -76t44.5 -71v-13h-88q-17 13 -39.5 33t-45.5 42t-41 42t-26 33v10h156z" />
    <glyph glyph-name="uni020E" unicode="&#x20e;" horiz-adv-x="796" 
d="M741 358q0 -111 -36 -193.5t-112 -128.5t-195 -46q-118 0 -194 46t-112.5 129t-36.5 194t36.5 193t112.5 127.5t195 45.5t194.5 -45.5t111.5 -128t36 -193.5zM234 358q0 -105 38.5 -165t125.5 -60q89 0 126.5 60t37.5 165t-37.5 165.5t-125.5 60.5t-126.5 -60.5
t-38.5 -165.5zM400 945q90 0 143.5 -47.5t57.5 -126.5h-92q-2 28 -17.5 41t-40 16.5t-52.5 3.5q-22 0 -46.5 -4.5t-42.5 -17.5t-21 -39h-94q4 51 30.5 90.5t71.5 61.5t103 22z" />
    <glyph glyph-name="uni020F" unicode="&#x20f;" horiz-adv-x="627" 
d="M583 276q0 -138 -72.5 -212t-198.5 -74q-78 0 -138.5 33.5t-95 97t-34.5 155.5q0 136 72.5 209.5t198.5 73.5q78 0 138.5 -33t95 -96t34.5 -154zM215 276q0 -77 23 -116.5t76 -39.5q52 0 75 39.5t23 116.5q0 76 -23 114.5t-76 38.5q-52 0 -75 -38.5t-23 -114.5zM316 780
q90 0 143.5 -47.5t57.5 -126.5h-92q-2 28 -17.5 41t-40 16.5t-52.5 3.5q-22 0 -46.5 -4.5t-42.5 -17.5t-21 -39h-94q4 51 30.5 90.5t71.5 61.5t103 22z" />
    <glyph glyph-name="uni0210" unicode="&#x210;" horiz-adv-x="668" 
d="M304 714q288 0 288 -213q0 -69 -36.5 -116t-91.5 -74l209 -311h-191l-161 268h-67v-268h-170v714h220zM297 580h-43v-179h43q61 0 91.5 22.5t30.5 71.5q0 43 -29 64t-93 21zM415 931q16 -34 40 -76t45 -71v-13h-88q-17 13 -39.5 33t-45.5 42t-41.5 42t-26.5 33v10h156z
M216 931q16 -34 39.5 -76t44.5 -71v-13h-88q-17 13 -39.5 33t-45.5 42t-41 42t-26 33v10h156z" />
    <glyph glyph-name="uni0211" unicode="&#x211;" horiz-adv-x="461" 
d="M391 559q13 0 29 -1.5t25 -3.5l-14 -158q-9 2 -23 3.5t-31 1.5q-32 0 -63.5 -10t-52 -37.5t-20.5 -78.5v-275h-169v549h127l26 -90h7q24 41 66 70.5t93 29.5zM329 766q16 -34 40 -76t45 -71v-13h-88q-17 13 -39.5 33t-45.5 42t-41.5 42t-26.5 33v10h156zM130 766
q16 -34 39.5 -76t44.5 -71v-13h-88q-17 13 -39.5 33t-45.5 42t-41 42t-26 33v10h156z" />
    <glyph glyph-name="uni0212" unicode="&#x212;" horiz-adv-x="668" 
d="M304 714q288 0 288 -213q0 -69 -36.5 -116t-91.5 -74l209 -311h-191l-161 268h-67v-268h-170v714h220zM297 580h-43v-179h43q61 0 91.5 22.5t30.5 71.5q0 43 -29 64t-93 21zM340 945q90 0 143.5 -47.5t57.5 -126.5h-92q-2 28 -17.5 41t-40 16.5t-52.5 3.5
q-22 0 -46.5 -4.5t-42.5 -17.5t-21 -39h-94q4 51 30.5 90.5t71.5 61.5t103 22z" />
    <glyph glyph-name="uni0213" unicode="&#x213;" horiz-adv-x="461" 
d="M391 559q13 0 29 -1.5t25 -3.5l-14 -158q-9 2 -23 3.5t-31 1.5q-32 0 -63.5 -10t-52 -37.5t-20.5 -78.5v-275h-169v549h127l26 -90h7q24 41 66 70.5t93 29.5zM255 780q90 0 143.5 -47.5t57.5 -126.5h-92q-2 28 -17.5 41t-40 16.5t-52.5 3.5q-22 0 -46.5 -4.5t-42.5 -17.5
t-21 -39h-94q4 51 30.5 90.5t71.5 61.5t103 22z" />
    <glyph glyph-name="uni0214" unicode="&#x214;" horiz-adv-x="756" 
d="M677 267q0 -82 -33.5 -144t-100 -97.5t-168.5 -35.5q-144 0 -220 74t-76 202v448h171v-429q0 -82 32.5 -117t96.5 -35q67 0 97.5 36.5t30.5 116.5v428h170v-447zM455 931q16 -34 40 -76t45 -71v-13h-88q-17 13 -39.5 33t-45.5 42t-41.5 42t-26.5 33v10h156zM256 931
q16 -34 39.5 -76t44.5 -71v-13h-88q-17 13 -39.5 33t-45.5 42t-41 42t-26 33v10h156z" />
    <glyph glyph-name="uni0215" unicode="&#x215;" horiz-adv-x="663" 
d="M591 549v-549h-128l-22 70h-10q-26 -42 -71 -61t-96 -19q-85 0 -139.5 48t-54.5 153v358h169v-311q0 -56 18.5 -85t59.5 -29q61 0 83 45t22 130v250h169zM408 766q16 -34 40 -76t45 -71v-13h-88q-17 13 -39.5 33t-45.5 42t-41.5 42t-26.5 33v10h156zM209 766
q16 -34 39.5 -76t44.5 -71v-13h-88q-17 13 -39.5 33t-45.5 42t-41 42t-26 33v10h156z" />
    <glyph glyph-name="uni0216" unicode="&#x216;" horiz-adv-x="756" 
d="M677 267q0 -82 -33.5 -144t-100 -97.5t-168.5 -35.5q-144 0 -220 74t-76 202v448h171v-429q0 -82 32.5 -117t96.5 -35q67 0 97.5 36.5t30.5 116.5v428h170v-447zM380 945q90 0 143.5 -47.5t57.5 -126.5h-92q-2 28 -17.5 41t-40 16.5t-52.5 3.5q-22 0 -46.5 -4.5
t-42.5 -17.5t-21 -39h-94q4 51 30.5 90.5t71.5 61.5t103 22z" />
    <glyph glyph-name="uni0217" unicode="&#x217;" horiz-adv-x="663" 
d="M591 549v-549h-128l-22 70h-10q-26 -42 -71 -61t-96 -19q-85 0 -139.5 48t-54.5 153v358h169v-311q0 -56 18.5 -85t59.5 -29q61 0 83 45t22 130v250h169zM334 780q90 0 143.5 -47.5t57.5 -126.5h-92q-2 28 -17.5 41t-40 16.5t-52.5 3.5q-22 0 -46.5 -4.5t-42.5 -17.5
t-21 -39h-94q4 51 30.5 90.5t71.5 61.5t103 22z" />
    <glyph glyph-name="uni0218" unicode="&#x218;" horiz-adv-x="563" 
d="M526 207q0 -61 -30 -110.5t-90 -78t-151 -28.5q-63 0 -113 11t-97 33v155q54 -25 110.5 -42t108.5 -17q49 0 71 18.5t22 46.5q0 34 -35 55.5t-99 51.5q-42 19 -81.5 45.5t-64.5 67t-25 103.5q0 100 69.5 153t184.5 53q62 0 115 -14.5t104 -35.5l-54 -133
q-48 21 -89.5 32.5t-80.5 11.5q-41 0 -61 -17t-20 -43q0 -21 14 -36.5t44 -31.5t79 -39q53 -24 91 -52t58 -65.5t20 -93.5zM368 -71q-16 -37 -35 -73.5t-46 -76.5h-100v13q9 31 17 73.5t10 73.5h154v-10z" />
    <glyph glyph-name="uni0219" unicode="&#x219;" horiz-adv-x="506" 
d="M467 166q0 -81 -56.5 -128.5t-176.5 -47.5q-58 0 -101.5 7t-87.5 25v136q48 -22 100 -33.5t88 -11.5q38 0 55 10t17 28q0 13 -8.5 23t-34 22.5t-75.5 33.5q-49 21 -80.5 43t-47 52.5t-15.5 76.5q0 78 60.5 117.5t160.5 39.5q53 0 100 -11t97 -34l-48 -114
q-41 18 -79.5 29t-69.5 11q-58 0 -58 -30q0 -11 8.5 -20.5t33 -20.5t71.5 -31q47 -19 80 -40.5t50 -52.5t17 -79zM340 -71q-16 -37 -35 -73.5t-46 -76.5h-100v13q9 31 17 73.5t10 73.5h154v-10z" />
    <glyph glyph-name="uni021A" unicode="&#x21a;" horiz-adv-x="585" 
d="M377 0h-170v573h-185v141h540v-141h-185v-573zM383 -71q-16 -37 -35 -73.5t-46 -76.5h-100v13q9 31 17 73.5t10 73.5h154v-10z" />
    <glyph glyph-name="uni021B" unicode="&#x21b;" horiz-adv-x="446" 
d="M321 124q25 0 47.5 5t45.5 13v-124q-27 -12 -62 -20t-83 -8q-51 0 -90.5 16.5t-62 56.5t-22.5 113v247h-70v70l84 54l46 116h108v-114h146v-126h-146v-241q0 -29 16 -43.5t43 -14.5zM342 -71q-16 -37 -35 -73.5t-46 -76.5h-100v13q9 31 17 73.5t10 73.5h154v-10z" />
    <glyph glyph-name="uni021C" unicode="&#x21c;" horiz-adv-x="633" 
d="M48 -32q115 25 187.5 50.5t112 53t54.5 58.5t15 66q0 40 -17.5 67t-48.5 45q-38 -13 -80.5 -25t-89.5 -22l-29 127q131 30 189.5 56.5t58.5 72.5q0 37 -27.5 53t-75.5 16q-50 0 -98.5 -16t-91.5 -41l-73 116q60 40 131 59.5t149 19.5q118 0 186 -49.5t68 -146.5
q0 -47 -23.5 -85.5t-66.5 -69.5q46 -26 78 -70.5t32 -111.5q0 -94 -56.5 -163.5t-176 -120t-307.5 -87.5v148z" />
    <glyph glyph-name="uni021D" unicode="&#x21d;" horiz-adv-x="527" 
d="M25 -102q107 21 173 44.5t95.5 54.5t29.5 74q0 33 -11 56t-35 42q-59 -22 -133 -39l-30 119q78 19 121.5 36t61 36t17.5 43q0 32 -23 46t-62 14q-42 0 -81 -10t-73 -25l-49 121q48 24 99.5 36t108.5 12q108 0 172.5 -47t64.5 -137q0 -44 -20.5 -79.5t-56.5 -63.5
q44 -25 69.5 -65.5t25.5 -98.5q0 -73 -35 -123t-98 -84t-147.5 -57.5t-183.5 -42.5v138z" />
    <glyph glyph-name="uni021E" unicode="&#x21e;" horiz-adv-x="765" 
d="M681 0h-170v300h-256v-300h-171v714h171v-273h256v273h170v-714zM292 771q-14 23 -36.5 50t-46 52.5t-42.5 44.5v13h111q27 -16 52.5 -35.5t52.5 -44.5q25 25 52.5 45t53.5 35h111v-13q-18 -18 -41.5 -43.5t-46.5 -53t-37 -50.5h-183z" />
    <glyph glyph-name="uni021F" unicode="&#x21f;" horiz-adv-x="663" 
d="M241 627q0 -50 -3 -89.5t-5 -57.5h9q26 43 65.5 61t89.5 18q57 0 101.5 -21t69.5 -65t25 -115v-358h-169v311q0 115 -78 115q-60 0 -82.5 -45.5t-22.5 -129.5v-251h-169v760h169v-133zM68 817q-14 23 -36.5 50t-46 52.5t-42.5 44.5v13h111q27 -16 52.5 -35.5t52.5 -44.5
q25 25 52.5 45t53.5 35h111v-13q-18 -18 -41.5 -43.5t-46.5 -53t-37 -50.5h-183z" />
    <glyph glyph-name="uni0220" unicode="&#x220;" horiz-adv-x="776" 
d="M463 725q65 0 117 -23.5t82.5 -75t30.5 -135.5v-731h-172v686q0 71 -28.5 104t-85.5 33q-58 0 -90 -26t-45 -75.5t-13 -120.5v-361h-171v714h130l28 -88h5q35 50 91.5 74.5t120.5 24.5z" />
    <glyph glyph-name="uni0221" unicode="&#x221;" horiz-adv-x="870" 
d="M489 -101q2 38 6.5 69t10.5 60q-20 10 -31.5 22.5t-14.5 23.5h-6q-23 -32 -67 -58t-119 -26q-106 0 -166 70t-60 215q0 141 58.5 212.5t148.5 71.5q59 0 96 -23.5t57 -53.5h6q-1 3 -4 21.5t-6 42.5t-3 42v172h170v-530q0 -31 7 -53q27 37 68 57t93 20q70 0 105 -32.5
t35 -80.5q0 -38 -18.5 -70t-64 -51.5t-126.5 -19.5q-10 0 -20.5 0.5t-18.5 0.5q-4 -24 -6.5 -50t-3.5 -57zM307 125q54 0 76 31.5t24 98.5v17q0 72 -22 111t-80 39q-42 0 -66.5 -38.5t-24.5 -111.5t25 -110t68 -37zM679 102q39 0 56 7t17 20q0 11 -9 16t-22 5q-42 0 -66 -47
q6 -1 12.5 -1h11.5z" />
    <glyph glyph-name="uni0222" unicode="&#x222;" horiz-adv-x="790" 
d="M395 -10q-121 0 -197 33t-111 92.5t-35 136.5q0 64 31 118.5t104 86.5q-62 33 -82.5 81.5t-20.5 112.5v61h174v-60q0 -58 32.5 -94t106.5 -36q73 0 104 36.5t31 92.5v61h173v-60q0 -63 -20.5 -112.5t-81.5 -82.5q72 -32 103.5 -84.5t31.5 -118.5q1 -78 -35.5 -137.5
t-112.5 -93t-195 -33.5zM395 135q89 0 124.5 32.5t35.5 88.5q0 55 -35.5 87.5t-122.5 32.5q-88 0 -125 -32t-37 -88t36 -88.5t124 -32.5z" />
    <glyph glyph-name="uni0223" unicode="&#x223;" horiz-adv-x="636" 
d="M316 -10q-77 0 -139 30t-99 88.5t-37 142.5q0 72 31.5 124.5t100.5 83.5q-62 30 -82 83t-20 124v94h170v-94q0 -67 16 -103.5t61 -36.5t60.5 35.5t15.5 102.5v96h171v-96q0 -70 -22 -122.5t-83 -82.5q134 -59 134 -205q0 -85 -35.5 -144t-98.5 -89.5t-144 -30.5zM318 125
q103 0 103 132q0 133 -103 133t-103 -135q0 -130 103 -130z" />
    <glyph glyph-name="uni0224" unicode="&#x224;" horiz-adv-x="594" 
d="M380 -255q-25 0 -53 3t-46 9v131q17 -5 30 -7t29 -2q26 0 45.5 18t19.5 75v28h-378v108l327 467h-319v139h526v-108l-327 -467h335v-198q0 -52 -18.5 -96.5t-60.5 -72t-110 -27.5z" />
    <glyph glyph-name="uni0225" unicode="&#x225;" horiz-adv-x="494" 
d="M455 549v-111l-231 -309h242v-185q0 -94 -39 -136.5t-114 -42.5q-25 0 -47 4t-40 10v117q11 -4 24 -6.5t26 -2.5q25 0 37.5 12t12.5 45v56h-302v100l240 320h-226v129h417z" />
    <glyph glyph-name="uni0226" unicode="&#x226;" horiz-adv-x="707" 
d="M521 0l-44 153h-247l-44 -153h-186l243 717h218l246 -717h-186zM397 438q-5 18 -13.5 48.5t-17 62.5t-13.5 54q-4 -22 -12.5 -54.5t-16.5 -63t-13 -47.5l-42 -143h170zM353 932q37 0 64 -16t27 -62q0 -45 -27 -61.5t-64 -16.5t-63.5 16.5t-26.5 61.5q0 46 26.5 62
t63.5 16z" />
    <glyph glyph-name="uni0227" unicode="&#x227;" horiz-adv-x="613" 
d="M318 560q107 0 166 -50t59 -146v-364h-117l-33 74h-4q-35 -45 -74 -64.5t-107 -19.5q-73 0 -121 43t-48 133q0 87 61.5 129.5t180.5 47.5l94 3v16q0 40 -20.5 58t-56.5 18t-75 -11.5t-79 -28.5l-51 112q45 24 102 37t123 13zM324 248q-63 -2 -88 -22.5t-25 -55.5
q0 -31 18 -45t46 -14q42 0 71 25.5t29 69.5v44zM306 767q37 0 64 -16t27 -62q0 -45 -27 -61.5t-64 -16.5t-63.5 16.5t-26.5 61.5q0 46 26.5 62t63.5 16z" />
    <glyph glyph-name="uni0228" unicode="&#x228;" horiz-adv-x="555" 
d="M501 0h-417v714h417v-138h-247v-137h229v-138h-229v-161h247v-140zM415 -122q0 -55 -34.5 -86.5t-108.5 -31.5q-28 0 -50.5 4t-38.5 9v88q16 -5 34 -8t34 -3t26.5 7t10.5 22q0 18 -17 30t-59 19l34 72h95l-11 -30q30 -8 57.5 -29.5t27.5 -62.5z" />
    <glyph glyph-name="uni0229" unicode="&#x229;" horiz-adv-x="603" 
d="M309 559q116 0 184 -63.5t68 -186.5v-78h-347q2 -54 35 -86t94 -32q52 0 95.5 10t89.5 32v-125q-41 -21 -86.5 -30.5t-112.5 -9.5q-83 0 -147.5 30t-101 92.5t-36.5 158.5q0 97 33 161t92.5 95.5t139.5 31.5zM312 442q-39 0 -64.5 -24.5t-30.5 -77.5h189q-1 43 -24 72.5
t-70 29.5zM429 -122q0 -55 -34.5 -86.5t-108.5 -31.5q-28 0 -50.5 4t-38.5 9v88q16 -5 34 -8t34 -3t26.5 7t10.5 22q0 18 -17 30t-59 19l34 72h95l-11 -30q30 -8 57.5 -29.5t27.5 -62.5z" />
    <glyph glyph-name="uni022A" unicode="&#x22a;" horiz-adv-x="796" 
d="M570 1025v-99h-341v99h341zM298 891q31 0 50 -16t19 -48q0 -31 -19 -47.5t-50 -16.5q-32 0 -50 16.5t-18 47.5q0 32 18 48t50 16zM498 891q30 0 49.5 -16t19.5 -48q0 -31 -19.5 -47.5t-49.5 -16.5q-31 0 -49.5 16.5t-18.5 47.5q0 32 18.5 48t49.5 16zM741 358
q0 -111 -36 -193.5t-112 -128.5t-195 -46q-118 0 -194 46t-112.5 129t-36.5 194t36.5 193t112.5 127.5t195 45.5t194.5 -45.5t111.5 -128t36 -193.5zM234 358q0 -105 38.5 -165t125.5 -60q89 0 126.5 60t37.5 165t-37.5 165.5t-125.5 60.5t-126.5 -60.5t-38.5 -165.5z" />
    <glyph glyph-name="uni022B" unicode="&#x22b;" horiz-adv-x="627" 
d="M486 861v-100h-341v100h341zM214 726q30 0 49.5 -16t19.5 -48q0 -31 -19.5 -47t-49.5 -16q-32 0 -50 16t-18 47q0 32 18 48t50 16zM414 726q30 0 49.5 -16t19.5 -48q0 -31 -19.5 -47t-49.5 -16q-32 0 -50 16t-18 47q0 32 18 48t50 16zM583 276q0 -138 -72.5 -212
t-198.5 -74q-78 0 -138.5 33.5t-95 97t-34.5 155.5q0 136 72.5 209.5t198.5 73.5q78 0 138.5 -33t95 -96t34.5 -154zM215 276q0 -77 23 -116.5t76 -39.5q52 0 75 39.5t23 116.5q0 76 -23 114.5t-76 38.5q-52 0 -75 -38.5t-23 -114.5z" />
    <glyph glyph-name="uni022C" unicode="&#x22c;" horiz-adv-x="796" 
d="M228 929v100h342v-100h-342zM222 770q4 48 30 82t77 34q33 0 57 -10.5t43 -20.5t38 -10q33 0 41 40h67q-5 -47 -30 -81t-79 -34q-30 0 -54 10t-43.5 20.5t-36.5 10.5q-19 0 -28.5 -9.5t-15.5 -31.5h-66zM741 358q0 -111 -36 -193.5t-112 -128.5t-195 -46q-118 0 -194 46
t-112.5 129t-36.5 194t36.5 193t112.5 127.5t195 45.5t194.5 -45.5t111.5 -128t36 -193.5zM234 358q0 -105 38.5 -165t125.5 -60q89 0 126.5 60t37.5 165t-37.5 165.5t-125.5 60.5t-126.5 -60.5t-38.5 -165.5z" />
    <glyph glyph-name="uni022D" unicode="&#x22d;" horiz-adv-x="627" 
d="M144 764v100h341v-100h-341zM137 606q5 47 30.5 81t77.5 34q33 0 57 -10t43 -20.5t38 -10.5q33 0 40 41h67q-5 -48 -29.5 -82t-78.5 -34q-30 0 -54 10t-43.5 20.5t-36.5 10.5q-19 0 -28.5 -9.5t-15.5 -30.5h-67zM583 276q0 -138 -72.5 -212t-198.5 -74q-78 0 -138.5 33.5
t-95 97t-34.5 155.5q0 136 72.5 209.5t198.5 73.5q78 0 138.5 -33t95 -96t34.5 -154zM215 276q0 -77 23 -116.5t76 -39.5q52 0 75 39.5t23 116.5q0 76 -23 114.5t-76 38.5q-52 0 -75 -38.5t-23 -114.5z" />
    <glyph glyph-name="uni022E" unicode="&#x22e;" horiz-adv-x="796" 
d="M741 358q0 -111 -36 -193.5t-112 -128.5t-195 -46q-118 0 -194 46t-112.5 129t-36.5 194t36.5 193t112.5 127.5t195 45.5t194.5 -45.5t111.5 -128t36 -193.5zM234 358q0 -105 38.5 -165t125.5 -60q89 0 126.5 60t37.5 165t-37.5 165.5t-125.5 60.5t-126.5 -60.5
t-38.5 -165.5zM398 932q37 0 64 -16t27 -62q0 -45 -27 -61.5t-64 -16.5t-63.5 16.5t-26.5 61.5q0 46 26.5 62t63.5 16z" />
    <glyph glyph-name="uni022F" unicode="&#x22f;" horiz-adv-x="627" 
d="M583 276q0 -138 -72.5 -212t-198.5 -74q-78 0 -138.5 33.5t-95 97t-34.5 155.5q0 136 72.5 209.5t198.5 73.5q78 0 138.5 -33t95 -96t34.5 -154zM215 276q0 -77 23 -116.5t76 -39.5q52 0 75 39.5t23 116.5q0 76 -23 114.5t-76 38.5q-52 0 -75 -38.5t-23 -114.5zM314 767
q37 0 64 -16t27 -62q0 -45 -27 -61.5t-64 -16.5t-63.5 16.5t-26.5 61.5q0 46 26.5 62t63.5 16z" />
    <glyph glyph-name="uni0230" unicode="&#x230;" horiz-adv-x="796" 
d="M570 1027v-100h-342v100h342zM398 891q31 0 50 -16.5t19 -48.5q0 -30 -19 -46.5t-50 -16.5t-49.5 16.5t-18.5 46.5q0 32 18.5 48.5t49.5 16.5zM741 358q0 -111 -36 -193.5t-112 -128.5t-195 -46q-118 0 -194 46t-112.5 129t-36.5 194t36.5 193t112.5 127.5t195 45.5
t194.5 -45.5t111.5 -128t36 -193.5zM234 358q0 -105 38.5 -165t125.5 -60q89 0 126.5 60t37.5 165t-37.5 165.5t-125.5 60.5t-126.5 -60.5t-38.5 -165.5z" />
    <glyph glyph-name="uni0231" unicode="&#x231;" horiz-adv-x="627" 
d="M485 864v-100h-341v100h341zM314 728q30 0 49.5 -16.5t19.5 -48.5q0 -30 -19.5 -46.5t-49.5 -16.5q-32 0 -50 16.5t-18 46.5q0 32 18 48.5t50 16.5zM583 276q0 -138 -72.5 -212t-198.5 -74q-78 0 -138.5 33.5t-95 97t-34.5 155.5q0 136 72.5 209.5t198.5 73.5
q78 0 138.5 -33t95 -96t34.5 -154zM215 276q0 -77 23 -116.5t76 -39.5q52 0 75 39.5t23 116.5q0 76 -23 114.5t-76 38.5q-52 0 -75 -38.5t-23 -114.5z" />
    <glyph glyph-name="uni0232" unicode="&#x232;" horiz-adv-x="642" 
d="M321 433l137 281h184l-236 -436v-278h-170v273l-236 441h185zM492 880v-109h-342v109h342z" />
    <glyph glyph-name="uni0233" unicode="&#x233;" horiz-adv-x="588" 
d="M0 549h180l99 -311q5 -17 8.5 -37.5t5.5 -41.5h3q3 23 7.5 42.5t9.5 35.5l99 312h176l-226 -603q-34 -92 -92.5 -139t-151.5 -47q-26 0 -44.5 2.5t-32.5 5.5v133q11 -2 26.5 -4t32.5 -2q47 0 72 28t39 66l6 17zM465 715v-109h-342v109h342z" />
    <glyph glyph-name="uni0234" unicode="&#x234;" horiz-adv-x="460" 
d="M43 -2q11 22 24 45.5t26 39.5q-10 18 -13.5 45.5t-3.5 63.5v568h169v-522q13 8 34.5 14t42.5 6q65 0 100.5 -34.5t35.5 -93.5q0 -62 -42.5 -101t-132.5 -39q-85 0 -127 29q-8 -12 -17.5 -28t-17.5 -33zM302 89q20 0 32.5 10t12.5 26q0 37 -45 37q-33 0 -57 -23
q6 -50 57 -50z" />
    <glyph glyph-name="uni0235" unicode="&#x235;" horiz-adv-x="779" 
d="M371 -2q11 22 24 45.5t26 39.5q-10 18 -13.5 45.5t-3.5 63.5v122q0 54 -16 82.5t-51 28.5q-55 0 -73.5 -46t-18.5 -129v-250h-169v549h129l22 -69h9q25 42 67 60.5t87 18.5q81 0 132.5 -47t51.5 -154v-120q12 8 33.5 14t42.5 6q66 0 101 -34.5t35 -93.5q0 -62 -42.5 -101
t-132.5 -39q-85 0 -127 29q-8 -12 -17.5 -28t-17.5 -33zM630 89q20 0 33 10t13 26q0 37 -46 37q-33 0 -57 -23q6 -50 57 -50z" />
    <glyph glyph-name="uni0236" unicode="&#x236;" horiz-adv-x="470" 
d="M61 -2q11 22 24.5 45.5t26.5 39.5q-10 18 -14 45.5t-4 63.5v230h-69v71l83 56l47 113h109v-113h153v-127h-153v-184q13 8 34 14t43 6q65 0 100.5 -34.5t35.5 -93.5q0 -62 -43 -101t-132 -39q-85 0 -127 29q-9 -12 -18 -28t-17 -33zM321 89q20 0 32.5 10t12.5 26
q0 37 -45 37q-33 0 -57 -23q6 -50 57 -50z" />
    <glyph glyph-name="uni0237" unicode="&#x237;" horiz-adv-x="314" 
d="M42 -240q-24 0 -52.5 3.5t-47.5 8.5v132q17 -5 31.5 -7t33.5 -2q27 0 46 16.5t19 66.5v571h169v-602q0 -50 -19.5 -92.5t-63 -68.5t-116.5 -26z" />
    <glyph glyph-name="uni0238" unicode="&#x238;" horiz-adv-x="961" 
d="M296 -10q-74 0 -131 31.5t-90 95t-33 159.5q0 140 57.5 211.5t145.5 71.5q59 0 95 -24t55 -54h7q-2 19 -4.5 45.5t-2.5 59.5v174h170v-174q0 -34 -2 -60.5t-4 -44.5h6q20 31 56 54.5t95 23.5q58 0 103.5 -32t72 -95.5t26.5 -157.5q0 -97 -34.5 -160t-93.5 -93.5
t-132 -30.5q-119 0 -179 83q-62 -83 -183 -83zM305 126q44 0 67 33t23 119q0 76 -21.5 111.5t-71.5 35.5q-39 0 -63 -37t-24 -112q0 -82 23.5 -116t66.5 -34zM655 126q43 0 66.5 33.5t23.5 114.5q0 76 -24 113.5t-63 37.5q-49 0 -71 -35.5t-22 -111.5q0 -86 23 -119t67 -33z
" />
    <glyph glyph-name="uni0239" unicode="&#x239;" horiz-adv-x="961" 
d="M664 559q74 0 131 -31t90 -94.5t33 -160.5q0 -140 -57 -211.5t-145 -71.5q-60 0 -96 24t-55 55h-6q2 -23 4 -48t2 -58v-205h-170v205q0 34 2 59t5 47h-7q-20 -31 -55.5 -55t-94.5 -24t-104.5 32t-72 95.5t-26.5 157.5q0 98 34.5 161t93.5 93t132 30q119 0 180 -83
q62 83 182 83zM306 423q-44 0 -67.5 -33t-23.5 -115q0 -76 24 -113t63 -37q50 0 71.5 35t21.5 111q0 86 -22.5 119t-66.5 33zM655 423q-44 0 -67 -33t-23 -119q0 -76 21.5 -111t71.5 -35q39 0 63 36.5t24 111.5q0 82 -23.5 116t-66.5 34z" />
    <glyph glyph-name="uni023A" unicode="&#x23a;" horiz-adv-x="708" 
d="M521 0l-44 153h-120l-79 -228h-108l79 228h-19l-44 -153h-186l243 717h202l15 43h108l-61 -176l200 -584h-186zM269 295h29l77 221q-6 24 -12 47t-10 40q-4 -22 -12.5 -54.5t-16.5 -63t-13 -47.5zM439 295l-15 51l-18 -51h33z" />
    <glyph glyph-name="uni023B" unicode="&#x23b;" horiz-adv-x="640" 
d="M578 760l-22 -64q27 -10 53 -22l-53 -136q-12 5 -24 10.5t-24 9.5l-147 -424q18 -3 38 -3q45 0 89 11.5t93 29.5v-144q-48 -20 -95.5 -29t-103.5 -9q-37 0 -69 5l-25 -70h-108l35 101q-82 42 -121 127.5t-39 202.5q0 108 39 191t115 130t186 47q30 0 61 -4l14 40h108z
M394 583q-78 0 -121 -61t-43 -167q0 -111 42 -167l137 395h-15z" />
    <glyph glyph-name="uni023C" unicode="&#x23c;" horiz-adv-x="522" 
d="M308 -10q-24 0 -47 3l-71 -201h-109l82 229q-57 31 -88 92.5t-31 158.5q0 100 35.5 163.5t98.5 93.5t144 30q17 0 33 -1l72 202h108l-80 -222q22 -8 42 -18l-49 -127l-20 8t-19 7l-100 -282q6 -1 14 -1q44 0 82.5 12.5t73.5 35.5v-138q-34 -22 -74 -33.5t-97 -11.5z
M215 273q0 -45 11 -77l81 229q-92 -11 -92 -152z" />
    <glyph glyph-name="uni023D" unicode="&#x23d;" horiz-adv-x="573" 
d="M84 0v286h-67v137h67v291h170v-291h126v-137h-126v-147h283v-139h-453z" />
    <glyph glyph-name="uni023E" unicode="&#x23e;" horiz-adv-x="591" 
d="M377 0h-170v19l-50 -94h-87l137 256v392h-185v141h469l25 46h87l-41 -76v-111h-59l-126 -235v-338zM377 573v-72l39 72h-39z" />
    <glyph glyph-name="uni023F" unicode="&#x23f;" horiz-adv-x="514" 
d="M353 -240q-60 0 -95.5 20t-57.5 54.5t-39 78.5q-15 39 -32.5 62.5t-49.5 36.5q-6 3 -13.5 5.5t-13.5 5.5v135q48 -22 100.5 -33.5t87.5 -11.5q39 0 55.5 10t16.5 28q0 13 -8.5 23t-34 22.5t-75.5 33.5q-48 21 -80 43t-47.5 52.5t-15.5 76.5q0 78 60.5 117.5t161.5 39.5
q52 0 99 -11t98 -34l-49 -114q-40 18 -79 29t-70 11q-57 0 -57 -30q0 -11 8.5 -20.5t32.5 -20.5t71 -31q48 -19 80.5 -40.5t50 -52.5t17.5 -79q0 -75 -48 -121t-150 -54q7 -7 12.5 -17t10.5 -20q18 -38 37.5 -51.5t49.5 -13.5q16 0 31 3t28 7v-126q-16 -5 -41 -9t-52 -4z
" />
    <glyph glyph-name="uni0240" unicode="&#x240;" horiz-adv-x="494" 
d="M401 -240q-67 0 -106.5 21.5t-61.5 56.5t-36 75q-15 42 -36.5 64.5t-70.5 22.5h-66v100l240 320h-226v129h417v-111l-243 -324q36 -9 60.5 -29.5t40.5 -45.5t26 -49q24 -54 45.5 -73.5t50.5 -19.5q18 0 33 1.5t31 6.5v-132q-18 -6 -45.5 -9.5t-52.5 -3.5z" />
    <glyph glyph-name="Glottalstopcased" unicode="&#x241;" horiz-adv-x="494" 
d="M227 725q76 0 130.5 -28t84 -76t29.5 -108q0 -81 -41.5 -142.5t-138.5 -111.5v-259h-171v330q77 27 115.5 59t51 63t12.5 54q0 36 -26 59.5t-62 23.5q-31 0 -60 -9t-52.5 -20.5t-36.5 -19.5l-61 122q52 28 107 45.5t119 17.5z" />
    <glyph glyph-name="glottalstopcased" unicode="&#x242;" horiz-adv-x="506" 
d="M227 559q76 0 130 -28t83 -76.5t29 -108.5q0 -81 -41.5 -142.5t-137.5 -111.5v-92h-171v164q77 26 115 57.5t50.5 62.5t12.5 55q0 37 -26 60.5t-63 23.5q-30 0 -58.5 -9t-51.5 -20.5t-36 -18.5l-61 121q52 28 107 45.5t119 17.5z" />
    <glyph glyph-name="uni0243" unicode="&#x243;" horiz-adv-x="673" 
d="M84 0v173h-74v102h74v439h234q149 0 219 -42.5t70 -135.5q0 -64 -32.5 -103.5t-78.5 -48.5v-5q32 -8 61 -25.5t47.5 -52t18.5 -91.5q0 -99 -71.5 -154.5t-195.5 -55.5h-272zM329 440q57 0 80 19.5t23 53.5q0 67 -110 67h-68v-140h75zM339 136q60 0 83.5 24.5t23.5 64.5
q0 36 -24 60.5t-87 24.5h-81v-35h104v-102h-104v-37h85z" />
    <glyph glyph-name="uni0244" unicode="&#x244;" horiz-adv-x="756" 
d="M-1 322v141h80v251h171v-251h257v251h170v-251h81v-141h-81v-55q0 -82 -33.5 -144t-100 -97.5t-168.5 -35.5q-144 0 -220 74t-76 202v56h-80zM250 285q0 -82 32.5 -117t96.5 -35q67 0 97.5 36.5t30.5 116.5v36h-257v-37z" />
    <glyph glyph-name="uni0245" unicode="&#x245;" horiz-adv-x="687" 
d="M0 0l233 717h218l236 -717h-186l-117 438q-5 18 -13 48.5t-15.5 62.5t-12.5 54q-4 -22 -11.5 -54.5t-15 -63t-12.5 -47.5l-118 -438h-186z" />
    <glyph glyph-name="uni0246" unicode="&#x246;" horiz-adv-x="562" 
d="M501 0h-204l-19 -75h-108l19 75h-105v714h287l12 46h108l-11 -46h21v-138h-57l-35 -137h74v-138h-109l-41 -161h168v-140zM254 439h47l35 137h-82v-137zM254 301v-45l12 45h-12z" />
    <glyph glyph-name="uni0247" unicode="&#x247;" horiz-adv-x="600" 
d="M309 559q18 0 35 -1l70 202h110l-80 -230q56 -28 86.5 -84t30.5 -137v-78h-220l-40 -114q20 -4 42 -4q52 0 95.5 10t89.5 32v-125q-41 -21 -86.5 -30.5t-112.5 -9.5q-37 0 -70 6l-70 -204h-109l82 238q-55 33 -86.5 92.5t-31.5 148.5q0 97 33 161t92.5 95.5t139.5 31.5z
M217 340h52l35 102q-36 -3 -59.5 -27.5t-27.5 -74.5zM406 340q-1 28 -10 50l-18 -50h28zM214 231q1 -19 5 -35l12 35h-17z" />
    <glyph glyph-name="uni0248" unicode="&#x248;" horiz-adv-x="349" 
d="M21 -216q-30 0 -53 3t-39 8v143q15 -4 32.5 -7t38.5 -3q24 0 44 9t32 36.5t12 81.5v234h-90v141h90v284h171v-284h90v-141h-90v-233q0 -99 -30.5 -159t-84 -86.5t-123.5 -26.5z" />
    <glyph glyph-name="uni0249" unicode="&#x249;" horiz-adv-x="322" 
d="M70 689q0 46 27 62t64 16t64 -16t27 -62t-27 -62.5t-64 -16.5t-64 17t-27 62zM37 -240q-26 0 -56 3.5t-48 8.5v133q18 -5 34 -7t37 -2q29 0 50.5 15.5t21.5 66.5v248h-78v109h78v214h169v-214h78v-109h-78v-276q0 -51 -20 -94.5t-65.5 -69.5t-122.5 -26z" />
    <glyph glyph-name="uni024A" unicode="&#x24a;" horiz-adv-x="781" 
d="M326 725q70 0 117 -24t75 -58h4l15 71h160v-767q0 -27 14 -40t33 -13q18 0 33 4t23 7v-129q-12 -6 -37 -11t-52 -5q-86 0 -136.5 42.5t-50.5 142.5v13v61t1 64h-8q-31 -42 -76.5 -67.5t-116.5 -25.5q-74 0 -134.5 40.5t-96.5 122t-36 204.5t36.5 205t97.5 122.5t135 40.5
zM375 581q-59 0 -98 -58t-39 -168q0 -115 39.5 -168t101.5 -53q73 0 109 60.5t36 168.5v20q0 90 -34 144t-115 54z" />
    <glyph glyph-name="uni024B" unicode="&#x24b;" horiz-adv-x="641" 
d="M248 559q61 0 97 -23.5t59 -55.5h4l14 69h143v-604q0 -23 12.5 -36.5t34.5 -13.5q17 0 29 2.5t26 7.5v-129q-17 -9 -43.5 -12.5t-54.5 -3.5q-65 0 -103 23t-54.5 64t-16.5 95v33q0 22 2 47t5 47h-7q-19 -32 -54.5 -55.5t-95.5 -23.5q-89 0 -146 72t-57 212q0 95 27 158.5
t73.5 95t105.5 31.5zM306 422q-47 0 -69 -38.5t-22 -111.5q0 -75 22.5 -112.5t71.5 -37.5q53 0 74.5 31.5t23.5 97.5v20q0 73 -21.5 112t-79.5 39z" />
    <glyph glyph-name="uni024C" unicode="&#x24c;" horiz-adv-x="674" 
d="M304 714q288 0 288 -213q0 -69 -36.5 -116t-91.5 -74l209 -311h-191l-161 268h-67v-268h-170v266h-74v140h74v308h220zM297 580h-43v-179h43q61 0 91.5 22.5t30.5 71.5q0 43 -29 64t-93 21z" />
    <glyph glyph-name="uni024D" unicode="&#x24d;" horiz-adv-x="461" 
d="M347 323v-109h-106v-214h-169v214h-75v109h75v226h127l26 -90h7q24 41 66 70.5t93 29.5q13 0 29 -1.5t25 -3.5l-14 -158q-9 2 -23 3.5t-31 1.5q-39 0 -77 -16t-52 -62h99z" />
    <glyph glyph-name="uni024E" unicode="&#x24e;" horiz-adv-x="644" 
d="M647 628v-110h-111l-130 -240v-278h-170v273l-131 245h-107v110h48l-46 86h185l42 -86h189l42 86h184l-46 -86h51zM321 433l42 85h-83z" />
    <glyph glyph-name="uni024F" unicode="&#x24f;" horiz-adv-x="592" 
d="M0 549h180l50 -156h132l50 156h176l-59 -156h52v-110h-92l-127 -337q-34 -92 -92.5 -139t-151.5 -47q-26 0 -44.5 2.5t-32.5 5.5v133q11 -2 26.5 -4t32.5 -2q47 0 72 28t39 66l6 17l-111 277h-95v110h51zM293 159h3q3 23 7.5 42.5t9.5 35.5l15 46h-64l15 -45
q5 -17 8.5 -37.5t5.5 -41.5z" />
    <glyph glyph-name="uni0250" unicode="&#x250;" horiz-adv-x="613" 
d="M295 -11q-107 0 -166 50t-59 147v363h117l33 -73h4q35 44 73.5 63.5t107.5 19.5q72 0 120.5 -43t48.5 -133q0 -87 -61.5 -129t-181.5 -47l-93 -3v-17q0 -40 20.5 -58t55.5 -18q37 0 76 11.5t78 28.5l52 -112q-45 -24 -102 -37t-123 -13zM289 301q63 2 88 22.5t25 55.5
q0 32 -18 45.5t-47 13.5q-41 0 -70.5 -25t-29.5 -70v-44z" />
    <glyph glyph-name="uni0251" unicode="&#x251;" horiz-adv-x="641" 
d="M259 -10q-100 0 -157.5 72t-57.5 212q0 141 57.5 213t151.5 72q57 0 92 -22t57 -53h4l19 65h140v-364q0 -34 12.5 -46t28.5 -12q6 0 15.5 1.5t13.5 3.5v-129q-8 -4 -31.5 -8.5t-39.5 -4.5q-55 0 -87.5 18t-52.5 64h-6q-22 -31 -59.5 -56.5t-99.5 -25.5zM311 122
q98 0 98 137v19q0 72 -22.5 108.5t-76.5 36.5q-45 0 -70.5 -37.5t-25.5 -113.5q0 -78 25.5 -114t71.5 -36z" />
    <glyph glyph-name="uni0252" unicode="&#x252;" horiz-adv-x="641" 
d="M382 559q100 0 157.5 -71.5t57.5 -212.5t-57.5 -213t-151.5 -72q-57 0 -92 22t-57 53h-4l-19 -65h-140v364q0 35 -12.5 47t-28.5 12q-7 0 -16 -2t-13 -3v128q8 5 31.5 9t39.5 4q55 0 87.5 -17.5t52.5 -64.5h6q22 31 59.5 56.5t99.5 25.5zM330 427q-98 0 -98 -137v-19
q0 -72 22.5 -108.5t76.5 -36.5q45 0 70.5 37.5t25.5 113.5q0 78 -25.5 114t-71.5 36z" />
    <glyph glyph-name="uni0253" unicode="&#x253;" horiz-adv-x="641" 
d="M259 766q29 0 52 -6t33 -11v-128q-7 3 -22.5 6.5t-34.5 3.5q-38 0 -42 -45v0q0 -28 -2 -54.5t-4 -50.5h6q20 31 56 54.5t95 23.5t104.5 -32t72 -95t26.5 -156q0 -96 -27 -159.5t-73.5 -95t-106.5 -31.5q-61 0 -93 21t-54 45h-10l-28 -56h-131v590q0 95 51 135.5t132 40.5
zM339 425q-50 0 -71 -33t-23 -106q0 -79 20.5 -119t75.5 -40q37 0 60.5 38.5t23.5 112.5q0 73 -23.5 110t-62.5 37z" />
    <glyph glyph-name="uni0254" unicode="&#x254;" horiz-adv-x="522" 
d="M215 559q122 0 193.5 -67t71.5 -216q0 -145 -72.5 -215.5t-195.5 -70.5q-57 0 -94.5 10t-74.5 34v144q36 -24 72 -37.5t84 -13.5q47 0 77.5 36t30.5 113q0 76 -31 112t-81 36q-31 0 -59.5 -10t-57.5 -25l-48 130q33 18 79 29t106 11z" />
    <glyph glyph-name="uni0255" unicode="&#x255;" horiz-adv-x="559" 
d="M329 559q63 0 104.5 -12.5t71.5 -27.5l-47 -128q-34 14 -62.5 23.5t-62.5 9.5q-118 0 -118 -145q0 -19 4 -38q23 22 61.5 38t89.5 16q78 0 118.5 -38t40.5 -101q0 -57 -28.5 -94t-75.5 -54.5t-105 -17.5q-53 0 -91.5 11t-65.5 28q-11 -20 -20 -40t-17 -44l-81 36
q11 32 23 56.5t26 49.5q-25 37 -38.5 81t-13.5 104q0 99 36 162.5t100.5 94t150.5 30.5zM351 201q-37 0 -63.5 -16t-40.5 -32q14 -20 35.5 -31t53.5 -11q30 0 51.5 12t21.5 35q0 20 -15.5 31.5t-42.5 11.5z" />
    <glyph glyph-name="uni0256" unicode="&#x256;" horiz-adv-x="641" 
d="M569 -240q-65 0 -103 23t-54.5 64t-16.5 95v25q0 29 2.5 55t3.5 47h-6q-20 -32 -55.5 -55.5t-95.5 -23.5q-88 0 -144 72.5t-56 212.5q0 141 57.5 212.5t147.5 71.5q60 0 95.5 -24t55.5 -55h5q-3 23 -6 54t-3 59v167h169v-811q0 -26 12.5 -40t34.5 -14q16 0 28.5 2.5
t26.5 6.5v-127q-17 -7 -43 -12t-55 -5zM310 124q52 0 75 33t24 101v17q0 73 -21.5 110.5t-78.5 37.5q-45 0 -70 -39t-25 -112q0 -75 26 -111.5t70 -36.5z" />
    <glyph glyph-name="uni0257" unicode="&#x257;" horiz-adv-x="641" 
d="M245 -10q-89 0 -145 72t-56 212q0 141 57 213t149 72q58 0 93.5 -23t57.5 -57h5q-4 23 -7 51.5t-3 53.5v11q0 91 47.5 132t129.5 41q34 0 61 -5t39 -9v-128q-8 3 -23.5 6t-34.5 3q-23 0 -36.5 -14t-13.5 -41v-580h-128l-34 71h-7q-21 -34 -57 -57.5t-94 -23.5zM309 124
q54 0 76.5 33t23.5 100v15q0 73 -21.5 112t-80.5 39q-43 0 -68 -38t-25 -114q0 -75 25.5 -111t69.5 -36z" />
    <glyph glyph-name="uni0258" unicode="&#x258;" horiz-adv-x="603" 
d="M295 559q79 0 138.5 -31.5t93 -95.5t33.5 -161q0 -96 -37 -158.5t-101.5 -92.5t-146.5 -30q-67 0 -113 9.5t-86 30.5v125q46 -22 89 -32t95 -10q61 0 94 32t35 86h-346v78q0 123 67.5 186.5t184.5 63.5zM291 442q-46 0 -69 -29.5t-24 -72.5h188q-4 53 -30 77.5t-65 24.5z
" />
    <glyph glyph-name="uni0259" unicode="&#x259;" horiz-adv-x="603" 
d="M275 559q82 0 146.5 -30t101.5 -92t37 -159t-33.5 -161t-93 -95.5t-138.5 -31.5q-117 0 -184.5 64t-67.5 186v78h346q-2 54 -35 86.5t-94 32.5q-52 0 -95 -10.5t-89 -32.5v125q40 19 86 29.5t113 10.5zM198 210q1 -44 24 -73.5t69 -29.5q39 0 65 25t30 78h-188z" />
    <glyph glyph-name="uni025A" unicode="&#x25a;" horiz-adv-x="854" 
d="M297 -10q-122 0 -188 66t-66 187l357 96q-14 52 -47.5 73.5t-85.5 21.5q-56 0 -103 -12.5t-88 -31.5v129q35 16 86.5 28t120.5 12q101 0 174 -42.5t100 -134.5l127 34l14 -53q12 -47 24.5 -67t35.5 -20q19 0 34 7t30 17l32 -91q-19 -16 -47 -28t-62 -12q-53 0 -87 26.5
t-55 90.5l-31 -9q-3 -133 -73.5 -210t-201.5 -77zM300 109q47 0 77 30t30 97l-204 -54q6 -25 27.5 -49t69.5 -24z" />
    <glyph glyph-name="uni025B" unicode="&#x25b;" horiz-adv-x="555" 
d="M410 342v-113h-77q-75 0 -103 -14.5t-28 -42.5q0 -21 24 -38t93 -17q62 0 113 13.5t86 29.5v-132q-40 -17 -92.5 -27.5t-125.5 -10.5q-142 0 -203.5 43.5t-61.5 120.5q0 54 35 87t98 43v5q-49 12 -75.5 44.5t-26.5 79.5q0 53 32.5 85t87 46.5t121.5 14.5
q59 0 112.5 -10.5t98.5 -30.5l-49 -118q-37 16 -74 26.5t-82 10.5q-93 0 -93 -44q0 -27 28.5 -39t93.5 -12h68z" />
    <glyph glyph-name="uni025C" unicode="&#x25c;" horiz-adv-x="550" 
d="M262 559q63 0 116.5 -15t85.5 -47.5t32 -84.5q0 -48 -28.5 -78t-75.5 -43v-5q58 -11 90.5 -42t32.5 -86q0 -73 -65.5 -120.5t-207.5 -47.5q-70 0 -118.5 8.5t-86.5 24.5v133q33 -13 81.5 -26t107.5 -13q62 0 92.5 15.5t30.5 40.5q0 28 -29.5 42t-103.5 14h-64v113h57
q67 0 100 11t33 39q0 22 -22 33.5t-72 11.5q-79 0 -161 -35l-48 116q48 19 100.5 30t122.5 11z" />
    <glyph glyph-name="uni025D" unicode="&#x25d;" horiz-adv-x="785" 
d="M262 559q77 0 138.5 -22t84.5 -71l123 35l14 -48q13 -46 24 -66t36 -20q21 0 36 8t29 18l38 -95q-23 -18 -51.5 -30t-63.5 -12q-52 0 -86.5 27.5t-53.5 87.5l-46 -14q-13 -24 -37 -40.5t-55 -25.5v-5q58 -11 90.5 -42t32.5 -86q0 -73 -65.5 -120.5t-207.5 -47.5
q-70 0 -118.5 9t-86.5 24v133q33 -13 81.5 -26t107.5 -13q62 0 92.5 15.5t30.5 40.5q0 28 -29.5 42t-103.5 14h-64v113h57q67 0 100 11t33 39q0 22 -22 33.5t-72 11.5q-79 0 -161 -35l-48 116q48 19 100.5 30t122.5 11z" />
    <glyph glyph-name="uni025E" unicode="&#x25e;" horiz-adv-x="641" 
d="M346 559q114 0 179.5 -37.5t65.5 -115.5q0 -52 -31 -80t-81 -40v-4q33 -5 61.5 -18t46.5 -36.5t18 -62.5q0 -83 -73 -129t-197 -46q-83 0 -149 29.5t-105 92.5t-39 164q0 92 39.5 155t108.5 95.5t156 32.5zM351 435q-63 0 -100 -40t-37 -119q0 -60 16.5 -94t45.5 -48
t67 -14q45 0 71.5 14.5t26.5 41.5q0 28 -25.5 38t-78.5 10h-34v111h32q52 0 79 10t27 40q0 24 -24.5 37t-65.5 13z" />
    <glyph glyph-name="uni025F" unicode="&#x25f;" horiz-adv-x="322" 
d="M37 -240q-26 0 -56 3.5t-48 8.5v133q18 -5 34 -7t37 -2q29 0 50.5 15.5t21.5 66.5v245h-78v109h78v217h169v-217h77v-109h-77v-273q0 -51 -20 -94.5t-65.5 -69.5t-122.5 -26z" />
    <glyph glyph-name="uni0260" unicode="&#x260;" horiz-adv-x="641" 
d="M581 768q32 0 56.5 -5.5t34.5 -10.5v-129q-7 3 -21.5 7t-33.5 4q-22 0 -37 -14t-15 -42v-577q0 -118 -73 -179.5t-212 -61.5q-57 0 -107 6.5t-99 25.5v131q53 -21 106.5 -31.5t109.5 -10.5q52 0 78.5 28t26.5 87v10v31.5t2 31.5h-2q-27 -42 -65 -60.5t-85 -18.5
q-95 0 -149 75.5t-54 208.5q0 137 56.5 211t150.5 74q97 0 155 -77h4q-5 23 -9 49t-4 53v8q0 90 47 133t139 43zM306 422q-91 0 -91 -150q0 -75 22.5 -112.5t71.5 -37.5q47 0 72.5 28.5t25.5 102.5v18q0 83 -25 117t-76 34z" />
    <glyph glyph-name="uni0261" unicode="&#x261;" horiz-adv-x="638" 
d="M249 559q54 0 92 -21t63 -58h4l13 69h144v-550q0 -117 -70.5 -178t-212.5 -61q-62 0 -112 7t-98 25v137q51 -21 100 -31.5t110 -10.5q115 0 115 105v11q0 14 1.5 32.5t3.5 35.5h-5q-24 -39 -61.5 -60t-89.5 -21q-93 0 -147.5 74t-54.5 210q0 137 55.5 211t149.5 74z
M308 426q-93 0 -93 -155q0 -77 23.5 -113.5t71.5 -36.5q53 0 76 31t23 102v21q0 77 -22.5 114t-78.5 37z" />
    <glyph glyph-name="uni0262" unicode="&#x262;" horiz-adv-x="618" 
d="M351 560q51 0 98 -10.5t82 -24.5l-49 -119q-29 14 -61.5 21.5t-68.5 7.5q-49 0 -79.5 -21.5t-45 -58t-14.5 -81.5q0 -74 31 -116t91 -42q15 0 32 1.5t26 3.5v85h-94v118h241v-299q-44 -14 -99 -23.5t-118 -9.5q-121 0 -194.5 70.5t-73.5 214.5q0 131 76 207t220 76z" />
    <glyph glyph-name="uni0263" unicode="&#x263;" horiz-adv-x="592" 
d="M287 -240q-75 0 -114.5 41.5t-39.5 111.5q0 51 17.5 97.5t46.5 107.5l-197 431h178l86 -221q8 -20 15.5 -48.5t11.5 -52.5h3q4 25 11.5 49.5t17.5 51.5l89 221h178l-209 -439q29 -56 46 -104t17 -94q0 -66 -41 -109t-116 -43zM288 -135q31 0 31 51q0 17 -7 46.5t-24 61.5
q-17 -31 -23.5 -60.5t-6.5 -45.5q0 -53 30 -53z" />
    <glyph glyph-name="uni0264" unicode="&#x264;" horiz-adv-x="582" 
d="M505 558q21 0 42 -4t34 -10v-125q-7 2 -13.5 3t-14.5 1q-27 0 -47 -13.5t-50 -50.5l-66 -82q25 -33 43.5 -66.5t18.5 -78.5q0 -62 -42.5 -104t-118.5 -42q-75 0 -116 40.5t-41 106.5q0 46 16 79t38 64l-63 83q-28 36 -47.5 50.5t-42.5 14.5q-18 0 -35 -4v124
q13 6 33.5 10t42.5 4q47 0 78.5 -18.5t58.5 -53.5l31 -41q11 -15 24 -34.5t24 -37.5h4q10 18 22 36.5t25 35.5l29 39q26 34 57 54t76 20zM294 201q-18 -21 -25 -39t-7 -35q0 -16 8 -27.5t24 -11.5t24 11.5t8 26.5q0 35 -32 75z" />
    <glyph glyph-name="uni0265" unicode="&#x265;" horiz-adv-x="663" 
d="M422 -77q0 50 3 89t5 57h-9q-26 -42 -65.5 -60.5t-89.5 -18.5q-57 0 -101.5 21t-69.5 65.5t-25 114.5v358h169v-311q0 -115 78 -115q60 0 82.5 45.5t22.5 130.5v250h169v-760h-169v134z" />
    <glyph glyph-name="uni0266" unicode="&#x266;" horiz-adv-x="663" 
d="M72 583q0 98 51 139.5t135 41.5q28 0 51 -4.5t33 -9.5v-123q-7 2 -20.5 5.5t-31.5 3.5q-22 0 -35.5 -12.5t-13.5 -39.5v-28q0 -32 -2.5 -57.5t-5.5 -34.5h9q26 43 65.5 61t89.5 18q57 0 101.5 -21t69.5 -65t25 -115v-342h-169v295q0 115 -78 115q-60 0 -82.5 -45.5
t-22.5 -129.5v-235h-169v583z" />
    <glyph glyph-name="uni0267" unicode="&#x267;" horiz-adv-x="669" 
d="M258 764q28 0 51 -4.5t33 -9.5v-123q-7 2 -20.5 5.5t-31.5 3.5q-22 0 -35.5 -12.5t-13.5 -39.5v-23q0 -34 -3 -59t-5 -32h9q26 41 65 60t91 19q57 0 101 -21t69 -65.5t25 -115.5v-395q0 -52 -18 -95.5t-59.5 -70t-111.5 -26.5q-24 0 -51 3.5t-45 8.5v133q15 -5 28 -7
t30 -2q23 0 40.5 16.5t17.5 67.5v326q0 109 -78 109q-60 0 -82.5 -45t-22.5 -130v-240h-169v583q0 98 51 139.5t135 41.5z" />
    <glyph glyph-name="uni0268" unicode="&#x268;" horiz-adv-x="314" 
d="M158 767q36 0 63 -16t27 -62q0 -45 -27 -61.5t-63 -16.5q-38 0 -64.5 16.5t-26.5 61.5q0 46 26.5 62t64.5 16zM317 332v-108h-76v-224h-168v224h-75v108h75v217h168v-217h76z" />
    <glyph glyph-name="uni0269" unicode="&#x269;" horiz-adv-x="402" 
d="M271 -10q-73 0 -116.5 26t-63 68.5t-19.5 92.5v372h168v-341q0 -50 19.5 -66.5t46.5 -16.5q18 0 33 2t32 7v-132q-19 -5 -47.5 -8.5t-52.5 -3.5z" />
    <glyph glyph-name="iotaserifed" unicode="&#x26a;" horiz-adv-x="369" 
d="M332 549v-85l-70 -29v-320l70 -29v-86h-295v86l71 29v320l-71 29v85h295z" />
    <glyph glyph-name="uni026B" unicode="&#x26b;" horiz-adv-x="478" 
d="M154 336q-11 2 -19 2q-35 0 -42 -47h-81q2 78 38.5 117.5t90.5 39.5q3 0 6.5 -0.5t6.5 -0.5v313h170v-357q4 0 9 -1t11 -1q32 0 42 49h80q-1 -78 -37.5 -118t-90.5 -40q-6 0 -14 1v-293h-170v336z" />
    <glyph glyph-name="uni026C" unicode="&#x26c;" horiz-adv-x="428" 
d="M162 0v286h-36q-72 0 -104 33t-32 81q0 53 31.5 85t87.5 32q15 0 28 -4t25 -11v258h169v-389h99v-85h-99v-286h-169zM133 371h29v16q0 26 -11.5 36t-27.5 10q-34 0 -34 -31q0 -18 12.5 -24.5t31.5 -6.5z" />
    <glyph glyph-name="uni026D" unicode="&#x26d;" horiz-adv-x="322" 
d="M250 -240q-66 0 -104 23t-54 64t-16 95v818h169v-815q0 -23 13 -36.5t34 -13.5q17 0 29 2.5t26 7.5v-129q-17 -9 -43.5 -12.5t-53.5 -3.5z" />
    <glyph glyph-name="uni026E" unicode="&#x26e;" horiz-adv-x="790" 
d="M439 -240q-68 0 -121.5 10t-101.5 29v144q48 -22 105 -35t109 -13q56 0 89 16.5t47 43.5t14 59q0 33 -15 60.5t-56 44t-118 16.5h-62v113l189 172h-273v-420h-169v760h169v-211h485v-106l-211 -192q82 -8 133 -40.5t75 -82.5t24 -111q0 -75 -33 -133t-102 -91t-177 -33z
" />
    <glyph glyph-name="uni026F" unicode="&#x26f;" horiz-adv-x="990" 
d="M261 -10q-94 0 -142.5 48t-48.5 153v358h168v-310q0 -61 19 -88.5t56 -27.5q54 0 75.5 41.5t21.5 118.5v266h168v-310q0 -116 74 -116q56 0 76.5 45.5t20.5 130.5v250h169v-549h-128l-24 69h-6q-24 -38 -66.5 -58.5t-96.5 -20.5q-117 0 -165 79h-10q-25 -40 -68.5 -59.5
t-92.5 -19.5z" />
    <glyph glyph-name="uni0270" unicode="&#x270;" horiz-adv-x="1003" 
d="M757 -13q0 18 2 42.5t5 41.5h-7q-27 -42 -65.5 -61.5t-85.5 -19.5q-60 0 -102 18.5t-65 58.5h-15q-25 -41 -69.5 -59t-90.5 -18q-94 0 -142.5 47.5t-48.5 153.5v358h170v-313q0 -111 74 -111q54 0 76 41.5t22 116.5v266h170v-310q0 -114 73 -114q58 0 78.5 46t20.5 129
v249h170v-789h-170v227z" />
    <glyph glyph-name="uni0271" unicode="&#x271;" horiz-adv-x="1003" 
d="M738 559q94 0 142.5 -47.5t48.5 -153.5v-412q0 -50 -18 -92.5t-59.5 -68t-109.5 -25.5q-25 0 -52.5 3.5t-43.5 8.5v133q15 -5 27.5 -7t29.5 -2q22 0 39 14.5t17 62.5v340q0 112 -73 112q-55 0 -77 -42t-22 -117v-266h-169v310q0 115 -74 115q-58 0 -78.5 -46.5
t-20.5 -128.5v-250h-169v549h129l22 -69h9q26 42 70 60.5t91 18.5q59 0 101 -18.5t65 -58.5h16q25 41 69.5 59t89.5 18z" />
    <glyph glyph-name="uni0272" unicode="&#x272;" horiz-adv-x="671" 
d="M401 559q87 0 142 -47t55 -154v-358h-171v314q0 54 -18 82.5t-59 28.5q-62 0 -83.5 -46t-21.5 -129v-304q0 -50 -16 -92.5t-55.5 -68t-107.5 -25.5q-25 0 -50 3.5t-42 12.5v129q14 -5 26 -7.5t28 -2.5q22 0 35 13.5t13 36.5v604h129l22 -69h9q26 42 71.5 60.5t93.5 18.5z
" />
    <glyph glyph-name="uni0273" unicode="&#x273;" horiz-adv-x="671" 
d="M598 -54q0 -23 13 -37t36 -14q17 0 28.5 2.5t26.5 7.5v-129q-18 -9 -44.5 -12.5t-53.5 -3.5q-67 0 -105.5 23t-55 64.5t-16.5 96.5v370q0 54 -18 82.5t-59 28.5q-62 0 -83.5 -46t-21.5 -129v-250h-169v549h129l22 -69h9q26 42 71.5 60.5t93.5 18.5q87 0 142 -47t55 -154
v-412z" />
    <glyph glyph-name="uni0274" unicode="&#x274;" horiz-adv-x="705" 
d="M83 0v549h202l204 -378q-2 28 -3.5 63.5t-1.5 74.5v240h136v-549h-200l-205 384q2 -24 3.5 -62.5t1.5 -82.5v-239h-137z" />
    <glyph glyph-name="uni0275" unicode="&#x275;" horiz-adv-x="627" 
d="M583 276q0 -138 -72.5 -212t-198.5 -74q-78 0 -138.5 33.5t-95 97t-34.5 155.5q0 136 72.5 209.5t198.5 73.5q78 0 138.5 -33t95 -96t34.5 -154zM313 433q-92 0 -103 -106h207q-10 106 -104 106zM314 116q92 0 102 106h-206q12 -106 104 -106z" />
    <glyph glyph-name="uni0276" unicode="&#x276;" horiz-adv-x="878" 
d="M302 558q35 0 62.5 -6t47.5 -16v12h403v-125h-237v-81h223v-122h-223v-94h237v-126h-403v13q-44 -22 -113 -22q-75 0 -133 33t-91 96t-33 155q0 136 68.5 209.5t191.5 73.5zM314 429q-53 0 -76 -38t-23 -116t23 -116.5t76 -38.5q54 0 76.5 39.5t22.5 115.5q0 78 -23 116
t-76 38z" />
    <glyph glyph-name="uni0277" unicode="&#x277;" horiz-adv-x="840" 
d="M422 558q123 0 206.5 -41t125.5 -113.5t42 -167.5q0 -114 -55.5 -180t-158.5 -66q-70 0 -106.5 30t-53.5 73h-5q-18 -44 -55.5 -73.5t-105.5 -29.5q-102 0 -158 66t-56 180q0 96 45.5 168.5t130 113t204.5 40.5zM419 421q-81 0 -129 -25.5t-69.5 -67.5t-21.5 -92
q0 -54 18.5 -84t55.5 -30q42 0 56 28t14 78v96h153v-98q0 -48 13.5 -76t55.5 -28q37 0 56 30t19 82q0 50 -22 92.5t-70.5 68.5t-128.5 26z" />
    <glyph glyph-name="uni0278" unicode="&#x278;" horiz-adv-x="838" 
d="M499 551q146 -13 220.5 -88.5t74.5 -188.5q0 -74 -32 -133.5t-97.5 -97t-165.5 -45.5v-238h-157v238q-146 14 -222 89.5t-76 186.5q0 77 31 137t96.5 96.5t169.5 43.5v209h158v-209zM341 425q-56 -6 -92 -48t-36 -103q0 -62 34.5 -103.5t93.5 -46.5v301zM499 124
q58 5 91.5 46.5t33.5 103.5q0 61 -34.5 103t-90.5 47v-300z" />
    <glyph glyph-name="uni0279" unicode="&#x279;" horiz-adv-x="461" 
d="M70 -10q-13 0 -29 1.5t-25 3.5l14 158q9 -2 22.5 -3.5t31.5 -1.5q32 0 63 10.5t52 37.5t21 78v275h168v-549h-126l-26 90h-8q-23 -41 -65 -70.5t-93 -29.5z" />
    <glyph glyph-name="uni027A" unicode="&#x27a;" horiz-adv-x="461" 
d="M70 -10q-13 0 -29 1.5t-25 3.5l14 158q9 -2 22.5 -3.5t31.5 -1.5q32 0 63 10.5t52 37.5t21 78v486h168v-760h-126l-26 90h-8q-23 -41 -65 -70.5t-93 -29.5z" />
    <glyph glyph-name="uni027B" unicode="&#x27b;" horiz-adv-x="467" 
d="M395 -240q-66 0 -103.5 23.5t-53.5 65.5t-16 97v19q0 44 1.5 69t4.5 49h-5q-24 -38 -63 -65.5t-93 -27.5q-10 0 -24.5 1t-21.5 3l12 159q5 -2 18.5 -3.5t24.5 -1.5q34 0 67.5 10.5t56 37.5t22.5 78v275h170v-599q0 -24 11 -39.5t35 -15.5q17 0 29 3t27 7v-129
q-18 -9 -44.5 -12.5t-54.5 -3.5z" />
    <glyph glyph-name="uni027C" unicode="&#x27c;" horiz-adv-x="461" 
d="M391 559q13 0 29 -1.5t25 -3.5l-14 -158q-9 2 -23 3.5t-31 1.5q-32 0 -63.5 -10t-52 -37.5t-20.5 -78.5v-515h-169v789h127l26 -90h7q24 41 66 70.5t93 29.5z" />
    <glyph glyph-name="uni027D" unicode="&#x27d;" horiz-adv-x="467" 
d="M396 559q10 0 26.5 -1t23.5 -2l-12 -160q-6 2 -19.5 3t-24.5 1q-34 0 -67.5 -10t-55.5 -37t-22 -78v-330q0 -23 13 -36.5t34 -13.5q17 0 29 2.5t26 7.5v-129q-17 -9 -43.5 -12.5t-53.5 -3.5q-66 0 -104 23t-54 64t-16 95v607h127l26 -91h8q23 40 64 70.5t95 30.5z" />
    <glyph glyph-name="uni027E" unicode="&#x27e;" horiz-adv-x="411" 
d="M266 562q38 0 66 -4t57 -12l-19 -137q-15 4 -28.5 6t-32.5 2q-39 0 -52.5 -21.5t-13.5 -48.5v-347h-170v356q0 106 49.5 156t143.5 50z" />
    <glyph glyph-name="uni027F" unicode="&#x27f;" horiz-adv-x="411" 
d="M144 562q95 0 144.5 -50t49.5 -156v-596h-170v587q0 27 -13.5 48.5t-53.5 21.5q-18 0 -31.5 -2t-27.5 -6l-20 137q29 8 57 12t65 4z" />
    </font>
</defs>
</svg>
