<?xml version="1.0" standalone="no"?>
<!DOCTYPE svg PUBLIC "-//W3C//DTD SVG 1.1//EN" "http://www.w3.org/Graphics/SVG/1.1/DTD/svg11.dtd" >
<svg xmlns="http://www.w3.org/2000/svg" xmlns:xlink="http://www.w3.org/1999/xlink" version="1.1">
<metadata>
Created by FontForge 20170731 at Mon Feb  7 20:28:37 2022
 By Aleksey,,,
Copyright 2015-2021 Google LLC. All Rights Reserved.
</metadata>
<defs>
<font id="NotoSans-ExtraLight" horiz-adv-x="0" >
  <font-face 
    font-family="Noto Sans ExtraLight"
    font-weight="200"
    font-stretch="normal"
    units-per-em="1000"
    panose-1="2 11 3 2 4 5 4 2 2 4"
    ascent="800"
    descent="-200"
    x-height="529"
    cap-height="714"
    bbox="-618 -395 2800 1347"
    underline-thickness="50"
    underline-position="-175"
    unicode-range="U+000D-FFFD"
  />
<missing-glyph horiz-adv-x="600" 
d="M94 0v714h411v-714h-411zM145 51h309v612h-309v-612z" />
    <glyph glyph-name="f_f" unicode="ff" horiz-adv-x="576" 
d="M273 496h-122v-496h-39v496h-100v26l100 8v66q0 83 36 126t114 43q26 0 47 -4t40 -9l-8 -35q-37 13 -79 13q-59 0 -85 -31t-26 -102v-67h122v-34zM561 496h-122v-496h-39v496h-100v26l100 8v66q0 83 36 126t114 43q26 0 47 -4t40 -9l-8 -35q-37 13 -79 13q-59 0 -85 -31
t-26 -102v-67h122v-34z" />
    <glyph glyph-name="fi" unicode="fi" horiz-adv-x="506" 
d="M273 496h-122v-496h-39v496h-100v26l100 8v66q0 83 36 126t114 43q26 0 47 -4t40 -9l-8 -35q-37 13 -79 13q-59 0 -85 -31t-26 -102v-67h122v-34zM396 724q19 0 25.5 -10t6.5 -26t-6.5 -26t-25.5 -10q-16 0 -23 10t-7 26t7 26t23 10zM416 530v-530h-39v530h39z" />
    <glyph glyph-name="fl" unicode="fl" horiz-adv-x="506" 
d="M273 496h-122v-496h-39v496h-100v26l100 8v66q0 83 36 126t114 43q26 0 47 -4t40 -9l-8 -35q-37 13 -79 13q-59 0 -85 -31t-26 -102v-67h122v-34zM416 0h-38v760h38v-760z" />
    <glyph glyph-name="f_f_i" unicode="ffi" horiz-adv-x="794" 
d="M273 496h-122v-496h-39v496h-100v26l100 8v66q0 83 36 126t114 43q26 0 47 -4t40 -9l-8 -35q-37 13 -79 13q-59 0 -85 -31t-26 -102v-67h122v-34zM561 496h-122v-496h-39v496h-100v26l100 8v66q0 83 36 126t114 43q26 0 47 -4t40 -9l-8 -35q-37 13 -79 13q-59 0 -85 -31
t-26 -102v-67h122v-34zM684 724q19 0 25.5 -10t6.5 -26t-6.5 -26t-25.5 -10q-16 0 -23 10t-7 26t7 26t23 10zM704 530v-530h-39v530h39z" />
    <glyph glyph-name="f_f_l" unicode="ffl" horiz-adv-x="794" 
d="M273 496h-122v-496h-39v496h-100v26l100 8v66q0 83 36 126t114 43q26 0 47 -4t40 -9l-8 -35q-37 13 -79 13q-59 0 -85 -31t-26 -102v-67h122v-34zM561 496h-122v-496h-39v496h-100v26l100 8v66q0 83 36 126t114 43q26 0 47 -4t40 -9l-8 -35q-37 13 -79 13q-59 0 -85 -31
t-26 -102v-67h122v-34zM704 0h-38v760h38v-760z" />
    <glyph glyph-name=".notdef" horiz-adv-x="600" 
d="M94 0v714h411v-714h-411zM145 51h309v612h-309v-612z" />
    <glyph glyph-name=".null" 
 />
    <glyph glyph-name="nonmarkingreturn" horiz-adv-x="333" 
 />
    <glyph glyph-name="NULL" 
 />
    <glyph glyph-name="NULL" 
 />
    <glyph glyph-name="CR" unicode="&#xd;" horiz-adv-x="260" 
 />
    <glyph glyph-name="space" unicode=" " horiz-adv-x="260" 
 />
    <glyph glyph-name="exclam" unicode="!" horiz-adv-x="232" 
d="M133 179h-32l-6 535h44zM82 29q0 17 8 28t25 11q19 0 26.5 -11t7.5 -28t-7.5 -27.5t-26.5 -10.5q-17 0 -25 10.5t-8 27.5z" />
    <glyph glyph-name="quotedbl" unicode="&#x22;" horiz-adv-x="338" 
d="M113 714l-7 -258h-27l-8 258h42zM267 714l-8 -258h-27l-7 258h42z" />
    <glyph glyph-name="numbersign" unicode="#" horiz-adv-x="646" 
d="M470 457l-39 -201h149v-33h-155l-44 -223h-34l44 223h-188l-43 -223h-34l43 223h-142v33h147l40 201h-148v32h153l43 225h35l-43 -225h188l43 225h34l-44 -225h143v-32h-148zM209 256h187l39 201h-187z" />
    <glyph glyph-name="dollar" unicode="$" horiz-adv-x="570" 
d="M253 18q-61 1 -108 9.5t-79 20.5v40q34 -14 83.5 -24t103.5 -11v295q-54 19 -97 41t-67.5 55.5t-24.5 85.5q0 78 53.5 120.5t135.5 46.5v62h32v-61q43 -1 84 -10.5t81 -26.5l-14 -34q-40 18 -78.5 26t-72.5 9v-287q58 -20 101.5 -42t68 -55t24.5 -85q0 -82 -54 -125.5
t-140 -48.5v-77h-32v76zM253 662q-65 -3 -107.5 -35t-42.5 -94q0 -42 20 -69t54 -44.5t76 -32.5v275zM285 55q69 4 112 37.5t43 99.5q0 58 -40.5 87.5t-114.5 56.5v-281z" />
    <glyph glyph-name="percent" unicode="%" horiz-adv-x="801" 
d="M197 724q70 0 104 -57.5t34 -165.5q0 -112 -36.5 -168.5t-103.5 -56.5t-102.5 57.5t-35.5 167.5t36.5 166.5t103.5 56.5zM618 714l-396 -714h-38l396 714h38zM197 691q-50 0 -77 -47t-27 -143q0 -192 102 -192q52 0 78 49t26 143q0 93 -24.5 141.5t-77.5 48.5zM605 438
q70 0 104.5 -57.5t34.5 -165.5q0 -112 -37 -168.5t-104 -56.5t-102.5 57.5t-35.5 167.5t37 166.5t103 56.5zM605 405q-50 0 -76.5 -47t-26.5 -143q0 -192 101 -192q52 0 78 49t26 143q0 93 -24.5 141.5t-77.5 48.5z" />
    <glyph glyph-name="ampersand" unicode="&#x26;" horiz-adv-x="708" 
d="M304 725q71 0 115 -39t44 -107t-45 -111.5t-120 -80.5l233 -234q29 35 51.5 81t34.5 100h40q-15 -62 -40.5 -113.5t-60.5 -94.5l124 -126h-52l-97 101q-46 -49 -104.5 -80t-146.5 -31q-97 0 -158 49t-61 141q0 55 21 92.5t60.5 66t95.5 56.5q-48 49 -75.5 88t-27.5 92
q0 68 46.5 109t122.5 41zM303 690q-60 0 -94.5 -31t-34.5 -84q0 -44 25 -80t72 -83q73 33 113 71.5t40 95.5q0 52 -33 81.5t-88 29.5zM263 370q-52 -26 -88 -51t-55 -57.5t-19 -80.5q0 -74 49.5 -114.5t130.5 -40.5q79 0 130.5 27t94.5 72z" />
    <glyph glyph-name="quotesingle" unicode="'" horiz-adv-x="183" 
d="M113 714l-7 -258h-27l-8 258h42z" />
    <glyph glyph-name="parenleft" unicode="(" horiz-adv-x="264" 
d="M42 274q0 131 37.5 244t107.5 196h43q-76 -90 -112.5 -202.5t-36.5 -236.5q0 -123 37.5 -233t111.5 -200h-43q-70 85 -107.5 194t-37.5 238z" />
    <glyph glyph-name="parenright" unicode=")" horiz-adv-x="264" 
d="M223 280q0 -130 -37.5 -243t-107.5 -195h-43q76 90 112.5 202t36.5 236q0 123 -37.5 233.5t-111.5 200.5h43q70 -85 107.5 -194.5t37.5 -239.5z" />
    <glyph glyph-name="asterisk" unicode="*" horiz-adv-x="551" 
d="M294 758l-9 -203l194 66l9 -40l-193 -48l123 -162l-35 -24l-110 171l-107 -170l-37 23l123 162l-194 48l10 40l193 -66l-9 203h42z" />
    <glyph glyph-name="plus" unicode="+" horiz-adv-x="570" 
d="M302 370h214v-34h-214v-215h-34v215h-214v34h214v215h34v-215z" />
    <glyph glyph-name="comma" unicode="," horiz-adv-x="200" 
d="M139 104q-12 -55 -30 -118t-40 -115h-30q20 70 33 129.5t21 115.5h42z" />
    <glyph glyph-name="hyphen" unicode="-" horiz-adv-x="322" 
d="M40 253v36h242v-36h-242z" />
    <glyph glyph-name="period" unicode="." horiz-adv-x="230" 
d="M82 29q0 17 8 28t25 11q19 0 26.5 -11t7.5 -28t-7.5 -27.5t-26.5 -10.5q-17 0 -25 10.5t-8 27.5z" />
    <glyph glyph-name="slash" unicode="/" horiz-adv-x="332" 
d="M320 714l-268 -714h-40l268 714h40z" />
    <glyph glyph-name="slash" unicode="&#x2215;" horiz-adv-x="332" 
d="M320 714l-268 -714h-40l268 714h40z" />
    <glyph glyph-name="zero" unicode="0" horiz-adv-x="570" 
d="M510 360q0 -182 -55 -276t-170 -94q-109 0 -167.5 92t-58.5 278q0 106 22 188.5t72 129.5t133 47q84 0 133 -46t70 -128.5t21 -190.5zM99 360q0 -171 46 -253t140 -82q98 0 142 82.5t44 252.5q0 101 -16.5 175t-56.5 114.5t-112 40.5q-71 0 -112 -41.5t-58 -116
t-17 -172.5z" />
    <glyph glyph-name="one" unicode="1" horiz-adv-x="570" 
d="M327 0h-38v550v71.5t2 50.5q-13 -12 -25 -21.5t-31 -23.5l-114 -85l-22 28l195 144h33v-714z" />
    <glyph glyph-name="two" unicode="2" horiz-adv-x="570" 
d="M497 0h-440v33l216 227q50 52 83.5 94.5t51 85.5t17.5 97q0 72 -41.5 112t-114.5 40q-92 0 -172 -65l-22 28q45 37 95.5 54.5t98.5 17.5q89 0 142.5 -51t53.5 -135q0 -59 -19.5 -106.5t-55.5 -92.5t-86 -96l-196 -205v-2h389v-36z" />
    <glyph glyph-name="three" unicode="3" horiz-adv-x="570" 
d="M475 550q0 -71 -43 -117t-109 -58v-2q84 -11 129 -55t45 -122q0 -90 -63.5 -148t-187.5 -58q-59 0 -109.5 11.5t-89.5 29.5v39q39 -19 92 -32t107 -13q106 0 158 46.5t52 124.5q0 86 -61 121.5t-159 35.5h-80v35h80q54 0 99.5 17.5t72.5 53.5t27 90q0 70 -44.5 105
t-117.5 35q-57 0 -104.5 -17t-94.5 -51l-20 29q43 33 97.5 53.5t121.5 20.5q92 0 147 -46t55 -128z" />
    <glyph glyph-name="four" unicode="4" horiz-adv-x="570" 
d="M558 188h-128v-188h-38v188h-368v29l366 501h40v-495h128v-35zM392 512q0 41 0.5 68t1 48t0.5 45h-2q-16 -25 -28 -44t-32 -46l-262 -360h322v289z" />
    <glyph glyph-name="five" unicode="5" horiz-adv-x="570" 
d="M274 428q108 0 170.5 -54t62.5 -155q0 -71 -31.5 -122.5t-89 -79t-134.5 -27.5q-57 0 -102.5 11.5t-77.5 29.5v41q34 -20 80.5 -33.5t99.5 -13.5q97 0 156 50.5t59 141.5q0 83 -50 129.5t-149 46.5q-43 0 -79.5 -5.5t-70.5 -15.5l-24 18l30 324h339v-36h-306l-23 -268
q23 6 57.5 12t82.5 6z" />
    <glyph glyph-name="six" unicode="6" horiz-adv-x="570" 
d="M65 303q0 214 81 318.5t224 104.5q28 0 52.5 -3.5t43.5 -9.5v-36q-18 6 -42.5 10t-53.5 4q-122 0 -192 -87.5t-75 -273.5h3q13 27 39.5 52.5t66.5 42t95 16.5q98 0 153 -58t55 -157q0 -70 -25.5 -123.5t-74 -83t-116.5 -29.5q-61 0 -105 25.5t-72.5 69.5t-42.5 100
t-14 118zM299 25q85 0 131 53t46 148q0 84 -43 132.5t-130 48.5q-60 0 -103.5 -24t-67 -59t-23.5 -68q0 -30 8.5 -69.5t30 -76.5t58 -61t93.5 -24z" />
    <glyph glyph-name="seven" unicode="7" horiz-adv-x="570" 
d="M173 0l297 678h-415v36h458v-27l-297 -687h-43z" />
    <glyph glyph-name="eight" unicode="8" horiz-adv-x="570" 
d="M283 724q91 0 145.5 -43.5t54.5 -121.5q0 -65 -43.5 -106.5t-115.5 -71.5q84 -30 133.5 -76.5t49.5 -122.5q0 -61 -30 -104t-81 -65.5t-115 -22.5q-66 0 -115.5 23t-77 65t-27.5 98q0 80 49.5 127.5t129.5 75.5q-43 18 -78.5 41t-56.5 56.5t-21 81.5q0 51 25.5 88
t70.5 57.5t103 20.5zM283 690q-70 0 -115 -34.5t-45 -98.5q0 -62 45 -97.5t119 -61.5q76 31 116.5 67t40.5 94q0 65 -43 98t-118 33zM100 176q0 -69 49 -110.5t131 -41.5q83 0 135.5 40.5t52.5 117.5q0 62 -42.5 102t-121.5 69l-25 9q-51 -18 -91.5 -42t-64 -59t-23.5 -85z
" />
    <glyph glyph-name="nine" unicode="9" horiz-adv-x="570" 
d="M504 412q0 -214 -80.5 -319t-224.5 -105q-27 0 -56 3.5t-48 9.5v37q18 -6 46 -10.5t58 -4.5q121 0 192 88.5t75 273.5h-3q-13 -27 -40 -53t-67.5 -42.5t-94.5 -16.5q-98 0 -152.5 58.5t-54.5 157.5q0 70 26 123t74.5 82.5t116.5 29.5q82 0 133.5 -43t75.5 -114t24 -155z
M271 689q-85 0 -131.5 -52.5t-46.5 -146.5q0 -85 43 -134t130 -49q60 0 103.5 24.5t67 59.5t23.5 69q0 30 -8.5 69t-29.5 75.5t-58 60.5t-93 24z" />
    <glyph glyph-name="colon" unicode=":" horiz-adv-x="230" 
d="M82 497q0 17 8 28t25 11q19 0 26.5 -11t7.5 -28t-7.5 -27.5t-26.5 -10.5q-17 0 -25 10.5t-8 27.5zM82 29q0 17 8 28t25 11q19 0 26.5 -11t7.5 -28t-7.5 -27.5t-26.5 -10.5q-17 0 -25 10.5t-8 27.5z" />
    <glyph glyph-name="semicolon" unicode=";" horiz-adv-x="230" 
d="M82 497q0 17 7.5 28t24.5 11q20 0 27.5 -11t7.5 -28t-7.5 -27.5t-27.5 -10.5q-17 0 -24.5 10.5t-7.5 27.5zM137 104q-12 -55 -30 -118t-39 -115h-31q20 69 33 129t22 116h41z" />
    <glyph glyph-name="less" unicode="&#x3c;" horiz-adv-x="570" 
d="M515 134l-460 213v24l460 219v-36l-413 -194l413 -190v-36z" />
    <glyph glyph-name="equal" unicode="=" horiz-adv-x="570" 
d="M55 438v33h460v-33h-460zM55 235v33h460v-33h-460z" />
    <glyph glyph-name="greater" unicode="&#x3e;" horiz-adv-x="570" 
d="M55 170l413 190l-413 194v36l460 -219v-24l-460 -213v36z" />
    <glyph glyph-name="question" unicode="?" horiz-adv-x="417" 
d="M143 195q0 47 7 78t25.5 54.5t52.5 48.5q36 27 62 51.5t39 53.5t13 72q0 69 -41.5 102t-109.5 33q-39 0 -73.5 -8.5t-70.5 -26.5l-14 35q42 18 78.5 27t80.5 9q87 0 138 -43t51 -128q0 -49 -16 -83.5t-45 -62t-68 -55.5q-28 -21 -44 -41.5t-23.5 -48t-7.5 -69.5v-14h-34
v16zM130 29q0 17 7.5 28t24.5 11q20 0 27 -11t7 -28t-7 -27.5t-27 -10.5q-17 0 -24.5 10.5t-7.5 27.5z" />
    <glyph glyph-name="at" unicode="@" horiz-adv-x="882" 
d="M829 352q0 -67 -17.5 -122.5t-52.5 -89t-89 -33.5q-46 0 -74 27t-31 75h-1q-22 -53 -62.5 -77.5t-89.5 -24.5q-74 0 -114 46.5t-40 132.5q0 65 26.5 115t74.5 79t111 29q38 0 71.5 -5.5t61.5 -15.5l-8 -157q0 -18 -1.5 -40t-1.5 -43q0 -53 18.5 -80.5t60.5 -27.5t69 27.5
t40 75.5t13 109q0 98 -38 170.5t-110 112t-175 39.5q-114 0 -199.5 -46t-133.5 -133.5t-48 -210.5q0 -109 39 -187t112.5 -119.5t177.5 -41.5q52 0 105 10.5t100 30.5v-36q-44 -18 -95.5 -28.5t-109.5 -10.5q-113 0 -195 46.5t-126 132t-44 202.5q0 134 52.5 229
t146.5 145.5t218 50.5q110 0 190.5 -43.5t124.5 -123t44 -189.5zM295 286q0 -71 30 -108.5t90 -37.5q134 0 144 177l8 145q-21 7 -44.5 10.5t-52.5 3.5q-80 0 -127.5 -52.5t-47.5 -137.5z" />
    <glyph glyph-name="A" unicode="A" horiz-adv-x="590" 
d="M548 0l-100 261h-305l-102 -261h-41l281 716h37l271 -716h-41zM330 578q-5 17 -14 41.5t-18 50.5q-7 -24 -16 -48.5t-17 -43.5l-108 -281h277z" />
    <glyph glyph-name="B" unicode="B" horiz-adv-x="621" 
d="M295 714q132 0 191.5 -42t59.5 -131q0 -61 -36 -106.5t-104 -57.5v-2q84 -13 121.5 -57t37.5 -115q0 -72 -32.5 -116.5t-89.5 -65.5t-131 -21h-210v714h193zM306 392q103 0 151 37t48 109q0 75 -50 107.5t-161 32.5h-153v-286h165zM141 357v-322h174q101 0 155 41.5
t54 127.5q0 85 -57 119t-162 34h-164z" />
    <glyph glyph-name="C" unicode="C" horiz-adv-x="618" 
d="M405 688q-96 0 -163.5 -42t-103 -116.5t-35.5 -170.5q0 -100 32 -175t95.5 -116.5t158.5 -41.5q56 0 100.5 8t81.5 21v-34q-35 -14 -80 -22.5t-104 -8.5q-107 0 -179 46t-108.5 129.5t-36.5 194.5q0 104 40.5 186.5t117 130t184.5 47.5q100 0 182 -38l-16 -35
q-40 21 -82 29t-84 8z" />
    <glyph glyph-name="D" unicode="D" horiz-adv-x="700" 
d="M636 364q0 -180 -93 -272t-278 -92h-163v714h186q173 0 260.5 -89.5t87.5 -260.5zM596 363q0 155 -77 235t-242 80h-136v-642h124q331 0 331 327z" />
    <glyph glyph-name="E" unicode="E" horiz-adv-x="551" 
d="M490 0h-388v714h388v-36h-349v-284h329v-36h-329v-322h349v-36z" />
    <glyph glyph-name="F" unicode="F" horiz-adv-x="497" 
d="M141 0h-39v714h388v-36h-349v-318h330v-36h-330v-324z" />
    <glyph glyph-name="G" unicode="G" horiz-adv-x="722" 
d="M375 355h267v-321q-50 -22 -107.5 -33t-120.5 -11q-172 0 -261.5 95.5t-89.5 269.5q0 107 43 190.5t124.5 132t194.5 48.5q58 0 110 -11t99 -33l-17 -36q-48 23 -96.5 33.5t-96.5 10.5q-100 0 -172 -43t-110.5 -118.5t-38.5 -172.5q0 -170 84 -250t233 -80q56 0 101 8.5
t82 22.5v262h-228v36z" />
    <glyph glyph-name="H" unicode="H" horiz-adv-x="713" 
d="M611 0h-39v357h-431v-357h-39v714h39v-321h431v321h39v-714z" />
    <glyph glyph-name="I" unicode="I" horiz-adv-x="294" 
d="M238 0h-181v27l71 6v647l-71 8v26h181v-26l-71 -8v-647l71 -6v-27z" />
    <glyph glyph-name="J" unicode="J" horiz-adv-x="240" 
d="M-16 -177q-27 0 -46 3.5t-32 8.5v38q14 -6 34.5 -9.5t43.5 -3.5q65 0 92 38.5t27 106.5v709h39v-710q0 -80 -37 -130.5t-121 -50.5z" />
    <glyph glyph-name="K" unicode="K" horiz-adv-x="570" 
d="M570 0h-48l-283 386l-98 -96v-290h-39v714h39v-382q15 17 31.5 34t33.5 35l306 313h51l-295 -300z" />
    <glyph glyph-name="L" unicode="L" horiz-adv-x="510" 
d="M102 0v714h39v-678h348v-36h-387z" />
    <glyph glyph-name="M" unicode="M" horiz-adv-x="851" 
d="M409 0l-269 668h-3q1 -26 1.5 -51t0.5 -54v-563h-37v714h60l262 -650h3l263 650h59v-714h-39v569q0 22 0.5 47t1.5 51h-2l-270 -667h-31z" />
    <glyph glyph-name="N" unicode="N" horiz-adv-x="711" 
d="M608 0h-36l-433 642h-2q1 -41 1.5 -79.5t0.5 -81.5v-481h-37v714h37l431 -640h2q0 34 -1 77t-1 80v483h38v-714z" />
    <glyph glyph-name="O" unicode="O" horiz-adv-x="759" 
d="M696 358q0 -108 -35 -191t-105.5 -130t-176.5 -47q-105 0 -175.5 47t-105.5 130t-35 192q0 108 36.5 190.5t108.5 129t176 46.5q150 0 231 -97.5t81 -269.5zM103 359q0 -98 30 -173t91.5 -117.5t155.5 -42.5t155 42t90.5 116.5t29.5 173.5q0 157 -69.5 244t-201.5 87
q-95 0 -157 -42t-93 -116.5t-31 -171.5z" />
    <glyph glyph-name="P" unicode="P" horiz-adv-x="580" 
d="M273 714q124 0 187.5 -47.5t63.5 -150.5q0 -111 -69 -163.5t-196 -52.5h-118v-300h-39v714h171zM268 678h-127v-343h114q70 0 121 16t79 55.5t28 107.5q0 87 -52.5 125.5t-162.5 38.5z" />
    <glyph glyph-name="Q" unicode="Q" horiz-adv-x="759" 
d="M696 358q0 -93 -26.5 -169t-79.5 -125.5t-133 -65.5l148 -168h-55l-136 162q-9 -1 -17.5 -1.5t-17.5 -0.5q-105 0 -175.5 47t-105.5 130t-35 192q0 108 36.5 190.5t108.5 129t176 46.5q150 0 231 -97.5t81 -269.5zM103 359q0 -98 30 -173t91.5 -117.5t155.5 -42.5t155 42
t90.5 116.5t29.5 173.5q0 157 -69.5 244t-201.5 87q-95 0 -157 -42t-93 -116.5t-31 -171.5z" />
    <glyph glyph-name="R" unicode="R" horiz-adv-x="586" 
d="M269 714q125 0 190 -41.5t65 -150.5q0 -81 -43 -128.5t-115 -67.5l196 -326h-47l-188 315h-186v-315h-39v714h167zM264 678h-123v-328h151q87 0 139 44.5t52 126.5q0 90 -54 123.5t-165 33.5z" />
    <glyph glyph-name="S" unicode="S" horiz-adv-x="544" 
d="M492 182q0 -64 -32.5 -106.5t-87.5 -64t-123 -21.5q-67 0 -112.5 9t-81.5 21v41q39 -15 88 -25t109 -10q56 0 101 16.5t72 51t27 87.5q0 47 -22.5 76t-65.5 49.5t-105 41.5q-58 19 -102.5 42t-69 59t-24.5 95t30.5 99t81.5 60.5t115 20.5q99 0 184 -38l-15 -34
q-44 20 -86.5 28t-84.5 8q-51 0 -93 -15.5t-67 -47t-25 -80.5q0 -51 23 -81t63.5 -48.5t93.5 -36.5q63 -20 110 -43.5t73 -59t26 -94.5z" />
    <glyph glyph-name="T" unicode="T" horiz-adv-x="515" 
d="M277 0h-39v678h-234v36h508v-36h-235v-678z" />
    <glyph glyph-name="U" unicode="U" horiz-adv-x="716" 
d="M622 252q0 -129 -72 -195.5t-194 -66.5q-125 0 -193.5 68t-68.5 196v460h39v-459q0 -113 58.5 -171t166.5 -58q105 0 165.5 56t60.5 164v468h38v-462z" />
    <glyph glyph-name="V" unicode="V" horiz-adv-x="571" 
d="M571 714l-267 -714h-38l-266 714h41l205 -548q12 -32 22 -61.5t18 -54.5q7 25 16.5 52.5t22.5 63.5l204 548h42z" />
    <glyph glyph-name="W" unicode="W" horiz-adv-x="881" 
d="M855 714l-197 -714h-37l-157 559q-8 31 -15 54.5t-12 48.5q-4 -23 -8.5 -43t-11.5 -43l-157 -576h-37l-194 714h40l141 -522q10 -39 18 -68.5t14 -60.5q7 31 14.5 61.5t18.5 69.5l144 520h39l148 -523q12 -41 19.5 -70.5t13.5 -60.5q6 32 12.5 61t17.5 70l145 523h41z
" />
    <glyph glyph-name="X" unicode="X" horiz-adv-x="525" 
d="M526 0h-45l-218 342l-221 -342h-44l241 370l-218 344h45l199 -315l199 315h44l-220 -343z" />
    <glyph glyph-name="Y" unicode="Y" horiz-adv-x="517" 
d="M259 314l215 400h43l-238 -439v-275h-39v271l-240 443h44z" />
    <glyph glyph-name="Z" unicode="Z" horiz-adv-x="577" 
d="M537 0h-501v28l438 650h-413v36h464v-28l-437 -650h449v-36z" />
    <glyph glyph-name="bracketleft" unicode="[" horiz-adv-x="316" 
d="M291 -158h-205v872h205v-35h-167v-802h167v-35z" />
    <glyph glyph-name="backslash" unicode="\" horiz-adv-x="332" 
d="M52 714l268 -714h-40l-268 714h40z" />
    <glyph glyph-name="bracketright" unicode="]" horiz-adv-x="316" 
d="M25 -123h167v802h-167v35h205v-872h-205v35z" />
    <glyph glyph-name="asciicircum" unicode="^" horiz-adv-x="570" 
d="M44 276l232 443h28l222 -443h-39l-198 398l-206 -398h-39z" />
    <glyph glyph-name="underscore" unicode="_" horiz-adv-x="402" 
d="M404 -124h-406v33h406v-33z" />
    <glyph glyph-name="grave" unicode="`" horiz-adv-x="256" 
d="M85 766q14 -22 36.5 -50t47.5 -55.5t47 -47.5v-7h-29q-26 21 -54 48.5t-52.5 55t-40.5 48.5v8h45z" />
    <glyph glyph-name="a" unicode="a" horiz-adv-x="521" 
d="M269 539q85 0 127.5 -44.5t42.5 -141.5v-353h-31l-7 98h-2q-24 -46 -67.5 -77t-122.5 -31q-78 0 -119.5 38t-41.5 105q0 79 65.5 119.5t186.5 46.5l100 6v40q0 86 -33 122.5t-99 36.5q-77 0 -157 -40l-12 34q38 18 81 29.5t89 11.5zM304 268q-102 -5 -159 -37t-57 -98
q0 -52 33 -80.5t92 -28.5q94 0 140 53.5t47 141.5v53z" />
    <glyph glyph-name="b" unicode="b" horiz-adv-x="590" 
d="M127 535q0 -26 -1 -60t-2 -57h3q18 53 67.5 87.5t122.5 34.5q104 0 159 -69.5t55 -204.5q0 -79 -24.5 -141.5t-75 -98.5t-127.5 -36q-70 0 -113.5 30.5t-62.5 76.5h-3l-6 -97h-31v760h39v-225zM314 505q-97 0 -142 -63t-45 -177v-9q0 -113 42 -172t132 -59q94 0 142 63
t48 179q0 238 -177 238z" />
    <glyph glyph-name="c" unicode="c" horiz-adv-x="474" 
d="M302 -10q-82 0 -136 34t-81 95.5t-27 142.5q0 84 31.5 146.5t89.5 97t137 34.5q37 0 68.5 -6.5t58.5 -18.5l-9 -35q-29 12 -59.5 18t-58.5 6q-68 0 -117 -30t-75 -84.5t-26 -127.5q0 -67 21.5 -120.5t66.5 -85t115 -31.5q38 0 73 7.5t64 19.5v-35q-25 -12 -59.5 -19.5
t-76.5 -7.5z" />
    <glyph glyph-name="d" unicode="d" horiz-adv-x="590" 
d="M281 -10q-111 0 -167 68t-56 199q0 137 60 210t170 73q70 0 113.5 -33.5t61.5 -81.5h3q-2 29 -2.5 59.5t-0.5 59.5v216h38v-760h-32l-4 105h-2q-19 -47 -62.5 -81t-119.5 -34zM284 25q97 0 138 61.5t41 173.5v6q0 116 -41.5 177.5t-131.5 61.5q-93 0 -142.5 -63
t-49.5 -186q0 -115 46 -173t140 -58z" />
    <glyph glyph-name="e" unicode="e" horiz-adv-x="545" 
d="M288 540q68 0 111.5 -32.5t65 -88t21.5 -125.5v-31h-388q-1 -115 51.5 -176.5t150.5 -61.5q49 0 84.5 7.5t80.5 28.5v-38q-39 -17 -77.5 -25t-88.5 -8q-81 0 -134.5 34t-80 95t-26.5 141q0 77 26 140.5t77 101.5t127 38zM288 505q-80 0 -130 -53.5t-59 -154.5h347
q0 93 -39 150.5t-119 57.5z" />
    <glyph glyph-name="f" unicode="f" horiz-adv-x="288" 
d="M273 496h-122v-496h-39v496h-100v26l100 8v66q0 83 36 126t114 43q26 0 47 -4t40 -9l-8 -35q-37 13 -79 13q-59 0 -85 -31t-26 -102v-67h122v-34z" />
    <glyph glyph-name="g" unicode="g" horiz-adv-x="590" 
d="M287 540q69 0 109 -27t63 -70h3l6 87h32v-552q0 -99 -51.5 -158.5t-172.5 -59.5q-60 0 -105.5 10.5t-81.5 25.5v41q36 -18 84 -30t104 -12q99 0 141.5 49.5t42.5 132.5v38q0 25 0.5 46.5t2.5 46.5h-3q-20 -58 -67.5 -88t-117.5 -30q-102 0 -160 68.5t-58 199.5
q0 130 58 206t171 76zM289 505q-97 0 -144 -65.5t-47 -181.5q0 -114 46.5 -173.5t134.5 -59.5q73 0 112.5 31.5t55 82t15.5 107.5v43q0 64 -16.5 112.5t-54 76t-102.5 27.5z" />
    <glyph glyph-name="h" unicode="h" horiz-adv-x="582" 
d="M128 504q0 -22 -1 -39.5t-2 -38.5h3q18 46 64 79.5t124 33.5q87 0 135 -46.5t48 -145.5v-347h-39v345q0 83 -38 121.5t-109 38.5q-87 0 -136 -51.5t-49 -156.5v-297h-39v760h39v-256z" />
    <glyph glyph-name="i" unicode="i" horiz-adv-x="217" 
d="M108 724q19 0 25.5 -10t6.5 -26t-6.5 -26t-25.5 -10q-16 0 -23 10t-7 26t7 26t23 10zM128 530v-530h-39v530h39z" />
    <glyph glyph-name="j" unicode="j" horiz-adv-x="217" 
d="M78 688q0 16 7 26t23 10q19 0 25.5 -10t6.5 -26t-6.5 -26t-25.5 -10q-16 0 -23 10t-7 26zM13 -240q-20 0 -36 3t-28 7v36q15 -7 30.5 -9t31.5 -2q78 0 78 96v639h39v-642q0 -64 -32.5 -96t-82.5 -32z" />
    <glyph glyph-name="k" unicode="k" horiz-adv-x="470" 
d="M127 381v-81.5t-1 -81.5v0q15 18 29 34t30 34l220 244h48l-207 -228l226 -302h-46l-207 276l-92 -99v-177h-38v760h38v-379z" />
    <glyph glyph-name="l" unicode="l" horiz-adv-x="217" 
d="M128 0h-38v760h38v-760z" />
    <glyph glyph-name="m" unicode="m" horiz-adv-x="869" 
d="M626 540q72 0 116.5 -44t44.5 -137v-359h-38v357q0 77 -35.5 112.5t-90.5 35.5q-76 0 -121 -44t-45 -142v-319h-38v357q0 77 -35.5 112.5t-90.5 35.5q-72 0 -118.5 -45t-46.5 -145v-315h-39v530h31l6 -92h3q11 26 32.5 49t54.5 38t80 15q56 0 95.5 -27t54.5 -79h2
q21 49 66 77.5t112 28.5z" />
    <glyph glyph-name="n" unicode="n" horiz-adv-x="582" 
d="M316 540q88 0 135.5 -47t47.5 -146v-347h-39v345q0 83 -38 121.5t-109 38.5q-87 0 -136 -51.5t-49 -156.5v-297h-39v530h31l6 -104h3q19 45 64.5 79.5t122.5 34.5z" />
    <glyph glyph-name="o" unicode="o" horiz-adv-x="581" 
d="M522 265q0 -80 -25.5 -142t-77.5 -97.5t-130 -35.5q-75 0 -126.5 35t-78 97t-26.5 143q0 127 62.5 201t173.5 74q79 0 129 -36t74.5 -98t24.5 -141zM98 265q0 -107 47 -173.5t144 -66.5q67 0 110 30.5t63 84.5t20 125q0 68 -19 122t-60.5 86t-108.5 32
q-95 0 -145.5 -63.5t-50.5 -176.5z" />
    <glyph glyph-name="p" unicode="p" horiz-adv-x="590" 
d="M318 540q104 0 159.5 -69t55.5 -202q0 -134 -59 -206.5t-164 -72.5q-75 0 -119.5 34t-62.5 82h-2q1 -30 1.5 -61.5t0.5 -60.5v-218h-38v764h32l4 -116h2q12 33 37 61.5t63 46.5t90 18zM315 505q-93 0 -139.5 -61.5t-47.5 -174.5v-6q0 -121 47 -179.5t133 -58.5
q88 0 136.5 63t48.5 181q0 236 -178 236z" />
    <glyph glyph-name="q" unicode="q" horiz-adv-x="590" 
d="M460 0q0 23 1 56t2 56h-3q-18 -53 -67.5 -88t-122.5 -35q-104 0 -159 70t-55 204q0 79 24.5 141.5t75 99t127.5 36.5q70 0 113.5 -31.5t62.5 -76.5h2l6 98h32v-764h-39v234zM273 24q98 0 142.5 62.5t45.5 175.5v11q0 114 -42.5 173t-132.5 59q-94 0 -142 -63.5
t-48 -178.5q0 -118 44 -178.5t133 -60.5z" />
    <glyph glyph-name="r" unicode="r" horiz-adv-x="383" 
d="M290 538q22 0 41 -2.5t36 -7.5l-7 -36q-18 5 -34.5 7.5t-37.5 2.5q-79 0 -119.5 -56t-40.5 -151v-295h-38v530h34l3 -101h3q16 46 56.5 77.5t103.5 31.5z" />
    <glyph glyph-name="s" unicode="s" horiz-adv-x="462" 
d="M416 137q0 -69 -51.5 -108t-150.5 -39q-55 0 -99 10t-73 24v40q38 -19 82 -29.5t91 -10.5q86 0 124 30t38 81q0 35 -19.5 57t-54.5 37t-80 29q-48 16 -86 31.5t-60 42t-22 74.5q0 63 50.5 98.5t135.5 35.5q47 0 88 -9t74 -23l-15 -34q-29 14 -69 22.5t-79 8.5
q-69 0 -107.5 -24.5t-38.5 -73.5q0 -37 19 -57t52 -32.5t76 -27.5q46 -15 85.5 -31.5t64.5 -44.5t25 -77z" />
    <glyph glyph-name="t" unicode="t" horiz-adv-x="328" 
d="M223 25q23 0 42.5 3t35.5 9v-33q-16 -6 -36 -10t-45 -4q-69 0 -99 39t-30 114v353h-80v26l80 9l12 128h27v-129h168v-34h-168v-350q0 -59 20.5 -90t72.5 -31z" />
    <glyph glyph-name="u" unicode="u" horiz-adv-x="582" 
d="M492 530v-530h-32l-6 103h-2q-19 -45 -64.5 -79t-123.5 -34q-183 0 -183 193v347h39v-343q0 -84 38 -123t109 -39q87 0 136.5 51t49.5 156v298h39z" />
    <glyph glyph-name="v" unicode="v" horiz-adv-x="446" 
d="M204 0l-204 530h41l142 -375q13 -33 22 -59.5t17 -50.5h2q8 24 17 50.5t22 59.5l142 375h41l-204 -530h-38z" />
    <glyph glyph-name="w" unicode="w" horiz-adv-x="706" 
d="M390 371q-9 29 -16 53t-14 50h-3q-6 -26 -13.5 -51t-16.5 -52l-122 -372h-38l-152 530h42l98 -354q13 -45 19.5 -72.5t11.5 -51.5h3q6 24 13 51t21 70l119 357h36l114 -356q11 -38 20 -67.5t14 -54.5h3q3 24 10 52.5t18 71.5l95 354h39l-143 -530h-39z" />
    <glyph glyph-name="x" unicode="x" horiz-adv-x="489" 
d="M218 272l-185 258h46l163 -231l162 231h46l-183 -258l195 -272h-46l-174 245l-173 -245h-45z" />
    <glyph glyph-name="y" unicode="y" horiz-adv-x="445" 
d="M0 530h41l133 -346q17 -46 29 -80t20 -57h2q7 22 19 56t29 78l132 349h41l-245 -637q-26 -67 -58.5 -101t-87.5 -34q-30 0 -58 9v35q14 -4 26.5 -7t28.5 -3q40 0 65.5 26t48.5 86l38 100z" />
    <glyph glyph-name="z" unicode="z" horiz-adv-x="459" 
d="M416 0h-375v25l326 471h-301v34h351v-26l-327 -470h326v-34z" />
    <glyph glyph-name="braceleft" unicode="{" horiz-adv-x="346" 
d="M310 -158q-84 0 -127.5 36t-43.5 104v166q0 60 -26.5 86.5t-86.5 26.5v34q60 0 86.5 25.5t26.5 87.5v166q0 68 44 104t127 36v-35q-68 0 -100 -26.5t-32 -84.5v-164q0 -51 -19.5 -83.5t-65.5 -40.5v-3q46 -9 65.5 -41.5t19.5 -83.5v-167q0 -56 32 -82t100 -26v-35z" />
    <glyph glyph-name="bar" unicode="|" horiz-adv-x="538" 
d="M250 762h35v-1011h-35v1011z" />
    <glyph glyph-name="braceright" unicode="}" horiz-adv-x="346" 
d="M35 -123q67 0 99.5 26t32.5 83v166q0 51 19.5 83.5t65.5 41.5v2q-47 9 -66 41.5t-19 83.5v164q0 58 -32 84.5t-100 26.5v35q84 0 127.5 -36t43.5 -104v-166q0 -62 26.5 -87.5t86.5 -25.5v-34q-60 0 -86.5 -26.5t-26.5 -86.5v-166q0 -68 -44 -104t-127 -36v35z" />
    <glyph glyph-name="asciitilde" unicode="~" horiz-adv-x="570" 
d="M279 337q-28 14 -51.5 22.5t-56.5 8.5q-29 0 -59 -13.5t-57 -42.5v40q23 23 53.5 36t63.5 13q40 0 66 -8.5t58 -24.5q29 -13 52.5 -21.5t52.5 -8.5q28 0 57 12.5t57 42.5v-38q-19 -22 -49 -36t-66 -14q-34 0 -61 8t-60 24z" />
    <glyph glyph-name="uni00A0" unicode="&#xa0;" horiz-adv-x="260" 
 />
    <glyph glyph-name="exclamdown" unicode="&#xa1;" horiz-adv-x="232" 
d="M149 500q0 -18 -7.5 -28.5t-25.5 -10.5q-19 0 -26.5 10.5t-7.5 28.5q0 17 7.5 27.5t26.5 10.5q18 0 25.5 -10.5t7.5 -27.5zM99 349h31l7 -534h-44z" />
    <glyph glyph-name="cent" unicode="&#xa2;" horiz-adv-x="570" 
d="M341 639q39 0 70.5 -6t59.5 -19l-9 -35q-29 13 -59.5 19t-58.5 6q-103 0 -160.5 -66.5t-57.5 -176.5q0 -68 21.5 -121.5t66.5 -84t116 -30.5q37 0 72 7.5t64 19.5v-36q-24 -10 -55.5 -18t-69.5 -9v-99h-34v100q-112 7 -166.5 80.5t-54.5 190.5q0 118 59 191.5t162 84.5
v87h34v-85z" />
    <glyph glyph-name="sterling" unicode="&#xa3;" horiz-adv-x="570" 
d="M342 723q49 0 86 -9t67 -22l-13 -35q-33 14 -65.5 22.5t-74.5 8.5q-73 0 -109 -42t-36 -131v-150h200v-33h-200v-138q0 -68 -22.5 -104.5t-55.5 -53.5h402v-36h-481v33q57 11 87.5 49.5t30.5 110.5v139h-105v33h105v155q0 100 48 151.5t136 51.5z" />
    <glyph glyph-name="currency" unicode="&#xa4;" horiz-adv-x="570" 
d="M85 354q0 73 47 129l-75 76l22 22l76 -75q27 24 60.5 36t68.5 12t69 -12t61 -36l75 74l22 -22l-74 -75q47 -56 47 -129q0 -35 -12 -68.5t-35 -61.5l75 -75l-23 -23l-75 76q-27 -24 -61 -36t-69 -12t-68.5 12t-60.5 36l-76 -75l-21 22l74 75q-47 57 -47 130zM116 354
q0 -48 23 -86.5t61 -60.5t84 -22t85 23t61.5 61.5t22.5 85.5q0 46 -22.5 84t-61 61t-84.5 23t-84.5 -23t-61.5 -61t-23 -85z" />
    <glyph glyph-name="yen" unicode="&#xa5;" horiz-adv-x="570" 
d="M286 342l218 372h43l-231 -388h159v-33h-170v-105h170v-33h-170v-155h-38v155h-171v33h171v105h-171v33h158l-231 388h43z" />
    <glyph glyph-name="brokenbar" unicode="&#xa6;" horiz-adv-x="538" 
d="M250 762h35v-370h-35v370zM250 122h35v-371h-35v371z" />
    <glyph glyph-name="section" unicode="&#xa7;" horiz-adv-x="517" 
d="M79 395q0 49 29 80t73 47q-43 16 -70 40.5t-27 71.5q0 59 48 92.5t132 33.5q47 0 86 -8.5t71 -21.5l-14 -33q-29 14 -66.5 22t-77.5 8q-68 0 -104.5 -23.5t-36.5 -69.5q0 -31 18 -48.5t50 -29.5t73 -26q45 -14 83.5 -30.5t62.5 -44t24 -74.5q0 -48 -25.5 -82.5
t-63.5 -53.5q37 -16 60.5 -41.5t23.5 -69.5q0 -62 -49.5 -99t-146.5 -37q-53 0 -96.5 10t-71.5 23v39q37 -18 80 -28.5t89 -10.5q84 0 120.5 28.5t36.5 73.5q0 32 -18.5 52t-52 34t-78.5 28q-46 15 -82.5 31.5t-58 43.5t-21.5 73zM115 397q0 -36 18 -57.5t50.5 -35
t74.5 -27.5l52 -17q38 16 62.5 46.5t24.5 72.5q0 51 -44 78t-130 50q-45 -12 -76.5 -38t-31.5 -72z" />
    <glyph glyph-name="dieresis" unicode="&#xa8;" horiz-adv-x="576" 
d="M166 679q0 15 6.5 24.5t21.5 9.5q17 0 23 -9.5t6 -24.5q0 -16 -6 -25.5t-23 -9.5q-15 0 -21.5 9.5t-6.5 25.5zM351 679q0 15 6.5 24.5t21.5 9.5q17 0 23 -9.5t6 -24.5q0 -16 -6 -25.5t-23 -9.5q-15 0 -21.5 9.5t-6.5 25.5z" />
    <glyph glyph-name="copyright" unicode="&#xa9;" horiz-adv-x="832" 
d="M416 -8q-80 0 -147 28t-116 78t-76 116.5t-27 142.5q0 78 28.5 145t79 116.5t116.5 76.5t142 27q79 0 146 -29t116.5 -80.5t76.5 -117t27 -138.5q0 -76 -28 -142.5t-78.5 -116.5t-117 -78t-142.5 -28zM416 22q71 0 132 26.5t106.5 73t70.5 107t25 128.5t-25 128.5
t-70 107t-106 73t-133 26.5q-71 0 -131.5 -26t-106 -71.5t-71 -106.5t-25.5 -131q0 -68 24 -129t68.5 -107t106 -72.5t135.5 -26.5zM434 141q-93 0 -148 54.5t-55 160.5q0 66 26 114.5t72.5 76t108.5 27.5q41 0 70.5 -7.5t55.5 -19.5l-15 -31q-24 11 -50 17.5t-61 6.5
q-76 0 -123 -49.5t-47 -134.5q0 -90 46.5 -136t120.5 -46q33 0 58.5 5t54.5 16v-32q-25 -11 -52.5 -16.5t-61.5 -5.5z" />
    <glyph glyph-name="ordfeminine" unicode="&#xaa;" horiz-adv-x="329" 
d="M171 722q105 0 105 -103v-220h-28l-5 46q-13 -21 -39 -35.5t-63 -14.5q-47 0 -74.5 22.5t-27.5 67.5q0 48 38 72.5t119 27.5l47 2v30q0 39 -20 57t-54 18q-26 0 -49 -6.5t-46 -19.5l-12 29q23 12 51 19.5t58 7.5zM196 556q-64 -3 -93 -18.5t-29 -52.5q0 -60 71 -60
q49 0 73.5 27t24.5 74v32z" />
    <glyph glyph-name="guillemotleft" unicode="&#xab;" horiz-adv-x="413" 
d="M29 282l155 190l26 -17l-138 -179l138 -179l-26 -16l-155 188v13zM204 282l155 190l26 -17l-138 -179l138 -179l-26 -16l-155 188v13z" />
    <glyph glyph-name="logicalnot" unicode="&#xac;" horiz-adv-x="570" 
d="M502 370v-239h-33v205h-415v34h448z" />
    <glyph glyph-name="uni00AD" unicode="&#xad;" horiz-adv-x="322" 
d="M40 253v36h242v-36h-242z" />
    <glyph glyph-name="registered" unicode="&#xae;" horiz-adv-x="832" 
d="M416 -8q-80 0 -147 28t-116 78t-76 116.5t-27 142.5q0 78 28.5 145t79 116.5t116.5 76.5t142 27q79 0 146 -29t116.5 -80.5t76.5 -117t27 -138.5q0 -76 -28 -142.5t-78.5 -116.5t-117 -78t-142.5 -28zM416 22q71 0 132 26.5t106.5 73t70.5 107t25 128.5t-25 128.5
t-70 107t-106 73t-133 26.5q-71 0 -131.5 -26t-106 -71.5t-71 -106.5t-25.5 -131q0 -68 24 -129t68.5 -107t106 -72.5t135.5 -26.5zM294 142v428h120q66 0 105 -29t39 -93q0 -48 -26 -77t-64 -41l114 -188h-43l-107 179h-102v-179h-36zM411 351q48 0 80 24t32 73
q0 48 -30.5 69t-80.5 21h-83v-187h82z" />
    <glyph glyph-name="overscore" unicode="&#xaf;" horiz-adv-x="500" 
d="M503 760h-506v33h506v-33z" />
    <glyph glyph-name="degree" unicode="&#xb0;" horiz-adv-x="428" 
d="M214 436q-62 0 -104 39.5t-42 104.5t41.5 104.5t104.5 39.5t104.5 -40t41.5 -104q0 -65 -41.5 -104.5t-104.5 -39.5zM213 468q51 0 82 31.5t31 80.5q0 51 -31.5 81.5t-81.5 30.5q-51 0 -81 -30.5t-30 -81.5q0 -49 30 -80.5t81 -31.5z" />
    <glyph glyph-name="plusminus" unicode="&#xb1;" horiz-adv-x="570" 
d="M302 370h214v-33h-214v-216h-34v216h-214v33h214v216h34v-216zM54 0v34h462v-34h-462z" />
    <glyph glyph-name="uni00B2" unicode="&#xb2;" horiz-adv-x="332" 
d="M307 416h-281v28l122 123q55 56 84.5 92.5t29.5 79.5q0 37 -24 60.5t-69 23.5q-31 0 -57.5 -10.5t-53.5 -31.5l-18 26q28 23 60 35.5t69 12.5q61 0 94.5 -32.5t33.5 -82.5q0 -35 -15 -63.5t-43 -59t-67 -69.5l-98 -99h233v-33z" />
    <glyph glyph-name="uni00B3" unicode="&#xb3;" horiz-adv-x="332" 
d="M169 851q59 0 93.5 -28t34.5 -77q0 -42 -21.5 -68.5t-54.5 -34.5v-2q41 -9 63.5 -34.5t22.5 -67.5q0 -60 -40.5 -94t-116.5 -34q-35 0 -67 7t-59 19v35q31 -14 62 -21.5t65 -7.5q59 0 89.5 25.5t30.5 70.5q0 85 -118 85h-65v31h65q52 0 80 23.5t28 66.5q0 35 -24.5 55
t-67.5 20q-36 0 -65 -10.5t-57 -27.5l-15 27q28 19 61.5 30.5t75.5 11.5z" />
    <glyph glyph-name="acute" unicode="&#xb4;" horiz-adv-x="256" 
d="M216 758q-17 -21 -41.5 -48.5t-52.5 -55t-53 -48.5h-29v7q21 20 46 47.5t47.5 55.5t36.5 50h46v-8z" />
    <glyph glyph-name="uni00B5" unicode="&#xb5;" horiz-adv-x="589" 
d="M499 530v-530h-33l-5 90h-3q-13 -28 -34 -50.5t-54.5 -36t-86.5 -13.5q-60 0 -98.5 20t-56.5 54h-2q0 -20 0.5 -44.5t0.5 -50.5v-209h-38v770h38v-344q0 -161 157 -161q98 0 137.5 54t39.5 154v297h38z" />
    <glyph glyph-name="paragraph" unicode="&#xb6;" horiz-adv-x="655" 
d="M524 -127h-33v856h-127v-856h-33v465q-32 -9 -71 -9q-85 0 -129 59.5t-44 158.5q0 213 188 213h249v-887z" />
    <glyph glyph-name="periodcentered" unicode="&#xb7;" horiz-adv-x="230" 
d="M82 322q0 17 8 28t25 11q19 0 26.5 -11t7.5 -28t-7.5 -27.5t-26.5 -10.5q-17 0 -25 10.5t-8 27.5z" />
    <glyph glyph-name="cedilla" unicode="&#xb8;" horiz-adv-x="200" 
d="M187 -144q0 -44 -33.5 -70t-87.5 -26q-34 0 -55 6v30q12 -3 25 -4.5t31 -1.5q38 0 61.5 16.5t23.5 48.5q0 58 -100 60l43 85h32l-31 -63q41 -3 66 -23.5t25 -57.5z" />
    <glyph glyph-name="uni00B9" unicode="&#xb9;" horiz-adv-x="332" 
d="M203 844v-428h-36v279q0 28 0.5 57.5t1.5 55.5q-16 -11 -31 -20t-37 -20l-48 -28l-16 27l135 77h31z" />
    <glyph glyph-name="ordmasculine" unicode="&#xba;" horiz-adv-x="357" 
d="M323 559q0 -72 -36.5 -119t-107.5 -47q-69 0 -106 46t-37 120q0 77 39 121t107 44q72 0 106.5 -47t34.5 -118zM70 559q0 -61 27 -98.5t82 -37.5q57 0 83.5 38t26.5 98q0 57 -25.5 96t-81.5 39q-54 0 -83 -35.5t-29 -99.5z" />
    <glyph glyph-name="guillemotright" unicode="&#xbb;" horiz-adv-x="413" 
d="M385 271l-156 -190l-25 17l137 179l-137 179l25 16l156 -188v-13zM209 271l-155 -190l-25 17l137 179l-137 179l25 16l155 -188v-13z" />
    <glyph glyph-name="onequarter" unicode="&#xbc;" horiz-adv-x="708" 
d="M143 0l385 714h37l-385 -714h-37zM150 565q0 28 0.5 57.5t1.5 55.5q-16 -11 -31 -20t-37 -20l-48 -28l-16 27l134 77h31v-428h-35v279zM592 0v124h-202v25l200 282h37v-276h72v-31h-72v-124h-35zM430 155h162v150q0 23 0.5 44.5t0.5 41.5q-8 -15 -17 -28t-19 -29z" />
    <glyph glyph-name="onehalf" unicode="&#xbd;" horiz-adv-x="749" 
d="M137 0l385 714h37l-385 -714h-37zM148 565v57.5t1 55.5q-15 -11 -30.5 -20t-36.5 -20l-49 -28l-16 27l135 77h31v-428h-35v279zM443 0v28l122 123q55 56 84.5 92.5t29.5 79.5q0 37 -24 60.5t-69 23.5q-31 0 -57.5 -10.5t-53.5 -31.5l-18 26q28 23 60 35.5t69 12.5
q61 0 94.5 -32.5t33.5 -82.5q0 -35 -15 -63.5t-43 -59t-67 -69.5l-98 -99h233v-33h-281z" />
    <glyph glyph-name="threequarters" unicode="&#xbe;" horiz-adv-x="763" 
d="M150 281q-36 0 -68 7t-58 19v35q31 -14 62 -21.5t64 -7.5q60 0 90.5 25.5t30.5 70.5q0 85 -119 85h-65v31h65q53 0 80.5 23.5t27.5 66.5q0 35 -24 55t-67 20q-36 0 -65 -10.5t-57 -27.5l-16 27q29 19 62.5 30.5t75.5 11.5q59 0 93 -28t34 -77q0 -42 -21.5 -68.5
t-53.5 -34.5v-2q41 -9 63.5 -34.5t22.5 -67.5q0 -60 -41 -94t-116 -34zM199 0l385 714h38l-385 -714h-38zM647 0v124h-202v25l200 282h37v-276h72v-31h-72v-124h-35zM485 155h162v150q0 23 0.5 44.5t1.5 41.5q-9 -15 -18 -28t-19 -29z" />
    <glyph glyph-name="questiondown" unicode="&#xbf;" horiz-adv-x="417" 
d="M290 503q0 -17 -8 -28t-25 -11q-19 0 -26.5 11t-7.5 28t7.5 27.5t26.5 10.5q17 0 25 -10.5t8 -27.5zM276 337q0 -47 -7 -78t-25.5 -54.5t-52.5 -48.5q-36 -27 -61.5 -51.5t-39 -53.5t-13.5 -72q0 -69 42 -102t109 -33q40 0 74.5 8.5t69.5 26.5l15 -35q-43 -18 -79.5 -27
t-80.5 -9q-86 0 -137.5 43t-51.5 128q0 49 16.5 83.5t45.5 62t68 55.5q27 21 43.5 41.5t23.5 48t7 70.5v13h34v-16z" />
    <glyph glyph-name="Agrave" unicode="&#xc0;" horiz-adv-x="590" 
d="M548 0l-100 261h-305l-102 -261h-41l281 716h37l271 -716h-41zM330 578q-5 17 -14 41.5t-18 50.5q-7 -24 -16 -48.5t-17 -43.5l-108 -281h277zM247 950q14 -22 36.5 -50t47.5 -55.5t47 -47.5v-7h-29q-26 21 -54 48.5t-52.5 55t-40.5 48.5v8h45z" />
    <glyph glyph-name="Aacute" unicode="&#xc1;" horiz-adv-x="590" 
d="M548 0l-100 261h-305l-102 -261h-41l281 716h37l271 -716h-41zM330 578q-5 17 -14 41.5t-18 50.5q-7 -24 -16 -48.5t-17 -43.5l-108 -281h277zM425 942q-17 -21 -41.5 -48.5t-52.5 -55t-53 -48.5h-29v7q21 20 46 47.5t47.5 55.5t36.5 50h46v-8z" />
    <glyph glyph-name="Acircumflex" unicode="&#xc2;" horiz-adv-x="590" 
d="M548 0l-100 261h-305l-102 -261h-41l281 716h37l271 -716h-41zM330 578q-5 17 -14 41.5t-18 50.5q-7 -24 -16 -48.5t-17 -43.5l-108 -281h277zM313 948q12 -21 32.5 -48.5t43 -55t40.5 -47.5v-7h-29q-27 25 -55 57.5t-50 60.5q-22 -28 -50.5 -60.5t-55.5 -57.5h-29v7
q19 20 41.5 47.5t43 55t32.5 48.5h36z" />
    <glyph glyph-name="Atilde" unicode="&#xc3;" horiz-adv-x="590" 
d="M548 0l-100 261h-305l-102 -261h-41l281 716h37l271 -716h-41zM330 578q-5 17 -14 41.5t-18 50.5q-7 -24 -16 -48.5t-17 -43.5l-108 -281h277zM129 800q4 51 28.5 77.5t64.5 26.5q24 0 43 -11t35.5 -25t33 -25t35.5 -11q23 0 40.5 14.5t22.5 57.5h31q-5 -51 -30.5 -78
t-64.5 -27q-25 0 -43.5 11t-34.5 25t-32.5 24.5t-37.5 10.5t-38.5 -14.5t-22.5 -55.5h-30z" />
    <glyph glyph-name="Adieresis" unicode="&#xc4;" horiz-adv-x="590" 
d="M548 0l-100 261h-305l-102 -261h-41l281 716h37l271 -716h-41zM330 578q-5 17 -14 41.5t-18 50.5q-7 -24 -16 -48.5t-17 -43.5l-108 -281h277zM174 863q0 15 6.5 24.5t21.5 9.5q17 0 23 -9.5t6 -24.5q0 -16 -6 -25.5t-23 -9.5q-15 0 -21.5 9.5t-6.5 25.5zM359 863
q0 15 6.5 24.5t21.5 9.5q17 0 23 -9.5t6 -24.5q0 -16 -6 -25.5t-23 -9.5q-15 0 -21.5 9.5t-6.5 25.5z" />
    <glyph glyph-name="Aring" unicode="&#xc5;" horiz-adv-x="590" 
d="M548 0l-100 261h-305l-102 -261h-41l281 716h37l271 -716h-41zM330 578q-5 17 -14 41.5t-18 50.5q-7 -24 -16 -48.5t-17 -43.5l-108 -281h277zM297 690q-43 0 -73 27.5t-30 73.5q0 44 30 72.5t73 28.5q42 0 72 -29t30 -72q0 -45 -30 -73t-72 -28zM297 719q32 0 52 21
t20 51q0 31 -21.5 51.5t-50.5 20.5q-32 0 -52.5 -20.5t-20.5 -51.5q0 -30 20 -51t53 -21z" />
    <glyph glyph-name="AE" unicode="&#xc6;" horiz-adv-x="787" 
d="M764 0h-382v260h-227l-112 -260h-44l314 714h451v-36h-343v-284h324v-36h-324v-322h343v-36zM172 296h210v382h-45z" />
    <glyph glyph-name="Ccedilla" unicode="&#xc7;" horiz-adv-x="618" 
d="M405 688q-96 0 -163.5 -42t-103 -116.5t-35.5 -170.5q0 -100 32 -175t95.5 -116.5t158.5 -41.5q56 0 100.5 8t81.5 21v-34q-35 -14 -80 -22.5t-104 -8.5q-107 0 -179 46t-108.5 129.5t-36.5 194.5q0 104 40.5 186.5t117 130t184.5 47.5q100 0 182 -38l-16 -35
q-40 21 -82 29t-84 8zM446 -144q0 -44 -33.5 -70t-87.5 -26q-34 0 -55 6v30q12 -3 25 -4.5t31 -1.5q38 0 61.5 16.5t23.5 48.5q0 58 -100 60l43 85h32l-31 -63q41 -3 66 -23.5t25 -57.5z" />
    <glyph glyph-name="Egrave" unicode="&#xc8;" horiz-adv-x="551" 
d="M490 0h-388v714h388v-36h-349v-284h329v-36h-329v-322h349v-36zM257 950q14 -22 36.5 -50t47.5 -55.5t47 -47.5v-7h-29q-26 21 -54 48.5t-52.5 55t-40.5 48.5v8h45z" />
    <glyph glyph-name="Eacute" unicode="&#xc9;" horiz-adv-x="551" 
d="M490 0h-388v714h388v-36h-349v-284h329v-36h-329v-322h349v-36zM435 942q-17 -21 -41.5 -48.5t-52.5 -55t-53 -48.5h-29v7q21 20 46 47.5t47.5 55.5t36.5 50h46v-8z" />
    <glyph glyph-name="Ecircumflex" unicode="&#xca;" horiz-adv-x="551" 
d="M490 0h-388v714h388v-36h-349v-284h329v-36h-329v-322h349v-36zM323 948q12 -21 32.5 -48.5t43 -55t40.5 -47.5v-7h-29q-27 25 -55 57.5t-50 60.5q-22 -28 -50.5 -60.5t-55.5 -57.5h-29v7q19 20 41.5 47.5t43 55t32.5 48.5h36z" />
    <glyph glyph-name="Edieresis" unicode="&#xcb;" horiz-adv-x="551" 
d="M490 0h-388v714h388v-36h-349v-284h329v-36h-329v-322h349v-36zM184 863q0 15 6.5 24.5t21.5 9.5q17 0 23 -9.5t6 -24.5q0 -16 -6 -25.5t-23 -9.5q-15 0 -21.5 9.5t-6.5 25.5zM369 863q0 15 6.5 24.5t21.5 9.5q17 0 23 -9.5t6 -24.5q0 -16 -6 -25.5t-23 -9.5
q-15 0 -21.5 9.5t-6.5 25.5z" />
    <glyph glyph-name="Igrave" unicode="&#xcc;" horiz-adv-x="294" 
d="M238 0h-181v27l71 6v647l-71 8v26h181v-26l-71 -8v-647l71 -6v-27zM99 950q14 -22 36.5 -50t47.5 -55.5t47 -47.5v-7h-29q-26 21 -54 48.5t-52.5 55t-40.5 48.5v8h45z" />
    <glyph glyph-name="Iacute" unicode="&#xcd;" horiz-adv-x="294" 
d="M238 0h-181v27l71 6v647l-71 8v26h181v-26l-71 -8v-647l71 -6v-27zM278 942q-17 -21 -41.5 -48.5t-52.5 -55t-53 -48.5h-29v7q21 20 46 47.5t47.5 55.5t36.5 50h46v-8z" />
    <glyph glyph-name="Icircumflex" unicode="&#xce;" horiz-adv-x="294" 
d="M238 0h-181v27l71 6v647l-71 8v26h181v-26l-71 -8v-647l71 -6v-27zM166 948q12 -21 32.5 -48.5t43 -55t40.5 -47.5v-7h-29q-27 25 -55 57.5t-50 60.5q-22 -28 -50.5 -60.5t-55.5 -57.5h-29v7q19 20 41.5 47.5t43 55t32.5 48.5h36z" />
    <glyph glyph-name="Idieresis" unicode="&#xcf;" horiz-adv-x="294" 
d="M238 0h-181v27l71 6v647l-71 8v26h181v-26l-71 -8v-647l71 -6v-27zM27 863q0 15 6.5 24.5t21.5 9.5q17 0 23 -9.5t6 -24.5q0 -16 -6 -25.5t-23 -9.5q-15 0 -21.5 9.5t-6.5 25.5zM212 863q0 15 6.5 24.5t21.5 9.5q17 0 23 -9.5t6 -24.5q0 -16 -6 -25.5t-23 -9.5
q-15 0 -21.5 9.5t-6.5 25.5z" />
    <glyph glyph-name="Eth" unicode="&#xd0;" horiz-adv-x="700" 
d="M288 714q173 0 260.5 -89.5t87.5 -260.5q0 -180 -93 -272t-278 -92h-162v337h-83v36h83v341h185zM277 678h-135v-305h201v-36h-201v-301h123q331 0 331 327q0 155 -77 235t-242 80z" />
    <glyph glyph-name="Ntilde" unicode="&#xd1;" horiz-adv-x="711" 
d="M608 0h-36l-433 642h-2q1 -41 1.5 -79.5t0.5 -81.5v-481h-37v714h37l431 -640h2q0 34 -1 77t-1 80v483h38v-714zM189 800q4 51 28.5 77.5t64.5 26.5q24 0 43 -11t35.5 -25t33 -25t35.5 -11q23 0 40.5 14.5t22.5 57.5h31q-5 -51 -30.5 -78t-64.5 -27q-25 0 -43.5 11
t-34.5 25t-32.5 24.5t-37.5 10.5t-38.5 -14.5t-22.5 -55.5h-30z" />
    <glyph glyph-name="Ograve" unicode="&#xd2;" horiz-adv-x="759" 
d="M696 358q0 -108 -35 -191t-105.5 -130t-176.5 -47q-105 0 -175.5 47t-105.5 130t-35 192q0 108 36.5 190.5t108.5 129t176 46.5q150 0 231 -97.5t81 -269.5zM103 359q0 -98 30 -173t91.5 -117.5t155.5 -42.5t155 42t90.5 116.5t29.5 173.5q0 157 -69.5 244t-201.5 87
q-95 0 -157 -42t-93 -116.5t-31 -171.5zM332 950q14 -22 36.5 -50t47.5 -55.5t47 -47.5v-7h-29q-26 21 -54 48.5t-52.5 55t-40.5 48.5v8h45z" />
    <glyph glyph-name="Oacute" unicode="&#xd3;" horiz-adv-x="759" 
d="M696 358q0 -108 -35 -191t-105.5 -130t-176.5 -47q-105 0 -175.5 47t-105.5 130t-35 192q0 108 36.5 190.5t108.5 129t176 46.5q150 0 231 -97.5t81 -269.5zM103 359q0 -98 30 -173t91.5 -117.5t155.5 -42.5t155 42t90.5 116.5t29.5 173.5q0 157 -69.5 244t-201.5 87
q-95 0 -157 -42t-93 -116.5t-31 -171.5zM510 942q-17 -21 -41.5 -48.5t-52.5 -55t-53 -48.5h-29v7q21 20 46 47.5t47.5 55.5t36.5 50h46v-8z" />
    <glyph glyph-name="Ocircumflex" unicode="&#xd4;" horiz-adv-x="759" 
d="M696 358q0 -108 -35 -191t-105.5 -130t-176.5 -47q-105 0 -175.5 47t-105.5 130t-35 192q0 108 36.5 190.5t108.5 129t176 46.5q150 0 231 -97.5t81 -269.5zM103 359q0 -98 30 -173t91.5 -117.5t155.5 -42.5t155 42t90.5 116.5t29.5 173.5q0 157 -69.5 244t-201.5 87
q-95 0 -157 -42t-93 -116.5t-31 -171.5zM398 948q12 -21 32.5 -48.5t43 -55t40.5 -47.5v-7h-29q-27 25 -55 57.5t-50 60.5q-22 -28 -50.5 -60.5t-55.5 -57.5h-29v7q19 20 41.5 47.5t43 55t32.5 48.5h36z" />
    <glyph glyph-name="Otilde" unicode="&#xd5;" horiz-adv-x="759" 
d="M696 358q0 -108 -35 -191t-105.5 -130t-176.5 -47q-105 0 -175.5 47t-105.5 130t-35 192q0 108 36.5 190.5t108.5 129t176 46.5q150 0 231 -97.5t81 -269.5zM103 359q0 -98 30 -173t91.5 -117.5t155.5 -42.5t155 42t90.5 116.5t29.5 173.5q0 157 -69.5 244t-201.5 87
q-95 0 -157 -42t-93 -116.5t-31 -171.5zM214 800q4 51 28.5 77.5t64.5 26.5q24 0 43 -11t35.5 -25t33 -25t35.5 -11q23 0 40.5 14.5t22.5 57.5h31q-5 -51 -30.5 -78t-64.5 -27q-25 0 -43.5 11t-34.5 25t-32.5 24.5t-37.5 10.5t-38.5 -14.5t-22.5 -55.5h-30z" />
    <glyph glyph-name="Odieresis" unicode="&#xd6;" horiz-adv-x="759" 
d="M696 358q0 -108 -35 -191t-105.5 -130t-176.5 -47q-105 0 -175.5 47t-105.5 130t-35 192q0 108 36.5 190.5t108.5 129t176 46.5q150 0 231 -97.5t81 -269.5zM103 359q0 -98 30 -173t91.5 -117.5t155.5 -42.5t155 42t90.5 116.5t29.5 173.5q0 157 -69.5 244t-201.5 87
q-95 0 -157 -42t-93 -116.5t-31 -171.5zM259 863q0 15 6.5 24.5t21.5 9.5q17 0 23 -9.5t6 -24.5q0 -16 -6 -25.5t-23 -9.5q-15 0 -21.5 9.5t-6.5 25.5zM444 863q0 15 6.5 24.5t21.5 9.5q17 0 23 -9.5t6 -24.5q0 -16 -6 -25.5t-23 -9.5q-15 0 -21.5 9.5t-6.5 25.5z" />
    <glyph glyph-name="multiply" unicode="&#xd7;" horiz-adv-x="570" 
d="M477 568l23 -23l-191 -192l191 -192l-23 -23l-192 191l-191 -191l-24 23l191 192l-191 191l24 24l191 -191z" />
    <glyph glyph-name="Oslash" unicode="&#xd8;" horiz-adv-x="759" 
d="M696 358q0 -108 -35 -191t-105.5 -130t-176.5 -47q-63 0 -113.5 17.5t-87.5 50.5l-62 -85l-29 20l65 88q-44 50 -66.5 121t-22.5 157q0 108 36.5 190.5t108.5 129t176 46.5q59 0 107.5 -16t85.5 -46l57 78l29 -20l-59 -81q44 -47 68 -118.5t24 -163.5zM103 359
q0 -76 18 -138.5t54 -106.5l380 519q-32 27 -75 41.5t-96 14.5q-95 0 -157 -42t-93 -116.5t-31 -171.5zM655 358q0 164 -75 250l-380 -520q33 -29 78 -45.5t102 -16.5q94 0 155 42t90.5 116.5t29.5 173.5z" />
    <glyph glyph-name="Ugrave" unicode="&#xd9;" horiz-adv-x="716" 
d="M622 252q0 -129 -72 -195.5t-194 -66.5q-125 0 -193.5 68t-68.5 196v460h39v-459q0 -113 58.5 -171t166.5 -58q105 0 165.5 56t60.5 164v468h38v-462zM310 950q14 -22 36.5 -50t47.5 -55.5t47 -47.5v-7h-29q-26 21 -54 48.5t-52.5 55t-40.5 48.5v8h45z" />
    <glyph glyph-name="Uacute" unicode="&#xda;" horiz-adv-x="716" 
d="M622 252q0 -129 -72 -195.5t-194 -66.5q-125 0 -193.5 68t-68.5 196v460h39v-459q0 -113 58.5 -171t166.5 -58q105 0 165.5 56t60.5 164v468h38v-462zM488 942q-17 -21 -41.5 -48.5t-52.5 -55t-53 -48.5h-29v7q21 20 46 47.5t47.5 55.5t36.5 50h46v-8z" />
    <glyph glyph-name="Ucircumflex" unicode="&#xdb;" horiz-adv-x="716" 
d="M622 252q0 -129 -72 -195.5t-194 -66.5q-125 0 -193.5 68t-68.5 196v460h39v-459q0 -113 58.5 -171t166.5 -58q105 0 165.5 56t60.5 164v468h38v-462zM376 948q12 -21 32.5 -48.5t43 -55t40.5 -47.5v-7h-29q-27 25 -55 57.5t-50 60.5q-22 -28 -50.5 -60.5t-55.5 -57.5
h-29v7q19 20 41.5 47.5t43 55t32.5 48.5h36z" />
    <glyph glyph-name="Udieresis" unicode="&#xdc;" horiz-adv-x="716" 
d="M622 252q0 -129 -72 -195.5t-194 -66.5q-125 0 -193.5 68t-68.5 196v460h39v-459q0 -113 58.5 -171t166.5 -58q105 0 165.5 56t60.5 164v468h38v-462zM237 863q0 15 6.5 24.5t21.5 9.5q17 0 23 -9.5t6 -24.5q0 -16 -6 -25.5t-23 -9.5q-15 0 -21.5 9.5t-6.5 25.5zM422 863
q0 15 6.5 24.5t21.5 9.5q17 0 23 -9.5t6 -24.5q0 -16 -6 -25.5t-23 -9.5q-15 0 -21.5 9.5t-6.5 25.5z" />
    <glyph glyph-name="Yacute" unicode="&#xdd;" horiz-adv-x="517" 
d="M259 314l215 400h43l-238 -439v-275h-39v271l-240 443h44zM389 942q-17 -21 -41.5 -48.5t-52.5 -55t-53 -48.5h-29v7q21 20 46 47.5t47.5 55.5t36.5 50h46v-8z" />
    <glyph glyph-name="Thorn" unicode="&#xde;" horiz-adv-x="580" 
d="M525 382q0 -106 -68.5 -159.5t-198.5 -53.5h-117v-169h-39v714h39v-130h140q124 0 184 -49t60 -153zM253 205q72 0 124 16.5t80 55t28 104.5q0 88 -50.5 127.5t-160.5 39.5h-133v-343h112z" />
    <glyph glyph-name="germandbls" unicode="&#xdf;" horiz-adv-x="570" 
d="M456 632q0 -37 -14 -60.5t-34.5 -40t-41 -31.5t-34.5 -34t-14 -48q0 -36 23.5 -58.5t69.5 -53.5q30 -20 54.5 -41.5t39.5 -51.5t15 -75q0 -64 -43.5 -106t-126.5 -42q-47 0 -78.5 8.5t-57.5 19.5v39q31 -15 64 -24t71 -9q66 0 99 31t33 82q0 53 -26 83t-68 59
q-32 22 -56 41t-38 42t-14 55q0 35 14 57t34.5 38t41 31t34 35.5t13.5 52.5q0 47 -33.5 73t-95.5 26q-160 0 -160 -163v-567h-39v567q0 98 52.5 148t146.5 50q80 0 124.5 -36t44.5 -97z" />
    <glyph glyph-name="agrave" unicode="&#xe0;" horiz-adv-x="521" 
d="M269 539q85 0 127.5 -44.5t42.5 -141.5v-353h-31l-7 98h-2q-24 -46 -67.5 -77t-122.5 -31q-78 0 -119.5 38t-41.5 105q0 79 65.5 119.5t186.5 46.5l100 6v40q0 86 -33 122.5t-99 36.5q-77 0 -157 -40l-12 34q38 18 81 29.5t89 11.5zM304 268q-102 -5 -159 -37t-57 -98
q0 -52 33 -80.5t92 -28.5q94 0 140 53.5t47 141.5v53zM213 766q14 -22 36.5 -50t47.5 -55.5t47 -47.5v-7h-29q-26 21 -54 48.5t-52.5 55t-40.5 48.5v8h45z" />
    <glyph glyph-name="aacute" unicode="&#xe1;" horiz-adv-x="521" 
d="M269 539q85 0 127.5 -44.5t42.5 -141.5v-353h-31l-7 98h-2q-24 -46 -67.5 -77t-122.5 -31q-78 0 -119.5 38t-41.5 105q0 79 65.5 119.5t186.5 46.5l100 6v40q0 86 -33 122.5t-99 36.5q-77 0 -157 -40l-12 34q38 18 81 29.5t89 11.5zM304 268q-102 -5 -159 -37t-57 -98
q0 -52 33 -80.5t92 -28.5q94 0 140 53.5t47 141.5v53zM391 758q-17 -21 -41.5 -48.5t-52.5 -55t-53 -48.5h-29v7q21 20 46 47.5t47.5 55.5t36.5 50h46v-8z" />
    <glyph glyph-name="acircumflex" unicode="&#xe2;" horiz-adv-x="521" 
d="M269 539q85 0 127.5 -44.5t42.5 -141.5v-353h-31l-7 98h-2q-24 -46 -67.5 -77t-122.5 -31q-78 0 -119.5 38t-41.5 105q0 79 65.5 119.5t186.5 46.5l100 6v40q0 86 -33 122.5t-99 36.5q-77 0 -157 -40l-12 34q38 18 81 29.5t89 11.5zM304 268q-102 -5 -159 -37t-57 -98
q0 -52 33 -80.5t92 -28.5q94 0 140 53.5t47 141.5v53zM279 764q12 -21 32.5 -48.5t43 -55t40.5 -47.5v-7h-29q-27 25 -55 57.5t-50 60.5q-22 -28 -50.5 -60.5t-55.5 -57.5h-29v7q19 20 41.5 47.5t43 55t32.5 48.5h36z" />
    <glyph glyph-name="atilde" unicode="&#xe3;" horiz-adv-x="521" 
d="M269 539q85 0 127.5 -44.5t42.5 -141.5v-353h-31l-7 98h-2q-24 -46 -67.5 -77t-122.5 -31q-78 0 -119.5 38t-41.5 105q0 79 65.5 119.5t186.5 46.5l100 6v40q0 86 -33 122.5t-99 36.5q-77 0 -157 -40l-12 34q38 18 81 29.5t89 11.5zM304 268q-102 -5 -159 -37t-57 -98
q0 -52 33 -80.5t92 -28.5q94 0 140 53.5t47 141.5v53zM95 616q4 51 28.5 77.5t64.5 26.5q24 0 43 -11t35.5 -25t33 -25t35.5 -11q23 0 40.5 14.5t22.5 57.5h31q-5 -51 -30.5 -78t-64.5 -27q-25 0 -43.5 11t-34.5 25t-32.5 24.5t-37.5 10.5t-38.5 -14.5t-22.5 -55.5h-30z" />
    <glyph glyph-name="adieresis" unicode="&#xe4;" horiz-adv-x="521" 
d="M269 539q85 0 127.5 -44.5t42.5 -141.5v-353h-31l-7 98h-2q-24 -46 -67.5 -77t-122.5 -31q-78 0 -119.5 38t-41.5 105q0 79 65.5 119.5t186.5 46.5l100 6v40q0 86 -33 122.5t-99 36.5q-77 0 -157 -40l-12 34q38 18 81 29.5t89 11.5zM304 268q-102 -5 -159 -37t-57 -98
q0 -52 33 -80.5t92 -28.5q94 0 140 53.5t47 141.5v53zM140 679q0 15 6.5 24.5t21.5 9.5q17 0 23 -9.5t6 -24.5q0 -16 -6 -25.5t-23 -9.5q-15 0 -21.5 9.5t-6.5 25.5zM325 679q0 15 6.5 24.5t21.5 9.5q17 0 23 -9.5t6 -24.5q0 -16 -6 -25.5t-23 -9.5q-15 0 -21.5 9.5
t-6.5 25.5z" />
    <glyph glyph-name="aring" unicode="&#xe5;" horiz-adv-x="521" 
d="M269 539q85 0 127.5 -44.5t42.5 -141.5v-353h-31l-7 98h-2q-24 -46 -67.5 -77t-122.5 -31q-78 0 -119.5 38t-41.5 105q0 79 65.5 119.5t186.5 46.5l100 6v40q0 86 -33 122.5t-99 36.5q-77 0 -157 -40l-12 34q38 18 81 29.5t89 11.5zM304 268q-102 -5 -159 -37t-57 -98
q0 -52 33 -80.5t92 -28.5q94 0 140 53.5t47 141.5v53zM261 610q-43 0 -73 27.5t-30 73.5q0 44 30 72.5t73 28.5q42 0 72 -29t30 -72q0 -45 -30 -73t-72 -28zM261 639q32 0 52 21t20 51q0 31 -21.5 51.5t-50.5 20.5q-32 0 -52.5 -20.5t-20.5 -51.5q0 -30 20 -51t53 -21z" />
    <glyph glyph-name="ae" unicode="&#xe6;" horiz-adv-x="853" 
d="M604 540q64 0 107 -32.5t64 -88t19 -125.5v-31h-365q-1 -116 48.5 -177t137.5 -61q45 0 79 7.5t79 28.5v-38q-74 -33 -158 -33q-81 0 -132.5 40.5t-72.5 105.5q-21 -66 -68.5 -106t-130.5 -40q-79 0 -121 38t-42 105q0 79 65 119.5t182 46.5l95 6v41q0 85 -33 121.5
t-95 36.5q-74 0 -154 -40l-12 34q39 19 81.5 30t86.5 11q68 0 106.5 -33.5t48.5 -106.5q23 62 69 101.5t116 39.5zM604 505q-70 0 -118 -53t-56 -155h323q1 93 -36.5 150.5t-112.5 57.5zM299 268q-99 -5 -155 -37t-56 -98q0 -52 33 -80.5t93 -28.5q87 0 130.5 53.5
t44.5 141.5v53z" />
    <glyph glyph-name="ccedilla" unicode="&#xe7;" horiz-adv-x="474" 
d="M302 -10q-82 0 -136 34t-81 95.5t-27 142.5q0 84 31.5 146.5t89.5 97t137 34.5q37 0 68.5 -6.5t58.5 -18.5l-9 -35q-29 12 -59.5 18t-58.5 6q-68 0 -117 -30t-75 -84.5t-26 -127.5q0 -67 21.5 -120.5t66.5 -85t115 -31.5q38 0 73 7.5t64 19.5v-35q-25 -12 -59.5 -19.5
t-76.5 -7.5zM363 -144q0 -44 -33.5 -70t-87.5 -26q-34 0 -55 6v30q12 -3 25 -4.5t31 -1.5q38 0 61.5 16.5t23.5 48.5q0 58 -100 60l43 85h32l-31 -63q41 -3 66 -23.5t25 -57.5z" />
    <glyph glyph-name="egrave" unicode="&#xe8;" horiz-adv-x="545" 
d="M288 540q68 0 111.5 -32.5t65 -88t21.5 -125.5v-31h-388q-1 -115 51.5 -176.5t150.5 -61.5q49 0 84.5 7.5t80.5 28.5v-38q-39 -17 -77.5 -25t-88.5 -8q-81 0 -134.5 34t-80 95t-26.5 141q0 77 26 140.5t77 101.5t127 38zM288 505q-80 0 -130 -53.5t-59 -154.5h347
q0 93 -39 150.5t-119 57.5zM225 766q14 -22 36.5 -50t47.5 -55.5t47 -47.5v-7h-29q-26 21 -54 48.5t-52.5 55t-40.5 48.5v8h45z" />
    <glyph glyph-name="eacute" unicode="&#xe9;" horiz-adv-x="545" 
d="M288 540q68 0 111.5 -32.5t65 -88t21.5 -125.5v-31h-388q-1 -115 51.5 -176.5t150.5 -61.5q49 0 84.5 7.5t80.5 28.5v-38q-39 -17 -77.5 -25t-88.5 -8q-81 0 -134.5 34t-80 95t-26.5 141q0 77 26 140.5t77 101.5t127 38zM288 505q-80 0 -130 -53.5t-59 -154.5h347
q0 93 -39 150.5t-119 57.5zM403 758q-17 -21 -41.5 -48.5t-52.5 -55t-53 -48.5h-29v7q21 20 46 47.5t47.5 55.5t36.5 50h46v-8z" />
    <glyph glyph-name="ecircumflex" unicode="&#xea;" horiz-adv-x="545" 
d="M288 540q68 0 111.5 -32.5t65 -88t21.5 -125.5v-31h-388q-1 -115 51.5 -176.5t150.5 -61.5q49 0 84.5 7.5t80.5 28.5v-38q-39 -17 -77.5 -25t-88.5 -8q-81 0 -134.5 34t-80 95t-26.5 141q0 77 26 140.5t77 101.5t127 38zM288 505q-80 0 -130 -53.5t-59 -154.5h347
q0 93 -39 150.5t-119 57.5zM291 764q12 -21 32.5 -48.5t43 -55t40.5 -47.5v-7h-29q-27 25 -55 57.5t-50 60.5q-22 -28 -50.5 -60.5t-55.5 -57.5h-29v7q19 20 41.5 47.5t43 55t32.5 48.5h36z" />
    <glyph glyph-name="edieresis" unicode="&#xeb;" horiz-adv-x="545" 
d="M288 540q68 0 111.5 -32.5t65 -88t21.5 -125.5v-31h-388q-1 -115 51.5 -176.5t150.5 -61.5q49 0 84.5 7.5t80.5 28.5v-38q-39 -17 -77.5 -25t-88.5 -8q-81 0 -134.5 34t-80 95t-26.5 141q0 77 26 140.5t77 101.5t127 38zM288 505q-80 0 -130 -53.5t-59 -154.5h347
q0 93 -39 150.5t-119 57.5zM152 679q0 15 6.5 24.5t21.5 9.5q17 0 23 -9.5t6 -24.5q0 -16 -6 -25.5t-23 -9.5q-15 0 -21.5 9.5t-6.5 25.5zM337 679q0 15 6.5 24.5t21.5 9.5q17 0 23 -9.5t6 -24.5q0 -16 -6 -25.5t-23 -9.5q-15 0 -21.5 9.5t-6.5 25.5z" />
    <glyph glyph-name="igrave" unicode="&#xec;" horiz-adv-x="217" 
d="M128 0h-39v530h39v-530zM61 766q14 -22 36.5 -50t47.5 -55.5t47 -47.5v-7h-29q-26 21 -54 48.5t-52.5 55t-40.5 48.5v8h45z" />
    <glyph glyph-name="iacute" unicode="&#xed;" horiz-adv-x="217" 
d="M128 0h-39v530h39v-530zM239 758q-17 -21 -41.5 -48.5t-52.5 -55t-53 -48.5h-29v7q21 20 46 47.5t47.5 55.5t36.5 50h46v-8z" />
    <glyph glyph-name="icircumflex" unicode="&#xee;" horiz-adv-x="217" 
d="M128 0h-39v530h39v-530zM127 764q12 -21 32.5 -48.5t43 -55t40.5 -47.5v-7h-29q-27 25 -55 57.5t-50 60.5q-22 -28 -50.5 -60.5t-55.5 -57.5h-29v7q19 20 41.5 47.5t43 55t32.5 48.5h36z" />
    <glyph glyph-name="idieresis" unicode="&#xef;" horiz-adv-x="217" 
d="M128 0h-39v530h39v-530zM-12 679q0 15 6.5 24.5t21.5 9.5q17 0 23 -9.5t6 -24.5q0 -16 -6 -25.5t-23 -9.5q-15 0 -21.5 9.5t-6.5 25.5zM173 679q0 15 6.5 24.5t21.5 9.5q17 0 23 -9.5t6 -24.5q0 -16 -6 -25.5t-23 -9.5q-15 0 -21.5 9.5t-6.5 25.5z" />
    <glyph glyph-name="eth" unicode="&#xf0;" horiz-adv-x="564" 
d="M206 759q71 -33 119 -72l110 67l19 -28l-103 -61q77 -76 116 -176t39 -216q0 -81 -25.5 -145t-75.5 -101t-126 -37q-105 0 -163.5 64.5t-58.5 170.5q0 75 29 129t79.5 83.5t115.5 29.5q67 0 107.5 -20t64.5 -51h3q-15 69 -50 135.5t-87 114.5l-129 -77l-18 27l120 72
q-21 17 -48 33t-55 29zM284 432q-83 0 -135.5 -54.5t-52.5 -153.5q0 -95 49.5 -147t134.5 -52q89 0 137.5 64.5t48.5 188.5q0 24 -8.5 50.5t-28.5 50t-55.5 38.5t-89.5 15z" />
    <glyph glyph-name="ntilde" unicode="&#xf1;" horiz-adv-x="582" 
d="M316 540q88 0 135.5 -47t47.5 -146v-347h-39v345q0 83 -38 121.5t-109 38.5q-87 0 -136 -51.5t-49 -156.5v-297h-39v530h31l6 -104h3q19 45 64.5 79.5t122.5 34.5zM125 616q4 51 28.5 77.5t64.5 26.5q24 0 43 -11t35.5 -25t33 -25t35.5 -11q23 0 40.5 14.5t22.5 57.5h31
q-5 -51 -30.5 -78t-64.5 -27q-25 0 -43.5 11t-34.5 25t-32.5 24.5t-37.5 10.5t-38.5 -14.5t-22.5 -55.5h-30z" />
    <glyph glyph-name="ograve" unicode="&#xf2;" horiz-adv-x="581" 
d="M522 265q0 -80 -25.5 -142t-77.5 -97.5t-130 -35.5q-75 0 -126.5 35t-78 97t-26.5 143q0 127 62.5 201t173.5 74q79 0 129 -36t74.5 -98t24.5 -141zM98 265q0 -107 47 -173.5t144 -66.5q67 0 110 30.5t63 84.5t20 125q0 68 -19 122t-60.5 86t-108.5 32
q-95 0 -145.5 -63.5t-50.5 -176.5zM243 766q14 -22 36.5 -50t47.5 -55.5t47 -47.5v-7h-29q-26 21 -54 48.5t-52.5 55t-40.5 48.5v8h45z" />
    <glyph glyph-name="oacute" unicode="&#xf3;" horiz-adv-x="581" 
d="M522 265q0 -80 -25.5 -142t-77.5 -97.5t-130 -35.5q-75 0 -126.5 35t-78 97t-26.5 143q0 127 62.5 201t173.5 74q79 0 129 -36t74.5 -98t24.5 -141zM98 265q0 -107 47 -173.5t144 -66.5q67 0 110 30.5t63 84.5t20 125q0 68 -19 122t-60.5 86t-108.5 32
q-95 0 -145.5 -63.5t-50.5 -176.5zM421 758q-17 -21 -41.5 -48.5t-52.5 -55t-53 -48.5h-29v7q21 20 46 47.5t47.5 55.5t36.5 50h46v-8z" />
    <glyph glyph-name="ocircumflex" unicode="&#xf4;" horiz-adv-x="581" 
d="M522 265q0 -80 -25.5 -142t-77.5 -97.5t-130 -35.5q-75 0 -126.5 35t-78 97t-26.5 143q0 127 62.5 201t173.5 74q79 0 129 -36t74.5 -98t24.5 -141zM98 265q0 -107 47 -173.5t144 -66.5q67 0 110 30.5t63 84.5t20 125q0 68 -19 122t-60.5 86t-108.5 32
q-95 0 -145.5 -63.5t-50.5 -176.5zM309 764q12 -21 32.5 -48.5t43 -55t40.5 -47.5v-7h-29q-27 25 -55 57.5t-50 60.5q-22 -28 -50.5 -60.5t-55.5 -57.5h-29v7q19 20 41.5 47.5t43 55t32.5 48.5h36z" />
    <glyph glyph-name="otilde" unicode="&#xf5;" horiz-adv-x="581" 
d="M522 265q0 -80 -25.5 -142t-77.5 -97.5t-130 -35.5q-75 0 -126.5 35t-78 97t-26.5 143q0 127 62.5 201t173.5 74q79 0 129 -36t74.5 -98t24.5 -141zM98 265q0 -107 47 -173.5t144 -66.5q67 0 110 30.5t63 84.5t20 125q0 68 -19 122t-60.5 86t-108.5 32
q-95 0 -145.5 -63.5t-50.5 -176.5zM125 616q4 51 28.5 77.5t64.5 26.5q24 0 43 -11t35.5 -25t33 -25t35.5 -11q23 0 40.5 14.5t22.5 57.5h31q-5 -51 -30.5 -78t-64.5 -27q-25 0 -43.5 11t-34.5 25t-32.5 24.5t-37.5 10.5t-38.5 -14.5t-22.5 -55.5h-30z" />
    <glyph glyph-name="odieresis" unicode="&#xf6;" horiz-adv-x="581" 
d="M522 265q0 -80 -25.5 -142t-77.5 -97.5t-130 -35.5q-75 0 -126.5 35t-78 97t-26.5 143q0 127 62.5 201t173.5 74q79 0 129 -36t74.5 -98t24.5 -141zM98 265q0 -107 47 -173.5t144 -66.5q67 0 110 30.5t63 84.5t20 125q0 68 -19 122t-60.5 86t-108.5 32
q-95 0 -145.5 -63.5t-50.5 -176.5zM170 679q0 15 6.5 24.5t21.5 9.5q17 0 23 -9.5t6 -24.5q0 -16 -6 -25.5t-23 -9.5q-15 0 -21.5 9.5t-6.5 25.5zM355 679q0 15 6.5 24.5t21.5 9.5q17 0 23 -9.5t6 -24.5q0 -16 -6 -25.5t-23 -9.5q-15 0 -21.5 9.5t-6.5 25.5z" />
    <glyph glyph-name="divide" unicode="&#xf7;" horiz-adv-x="570" 
d="M284 492q-16 0 -23.5 10.5t-7.5 26.5q0 17 7.5 27t23.5 10q19 0 26 -10t7 -27q0 -16 -7 -26.5t-26 -10.5zM54 336v34h462v-34h-462zM284 139q-16 0 -23.5 10.5t-7.5 26.5q0 17 7.5 27t23.5 10q19 0 26 -10t7 -27q0 -16 -7 -26.5t-26 -10.5z" />
    <glyph glyph-name="oslash" unicode="&#xf8;" horiz-adv-x="581" 
d="M522 265q0 -80 -25.5 -142t-77.5 -97.5t-130 -35.5q-49 0 -86.5 15t-65.5 43l-61 -76l-27 20l64 81q-55 74 -55 192q0 127 62.5 201t173.5 74q47 0 83 -13.5t63 -38.5l54 69l27 -20l-57 -72q29 -37 43.5 -88.5t14.5 -111.5zM98 265q0 -100 39 -161l280 356
q-22 21 -52.5 33t-70.5 12q-95 0 -145.5 -63.5t-50.5 -176.5zM482 265q0 50 -10 93t-32 75l-281 -357q23 -24 55.5 -37.5t74.5 -13.5q67 0 110 30.5t63 84.5t20 125z" />
    <glyph glyph-name="ugrave" unicode="&#xf9;" horiz-adv-x="582" 
d="M492 530v-530h-32l-6 103h-2q-19 -45 -64.5 -79t-123.5 -34q-183 0 -183 193v347h39v-343q0 -84 38 -123t109 -39q87 0 136.5 51t49.5 156v298h39zM243 766q14 -22 36.5 -50t47.5 -55.5t47 -47.5v-7h-29q-26 21 -54 48.5t-52.5 55t-40.5 48.5v8h45z" />
    <glyph glyph-name="uacute" unicode="&#xfa;" horiz-adv-x="582" 
d="M492 530v-530h-32l-6 103h-2q-19 -45 -64.5 -79t-123.5 -34q-183 0 -183 193v347h39v-343q0 -84 38 -123t109 -39q87 0 136.5 51t49.5 156v298h39zM422 758q-17 -21 -41.5 -48.5t-52.5 -55t-53 -48.5h-29v7q21 20 46 47.5t47.5 55.5t36.5 50h46v-8z" />
    <glyph glyph-name="ucircumflex" unicode="&#xfb;" horiz-adv-x="582" 
d="M492 530v-530h-32l-6 103h-2q-19 -45 -64.5 -79t-123.5 -34q-183 0 -183 193v347h39v-343q0 -84 38 -123t109 -39q87 0 136.5 51t49.5 156v298h39zM310 764q12 -21 32.5 -48.5t43 -55t40.5 -47.5v-7h-29q-27 25 -55 57.5t-50 60.5q-22 -28 -50.5 -60.5t-55.5 -57.5h-29v7
q19 20 41.5 47.5t43 55t32.5 48.5h36z" />
    <glyph glyph-name="udieresis" unicode="&#xfc;" horiz-adv-x="582" 
d="M492 530v-530h-32l-6 103h-2q-19 -45 -64.5 -79t-123.5 -34q-183 0 -183 193v347h39v-343q0 -84 38 -123t109 -39q87 0 136.5 51t49.5 156v298h39zM171 679q0 15 6.5 24.5t21.5 9.5q17 0 23 -9.5t6 -24.5q0 -16 -6 -25.5t-23 -9.5q-15 0 -21.5 9.5t-6.5 25.5zM356 679
q0 15 6.5 24.5t21.5 9.5q17 0 23 -9.5t6 -24.5q0 -16 -6 -25.5t-23 -9.5q-15 0 -21.5 9.5t-6.5 25.5z" />
    <glyph glyph-name="yacute" unicode="&#xfd;" horiz-adv-x="445" 
d="M0 530h41l133 -346q17 -46 29 -80t20 -57h2q7 22 19 56t29 78l132 349h41l-245 -637q-26 -67 -58.5 -101t-87.5 -34q-30 0 -58 9v35q14 -4 26.5 -7t28.5 -3q40 0 65.5 26t48.5 86l38 100zM353 758q-17 -21 -41.5 -48.5t-52.5 -55t-53 -48.5h-29v7q21 20 46 47.5
t47.5 55.5t36.5 50h46v-8z" />
    <glyph glyph-name="thorn" unicode="&#xfe;" horiz-adv-x="590" 
d="M533 269q0 -134 -59 -206.5t-163 -72.5q-76 0 -120.5 34t-62.5 82h-2q1 -29 1.5 -61t0.5 -60v-219h-38v994h38v-233q0 -22 -0.5 -54.5t-1.5 -54.5h3q18 48 64.5 85t124.5 37q104 0 159.5 -69t55.5 -202zM493 269q0 236 -178 236q-93 0 -139.5 -61.5t-46.5 -173.5v-7
q0 -121 46.5 -179.5t132.5 -58.5q88 0 136.5 62t48.5 182z" />
    <glyph glyph-name="ydieresis" unicode="&#xff;" horiz-adv-x="445" 
d="M0 530h41l133 -346q17 -46 29 -80t20 -57h2q7 22 19 56t29 78l132 349h41l-245 -637q-26 -67 -58.5 -101t-87.5 -34q-30 0 -58 9v35q14 -4 26.5 -7t28.5 -3q40 0 65.5 26t48.5 86l38 100zM102 679q0 15 6.5 24.5t21.5 9.5q17 0 23 -9.5t6 -24.5q0 -16 -6 -25.5t-23 -9.5
q-15 0 -21.5 9.5t-6.5 25.5zM287 679q0 15 6.5 24.5t21.5 9.5q17 0 23 -9.5t6 -24.5q0 -16 -6 -25.5t-23 -9.5q-15 0 -21.5 9.5t-6.5 25.5z" />
    <glyph glyph-name="Amacron" unicode="&#x100;" horiz-adv-x="590" 
d="M548 0l-100 261h-305l-102 -261h-41l281 716h37l271 -716h-41zM330 578q-5 17 -14 41.5t-18 50.5q-7 -24 -16 -48.5t-17 -43.5l-108 -281h277zM427 830v-34h-264v34h264z" />
    <glyph glyph-name="amacron" unicode="&#x101;" horiz-adv-x="521" 
d="M269 539q85 0 127.5 -44.5t42.5 -141.5v-353h-31l-7 98h-2q-24 -46 -67.5 -77t-122.5 -31q-78 0 -119.5 38t-41.5 105q0 79 65.5 119.5t186.5 46.5l100 6v40q0 86 -33 122.5t-99 36.5q-77 0 -157 -40l-12 34q38 18 81 29.5t89 11.5zM304 268q-102 -5 -159 -37t-57 -98
q0 -52 33 -80.5t92 -28.5q94 0 140 53.5t47 141.5v53zM394 646v-34h-264v34h264z" />
    <glyph glyph-name="Abreve" unicode="&#x102;" horiz-adv-x="590" 
d="M548 0l-100 261h-305l-102 -261h-41l281 716h37l271 -716h-41zM330 578q-5 17 -14 41.5t-18 50.5q-7 -24 -16 -48.5t-17 -43.5l-108 -281h277zM424 906q-6 -55 -39 -85.5t-91 -30.5t-91 30t-37 86h31q8 -82 98 -82q46 0 70 21.5t28 60.5h31z" />
    <glyph glyph-name="abreve" unicode="&#x103;" horiz-adv-x="521" 
d="M269 539q85 0 127.5 -44.5t42.5 -141.5v-353h-31l-7 98h-2q-24 -46 -67.5 -77t-122.5 -31q-78 0 -119.5 38t-41.5 105q0 79 65.5 119.5t186.5 46.5l100 6v40q0 86 -33 122.5t-99 36.5q-77 0 -157 -40l-12 34q38 18 81 29.5t89 11.5zM304 268q-102 -5 -159 -37t-57 -98
q0 -52 33 -80.5t92 -28.5q94 0 140 53.5t47 141.5v53zM390 722q-6 -55 -39 -85.5t-91 -30.5t-91 30t-37 86h31q8 -82 98 -82q46 0 70 21.5t28 60.5h31z" />
    <glyph glyph-name="Aogonek" unicode="&#x104;" horiz-adv-x="590" 
d="M548 0l-100 261h-305l-102 -261h-41l281 716h37l271 -716h-41zM330 578q-5 17 -14 41.5t-18 50.5q-7 -24 -16 -48.5t-17 -43.5l-108 -281h277zM485 -128q0 -58 56 -58q14 0 26.5 2t21.5 5v-30q-10 -4 -23 -6.5t-30 -2.5q-38 0 -62 21.5t-24 63.5q0 37 25 73t73 72l24 -12
q-34 -28 -60.5 -59.5t-26.5 -68.5z" />
    <glyph glyph-name="aogonek" unicode="&#x105;" horiz-adv-x="521" 
d="M269 539q85 0 127.5 -44.5t42.5 -141.5v-353h-31l-7 98h-2q-24 -46 -67.5 -77t-122.5 -31q-78 0 -119.5 38t-41.5 105q0 79 65.5 119.5t186.5 46.5l100 6v40q0 86 -33 122.5t-99 36.5q-77 0 -157 -40l-12 34q38 18 81 29.5t89 11.5zM304 268q-102 -5 -159 -37t-57 -98
q0 -52 33 -80.5t92 -28.5q94 0 140 53.5t47 141.5v53zM357 -128q0 -58 56 -58q14 0 26.5 2t21.5 5v-30q-10 -4 -23 -6.5t-30 -2.5q-38 0 -62 21.5t-24 63.5q0 37 25 73t73 72l24 -12q-34 -28 -60.5 -59.5t-26.5 -68.5z" />
    <glyph glyph-name="Cacute" unicode="&#x106;" horiz-adv-x="618" 
d="M405 688q-96 0 -163.5 -42t-103 -116.5t-35.5 -170.5q0 -100 32 -175t95.5 -116.5t158.5 -41.5q56 0 100.5 8t81.5 21v-34q-35 -14 -80 -22.5t-104 -8.5q-107 0 -179 46t-108.5 129.5t-36.5 194.5q0 104 40.5 186.5t117 130t184.5 47.5q100 0 182 -38l-16 -35
q-40 21 -82 29t-84 8zM516 942q-17 -21 -41.5 -48.5t-52.5 -55t-53 -48.5h-29v7q21 20 46 47.5t47.5 55.5t36.5 50h46v-8z" />
    <glyph glyph-name="cacute" unicode="&#x107;" horiz-adv-x="474" 
d="M302 -10q-82 0 -136 34t-81 95.5t-27 142.5q0 84 31.5 146.5t89.5 97t137 34.5q37 0 68.5 -6.5t58.5 -18.5l-9 -35q-29 12 -59.5 18t-58.5 6q-68 0 -117 -30t-75 -84.5t-26 -127.5q0 -67 21.5 -120.5t66.5 -85t115 -31.5q38 0 73 7.5t64 19.5v-35q-25 -12 -59.5 -19.5
t-76.5 -7.5zM432 758q-17 -21 -41.5 -48.5t-52.5 -55t-53 -48.5h-29v7q21 20 46 47.5t47.5 55.5t36.5 50h46v-8z" />
    <glyph glyph-name="Ccircumflex" unicode="&#x108;" horiz-adv-x="618" 
d="M405 688q-96 0 -163.5 -42t-103 -116.5t-35.5 -170.5q0 -100 32 -175t95.5 -116.5t158.5 -41.5q56 0 100.5 8t81.5 21v-34q-35 -14 -80 -22.5t-104 -8.5q-107 0 -179 46t-108.5 129.5t-36.5 194.5q0 104 40.5 186.5t117 130t184.5 47.5q100 0 182 -38l-16 -35
q-40 21 -82 29t-84 8zM404 948q12 -21 32.5 -48.5t43 -55t40.5 -47.5v-7h-29q-27 25 -55 57.5t-50 60.5q-22 -28 -50.5 -60.5t-55.5 -57.5h-29v7q19 20 41.5 47.5t43 55t32.5 48.5h36z" />
    <glyph glyph-name="ccircumflex" unicode="&#x109;" horiz-adv-x="474" 
d="M302 -10q-82 0 -136 34t-81 95.5t-27 142.5q0 84 31.5 146.5t89.5 97t137 34.5q37 0 68.5 -6.5t58.5 -18.5l-9 -35q-29 12 -59.5 18t-58.5 6q-68 0 -117 -30t-75 -84.5t-26 -127.5q0 -67 21.5 -120.5t66.5 -85t115 -31.5q38 0 73 7.5t64 19.5v-35q-25 -12 -59.5 -19.5
t-76.5 -7.5zM320 764q12 -21 32.5 -48.5t43 -55t40.5 -47.5v-7h-29q-27 25 -55 57.5t-50 60.5q-22 -28 -50.5 -60.5t-55.5 -57.5h-29v7q19 20 41.5 47.5t43 55t32.5 48.5h36z" />
    <glyph glyph-name="Cdotaccent" unicode="&#x10a;" horiz-adv-x="618" 
d="M405 688q-96 0 -163.5 -42t-103 -116.5t-35.5 -170.5q0 -100 32 -175t95.5 -116.5t158.5 -41.5q56 0 100.5 8t81.5 21v-34q-35 -14 -80 -22.5t-104 -8.5q-107 0 -179 46t-108.5 129.5t-36.5 194.5q0 104 40.5 186.5t117 130t184.5 47.5q100 0 182 -38l-16 -35
q-40 21 -82 29t-84 8zM385 908q19 0 25.5 -10t6.5 -26t-6.5 -26t-25.5 -10q-16 0 -23 10t-7 26t7 26t23 10z" />
    <glyph glyph-name="cdotaccent" unicode="&#x10b;" horiz-adv-x="474" 
d="M302 -10q-82 0 -136 34t-81 95.5t-27 142.5q0 84 31.5 146.5t89.5 97t137 34.5q37 0 68.5 -6.5t58.5 -18.5l-9 -35q-29 12 -59.5 18t-58.5 6q-68 0 -117 -30t-75 -84.5t-26 -127.5q0 -67 21.5 -120.5t66.5 -85t115 -31.5q38 0 73 7.5t64 19.5v-35q-25 -12 -59.5 -19.5
t-76.5 -7.5zM300 724q19 0 25.5 -10t6.5 -26t-6.5 -26t-25.5 -10q-16 0 -23 10t-7 26t7 26t23 10z" />
    <glyph glyph-name="Ccaron" unicode="&#x10c;" horiz-adv-x="618" 
d="M405 688q-96 0 -163.5 -42t-103 -116.5t-35.5 -170.5q0 -100 32 -175t95.5 -116.5t158.5 -41.5q56 0 100.5 8t81.5 21v-34q-35 -14 -80 -22.5t-104 -8.5q-107 0 -179 46t-108.5 129.5t-36.5 194.5q0 104 40.5 186.5t117 130t184.5 47.5q100 0 182 -38l-16 -35
q-40 21 -82 29t-84 8zM367 790q-12 21 -32.5 48.5t-43 54.5t-40.5 47v8h29q27 -26 55 -58t50 -61q22 29 50.5 61t55.5 58h29v-8q-18 -20 -41 -47t-43.5 -54.5t-32.5 -48.5h-36z" />
    <glyph glyph-name="ccaron" unicode="&#x10d;" horiz-adv-x="474" 
d="M302 -10q-82 0 -136 34t-81 95.5t-27 142.5q0 84 31.5 146.5t89.5 97t137 34.5q37 0 68.5 -6.5t58.5 -18.5l-9 -35q-29 12 -59.5 18t-58.5 6q-68 0 -117 -30t-75 -84.5t-26 -127.5q0 -67 21.5 -120.5t66.5 -85t115 -31.5q38 0 73 7.5t64 19.5v-35q-25 -12 -59.5 -19.5
t-76.5 -7.5zM283 606q-12 21 -32.5 48.5t-43 54.5t-40.5 47v8h29q27 -26 55 -58t50 -61q22 29 50.5 61t55.5 58h29v-8q-18 -20 -41 -47t-43.5 -54.5t-32.5 -48.5h-36z" />
    <glyph glyph-name="Dcaron" unicode="&#x10e;" horiz-adv-x="700" 
d="M636 364q0 -180 -93 -272t-278 -92h-163v714h186q173 0 260.5 -89.5t87.5 -260.5zM596 363q0 155 -77 235t-242 80h-136v-642h124q331 0 331 327zM330 790q-12 21 -32.5 48.5t-43 54.5t-40.5 47v8h29q27 -26 55 -58t50 -61q22 29 50.5 61t55.5 58h29v-8q-18 -20 -41 -47
t-43.5 -54.5t-32.5 -48.5h-36z" />
    <glyph glyph-name="dcaron" unicode="&#x10f;" horiz-adv-x="590" 
d="M627 753q-9 -36 -25 -77t-37 -76h-23v7q7 16 16.5 44t17 58t10.5 51h41v-7zM281 -10q-111 0 -167 68t-56 199q0 137 60 210t170 73q70 0 113.5 -33.5t61.5 -81.5h3q-2 29 -2.5 59.5t-0.5 59.5v216h38v-760h-32l-4 105h-2q-19 -47 -62.5 -81t-119.5 -34zM284 25
q97 0 138 61.5t41 173.5v6q0 116 -41.5 177.5t-131.5 61.5q-93 0 -142.5 -63t-49.5 -186q0 -115 46 -173t140 -58z" />
    <glyph glyph-name="Dcroat" unicode="&#x110;" horiz-adv-x="700" 
d="M288 714q173 0 260.5 -89.5t87.5 -260.5q0 -180 -93 -272t-278 -92h-162v337h-83v36h83v341h185zM277 678h-135v-305h201v-36h-201v-301h123q331 0 331 327q0 155 -77 235t-242 80z" />
    <glyph glyph-name="dcroat" unicode="&#x111;" horiz-adv-x="589" 
d="M281 -10q-111 0 -167 68t-56 198q0 138 60 210.5t170 72.5q70 0 113.5 -33t61.5 -82h3q-2 30 -2.5 60.5t-0.5 58.5v82h-236v33h236v102h38v-102h75v-33h-75v-625h-32l-4 105h-2q-20 -47 -63 -81t-119 -34zM284 25q97 0 137.5 61.5t40.5 173.5v6q0 116 -41 177t-131 61
q-93 0 -142.5 -62.5t-49.5 -185.5q0 -115 46 -173t140 -58z" />
    <glyph glyph-name="Emacron" unicode="&#x112;" horiz-adv-x="551" 
d="M490 0h-388v714h388v-36h-349v-284h329v-36h-329v-322h349v-36zM438 830v-34h-264v34h264z" />
    <glyph glyph-name="emacron" unicode="&#x113;" horiz-adv-x="545" 
d="M288 540q68 0 111.5 -32.5t65 -88t21.5 -125.5v-31h-388q-1 -115 51.5 -176.5t150.5 -61.5q49 0 84.5 7.5t80.5 28.5v-38q-39 -17 -77.5 -25t-88.5 -8q-81 0 -134.5 34t-80 95t-26.5 141q0 77 26 140.5t77 101.5t127 38zM288 505q-80 0 -130 -53.5t-59 -154.5h347
q0 93 -39 150.5t-119 57.5zM406 646v-34h-264v34h264z" />
    <glyph glyph-name="Ebreve" unicode="&#x114;" horiz-adv-x="551" 
d="M490 0h-388v714h388v-36h-349v-284h329v-36h-329v-322h349v-36zM434 906q-6 -55 -39 -85.5t-91 -30.5t-91 30t-37 86h31q8 -82 98 -82q46 0 70 21.5t28 60.5h31z" />
    <glyph glyph-name="ebreve" unicode="&#x115;" horiz-adv-x="545" 
d="M288 540q68 0 111.5 -32.5t65 -88t21.5 -125.5v-31h-388q-1 -115 51.5 -176.5t150.5 -61.5q49 0 84.5 7.5t80.5 28.5v-38q-39 -17 -77.5 -25t-88.5 -8q-81 0 -134.5 34t-80 95t-26.5 141q0 77 26 140.5t77 101.5t127 38zM288 505q-80 0 -130 -53.5t-59 -154.5h347
q0 93 -39 150.5t-119 57.5zM402 722q-6 -55 -39 -85.5t-91 -30.5t-91 30t-37 86h31q8 -82 98 -82q46 0 70 21.5t28 60.5h31z" />
    <glyph glyph-name="Edotaccent" unicode="&#x116;" horiz-adv-x="551" 
d="M490 0h-388v714h388v-36h-349v-284h329v-36h-329v-322h349v-36zM304 908q19 0 25.5 -10t6.5 -26t-6.5 -26t-25.5 -10q-16 0 -23 10t-7 26t7 26t23 10z" />
    <glyph glyph-name="edotaccent" unicode="&#x117;" horiz-adv-x="545" 
d="M288 540q68 0 111.5 -32.5t65 -88t21.5 -125.5v-31h-388q-1 -115 51.5 -176.5t150.5 -61.5q49 0 84.5 7.5t80.5 28.5v-38q-39 -17 -77.5 -25t-88.5 -8q-81 0 -134.5 34t-80 95t-26.5 141q0 77 26 140.5t77 101.5t127 38zM288 505q-80 0 -130 -53.5t-59 -154.5h347
q0 93 -39 150.5t-119 57.5zM272 724q19 0 25.5 -10t6.5 -26t-6.5 -26t-25.5 -10q-16 0 -23 10t-7 26t7 26t23 10z" />
    <glyph glyph-name="Eogonek" unicode="&#x118;" horiz-adv-x="551" 
d="M490 0h-388v714h388v-36h-349v-284h329v-36h-329v-322h349v-36zM379 -128q0 -58 56 -58q14 0 26.5 2t21.5 5v-30q-10 -4 -23 -6.5t-30 -2.5q-38 0 -62 21.5t-24 63.5q0 37 25 73t73 72l24 -12q-34 -28 -60.5 -59.5t-26.5 -68.5z" />
    <glyph glyph-name="eogonek" unicode="&#x119;" horiz-adv-x="545" 
d="M358 -128q0 -58 55 -58q15 0 27.5 2t20.5 5v-30q-9 -4 -22.5 -6.5t-29.5 -2.5q-38 0 -62 21.5t-24 63.5q0 64 74 133q-43 -10 -98 -10q-81 0 -134.5 34t-80 95t-26.5 141q0 77 26 140.5t77 101.5t127 38q68 0 111.5 -32.5t65 -88t21.5 -125.5v-31h-388
q-1 -115 51.5 -176.5t150.5 -61.5q49 0 84.5 7.5t80.5 28.5v-38l-10 -4q-46 -40 -71.5 -75.5t-25.5 -71.5zM288 505q-80 0 -130 -53.5t-59 -154.5h347q0 93 -39 150.5t-119 57.5z" />
    <glyph glyph-name="Ecaron" unicode="&#x11a;" horiz-adv-x="551" 
d="M490 0h-388v714h388v-36h-349v-284h329v-36h-329v-322h349v-36zM286 790q-12 21 -32.5 48.5t-43 54.5t-40.5 47v8h29q27 -26 55 -58t50 -61q22 29 50.5 61t55.5 58h29v-8q-18 -20 -41 -47t-43.5 -54.5t-32.5 -48.5h-36z" />
    <glyph glyph-name="ecaron" unicode="&#x11b;" horiz-adv-x="545" 
d="M288 540q68 0 111.5 -32.5t65 -88t21.5 -125.5v-31h-388q-1 -115 51.5 -176.5t150.5 -61.5q49 0 84.5 7.5t80.5 28.5v-38q-39 -17 -77.5 -25t-88.5 -8q-81 0 -134.5 34t-80 95t-26.5 141q0 77 26 140.5t77 101.5t127 38zM288 505q-80 0 -130 -53.5t-59 -154.5h347
q0 93 -39 150.5t-119 57.5zM254 606q-12 21 -32.5 48.5t-43 54.5t-40.5 47v8h29q27 -26 55 -58t50 -61q22 29 50.5 61t55.5 58h29v-8q-18 -20 -41 -47t-43.5 -54.5t-32.5 -48.5h-36z" />
    <glyph glyph-name="Gcircumflex" unicode="&#x11c;" horiz-adv-x="722" 
d="M375 355h267v-321q-50 -22 -107.5 -33t-120.5 -11q-172 0 -261.5 95.5t-89.5 269.5q0 107 43 190.5t124.5 132t194.5 48.5q58 0 110 -11t99 -33l-17 -36q-48 23 -96.5 33.5t-96.5 10.5q-100 0 -172 -43t-110.5 -118.5t-38.5 -172.5q0 -170 84 -250t233 -80q56 0 101 8.5
t82 22.5v262h-228v36zM427 948q12 -21 32.5 -48.5t43 -55t40.5 -47.5v-7h-29q-27 25 -55 57.5t-50 60.5q-22 -28 -50.5 -60.5t-55.5 -57.5h-29v7q19 20 41.5 47.5t43 55t32.5 48.5h36z" />
    <glyph glyph-name="gcircumflex" unicode="&#x11d;" horiz-adv-x="590" 
d="M287 540q69 0 109 -27t63 -70h3l6 87h32v-552q0 -99 -51.5 -158.5t-172.5 -59.5q-60 0 -105.5 10.5t-81.5 25.5v41q36 -18 84 -30t104 -12q99 0 141.5 49.5t42.5 132.5v38q0 25 0.5 46.5t2.5 46.5h-3q-20 -58 -67.5 -88t-117.5 -30q-102 0 -160 68.5t-58 199.5
q0 130 58 206t171 76zM289 505q-97 0 -144 -65.5t-47 -181.5q0 -114 46.5 -173.5t134.5 -59.5q73 0 112.5 31.5t55 82t15.5 107.5v43q0 64 -16.5 112.5t-54 76t-102.5 27.5zM311 764q12 -21 32.5 -48.5t43 -55t40.5 -47.5v-7h-29q-27 25 -55 57.5t-50 60.5
q-22 -28 -50.5 -60.5t-55.5 -57.5h-29v7q19 20 41.5 47.5t43 55t32.5 48.5h36z" />
    <glyph glyph-name="Gbreve" unicode="&#x11e;" horiz-adv-x="722" 
d="M375 355h267v-321q-50 -22 -107.5 -33t-120.5 -11q-172 0 -261.5 95.5t-89.5 269.5q0 107 43 190.5t124.5 132t194.5 48.5q58 0 110 -11t99 -33l-17 -36q-48 23 -96.5 33.5t-96.5 10.5q-100 0 -172 -43t-110.5 -118.5t-38.5 -172.5q0 -170 84 -250t233 -80q56 0 101 8.5
t82 22.5v262h-228v36zM538 906q-6 -55 -39 -85.5t-91 -30.5t-91 30t-37 86h31q8 -82 98 -82q46 0 70 21.5t28 60.5h31z" />
    <glyph glyph-name="gbreve" unicode="&#x11f;" horiz-adv-x="590" 
d="M287 540q69 0 109 -27t63 -70h3l6 87h32v-552q0 -99 -51.5 -158.5t-172.5 -59.5q-60 0 -105.5 10.5t-81.5 25.5v41q36 -18 84 -30t104 -12q99 0 141.5 49.5t42.5 132.5v38q0 25 0.5 46.5t2.5 46.5h-3q-20 -58 -67.5 -88t-117.5 -30q-102 0 -160 68.5t-58 199.5
q0 130 58 206t171 76zM289 505q-97 0 -144 -65.5t-47 -181.5q0 -114 46.5 -173.5t134.5 -59.5q73 0 112.5 31.5t55 82t15.5 107.5v43q0 64 -16.5 112.5t-54 76t-102.5 27.5zM422 722q-6 -55 -39 -85.5t-91 -30.5t-91 30t-37 86h31q8 -82 98 -82q46 0 70 21.5t28 60.5h31z
" />
    <glyph glyph-name="Gdotaccent" unicode="&#x120;" horiz-adv-x="722" 
d="M375 355h267v-321q-50 -22 -107.5 -33t-120.5 -11q-172 0 -261.5 95.5t-89.5 269.5q0 107 43 190.5t124.5 132t194.5 48.5q58 0 110 -11t99 -33l-17 -36q-48 23 -96.5 33.5t-96.5 10.5q-100 0 -172 -43t-110.5 -118.5t-38.5 -172.5q0 -170 84 -250t233 -80q56 0 101 8.5
t82 22.5v262h-228v36zM408 908q19 0 25.5 -10t6.5 -26t-6.5 -26t-25.5 -10q-16 0 -23 10t-7 26t7 26t23 10z" />
    <glyph glyph-name="gdotaccent" unicode="&#x121;" horiz-adv-x="590" 
d="M287 540q69 0 109 -27t63 -70h3l6 87h32v-552q0 -99 -51.5 -158.5t-172.5 -59.5q-60 0 -105.5 10.5t-81.5 25.5v41q36 -18 84 -30t104 -12q99 0 141.5 49.5t42.5 132.5v38q0 25 0.5 46.5t2.5 46.5h-3q-20 -58 -67.5 -88t-117.5 -30q-102 0 -160 68.5t-58 199.5
q0 130 58 206t171 76zM289 505q-97 0 -144 -65.5t-47 -181.5q0 -114 46.5 -173.5t134.5 -59.5q73 0 112.5 31.5t55 82t15.5 107.5v43q0 64 -16.5 112.5t-54 76t-102.5 27.5zM292 724q19 0 25.5 -10t6.5 -26t-6.5 -26t-25.5 -10q-16 0 -23 10t-7 26t7 26t23 10z" />
    <glyph glyph-name="uni0122" unicode="&#x122;" horiz-adv-x="722" 
d="M375 355h267v-321q-50 -22 -107.5 -33t-120.5 -11q-172 0 -261.5 95.5t-89.5 269.5q0 107 43 190.5t124.5 132t194.5 48.5q58 0 110 -11t99 -33l-17 -36q-48 23 -96.5 33.5t-96.5 10.5q-100 0 -172 -43t-110.5 -118.5t-38.5 -172.5q0 -170 84 -250t233 -80q56 0 101 8.5
t82 22.5v262h-228v36zM444 -68q-9 -36 -25 -77t-39 -76h-23v7q8 16 17.5 43.5t17.5 58t11 51.5h41v-7z" />
    <glyph glyph-name="uni0123" unicode="&#x123;" horiz-adv-x="590" 
d="M345 756q-8 -15 -17.5 -43t-17.5 -58t-11 -51h-40v6q8 37 24.5 78t38.5 76h23v-8zM287 540q69 0 109 -27t63 -70h3l6 87h32v-552q0 -99 -51.5 -158.5t-172.5 -59.5q-60 0 -105.5 10.5t-81.5 25.5v41q36 -18 84 -30t104 -12q99 0 141.5 49.5t42.5 132.5v38q0 25 0.5 46.5
t2.5 46.5h-3q-20 -58 -67.5 -88t-117.5 -30q-102 0 -160 68.5t-58 199.5q0 130 58 206t171 76zM289 505q-97 0 -144 -65.5t-47 -181.5q0 -114 46.5 -173.5t134.5 -59.5q73 0 112.5 31.5t55 82t15.5 107.5v43q0 64 -16.5 112.5t-54 76t-102.5 27.5z" />
    <glyph glyph-name="Hcircumflex" unicode="&#x124;" horiz-adv-x="713" 
d="M611 0h-39v357h-431v-357h-39v714h39v-321h431v321h39v-714zM375 948q12 -21 32.5 -48.5t43 -55t40.5 -47.5v-7h-29q-27 25 -55 57.5t-50 60.5q-22 -28 -50.5 -60.5t-55.5 -57.5h-29v7q19 20 41.5 47.5t43 55t32.5 48.5h36z" />
    <glyph glyph-name="hcircumflex" unicode="&#x125;" horiz-adv-x="582" 
d="M128 504q0 -22 -1 -39.5t-2 -38.5h3q18 46 64 79.5t124 33.5q87 0 135 -46.5t48 -145.5v-347h-39v345q0 83 -38 121.5t-109 38.5q-87 0 -136 -51.5t-49 -156.5v-297h-39v760h39v-256zM127 994q12 -21 32.5 -48.5t43 -55t40.5 -47.5v-7h-29q-27 25 -55 57.5t-50 60.5
q-22 -28 -50.5 -60.5t-55.5 -57.5h-29v7q19 20 41.5 47.5t43 55t32.5 48.5h36z" />
    <glyph glyph-name="Hbar" unicode="&#x126;" horiz-adv-x="713" 
d="M102 0v544h-102v34h102v136h39v-136h431v136h39v-136h102v-34h-102v-544h-39v357h-431v-357h-39zM141 393h431v151h-431v-151z" />
    <glyph glyph-name="hbar" unicode="&#x127;" horiz-adv-x="582" 
d="M128 760v-102h235v-33h-235v-125q0 -22 -1 -39.5t-2 -38.5h3q18 46 64 80t124 34q87 0 135 -47t48 -146v-343h-39v341q0 83 -38 121.5t-109 38.5q-87 0 -136 -51.5t-49 -156.5v-293h-39v625h-74v33h74v102h39z" />
    <glyph glyph-name="Itilde" unicode="&#x128;" horiz-adv-x="294" 
d="M238 0h-181v27l71 6v647l-71 8v26h181v-26l-71 -8v-647l71 -6v-27zM-19 800q4 51 28.5 77.5t64.5 26.5q24 0 43 -11t35.5 -25t33 -25t35.5 -11q23 0 40.5 14.5t22.5 57.5h31q-5 -51 -30.5 -78t-64.5 -27q-25 0 -43.5 11t-34.5 25t-32.5 24.5t-37.5 10.5t-38.5 -14.5
t-22.5 -55.5h-30z" />
    <glyph glyph-name="itilde" unicode="&#x129;" horiz-adv-x="217" 
d="M128 0h-39v530h39v-530zM-57 616q4 51 28.5 77.5t64.5 26.5q24 0 43 -11t35.5 -25t33 -25t35.5 -11q23 0 40.5 14.5t22.5 57.5h31q-5 -51 -30.5 -78t-64.5 -27q-25 0 -43.5 11t-34.5 25t-32.5 24.5t-37.5 10.5t-38.5 -14.5t-22.5 -55.5h-30z" />
    <glyph glyph-name="Imacron" unicode="&#x12a;" horiz-adv-x="294" 
d="M238 0h-181v27l71 6v647l-71 8v26h181v-26l-71 -8v-647l71 -6v-27zM280 830v-34h-264v34h264z" />
    <glyph glyph-name="imacron" unicode="&#x12b;" horiz-adv-x="217" 
d="M128 0h-39v530h39v-530zM242 646v-34h-264v34h264z" />
    <glyph glyph-name="Ibreve" unicode="&#x12c;" horiz-adv-x="294" 
d="M238 0h-181v27l71 6v647l-71 8v26h181v-26l-71 -8v-647l71 -6v-27zM277 906q-6 -55 -39 -85.5t-91 -30.5t-91 30t-37 86h31q8 -82 98 -82q46 0 70 21.5t28 60.5h31z" />
    <glyph glyph-name="ibreve" unicode="&#x12d;" horiz-adv-x="217" 
d="M128 0h-39v530h39v-530zM238 722q-6 -55 -39 -85.5t-91 -30.5t-91 30t-37 86h31q8 -82 98 -82q46 0 70 21.5t28 60.5h31z" />
    <glyph glyph-name="Iogonek" unicode="&#x12e;" horiz-adv-x="294" 
d="M238 0h-181v27l71 6v647l-71 8v26h181v-26l-71 -8v-647l71 -6v-27zM125 -128q0 -58 56 -58q14 0 26.5 2t21.5 5v-30q-10 -4 -23 -6.5t-30 -2.5q-38 0 -62 21.5t-24 63.5q0 37 25 73t73 72l24 -12q-34 -28 -60.5 -59.5t-26.5 -68.5z" />
    <glyph glyph-name="iogonek" unicode="&#x12f;" horiz-adv-x="217" 
d="M108 724q19 0 25.5 -10t6.5 -26t-6.5 -26t-25.5 -10q-16 0 -23 10t-7 26t7 26t23 10zM128 530v-530h-39v530h39zM39 -128q0 -58 56 -58q14 0 26.5 2t21.5 5v-30q-10 -4 -23 -6.5t-30 -2.5q-38 0 -62 21.5t-24 63.5q0 37 25 73t73 72l24 -12q-34 -28 -60.5 -59.5
t-26.5 -68.5z" />
    <glyph glyph-name="Idotaccent" unicode="&#x130;" horiz-adv-x="294" 
d="M238 0h-181v27l71 6v647l-71 8v26h181v-26l-71 -8v-647l71 -6v-27zM147 908q19 0 25.5 -10t6.5 -26t-6.5 -26t-25.5 -10q-16 0 -23 10t-7 26t7 26t23 10z" />
    <glyph glyph-name="dotlessi" unicode="&#x131;" horiz-adv-x="217" 
d="M128 0h-39v530h39v-530z" />
    <glyph glyph-name="IJ" unicode="&#x132;" horiz-adv-x="534" 
d="M238 0h-181v27l71 6v647l-71 8v26h181v-26l-71 -8v-647l71 -6v-27zM278 -177q-27 0 -46 3.5t-32 8.5v38q14 -6 34.5 -9.5t43.5 -3.5q65 0 92 38.5t27 106.5v709h39v-710q0 -80 -37 -130.5t-121 -50.5z" />
    <glyph glyph-name="ij" unicode="&#x133;" horiz-adv-x="435" 
d="M108 724q19 0 25.5 -10t6.5 -26t-6.5 -26t-25.5 -10q-16 0 -23 10t-7 26t7 26t23 10zM128 530v-530h-39v530h39zM295 688q0 16 7 26t23 10q19 0 25.5 -10t6.5 -26t-6.5 -26t-25.5 -10q-16 0 -23 10t-7 26zM230 -240q-20 0 -36 3t-28 7v36q15 -7 30.5 -9t31.5 -2
q78 0 78 96v639h39v-642q0 -64 -32.5 -96t-82.5 -32z" />
    <glyph glyph-name="Jcircumflex" unicode="&#x134;" horiz-adv-x="240" 
d="M-16 -177q-27 0 -46 3.5t-32 8.5v38q14 -6 34.5 -9.5t43.5 -3.5q65 0 92 38.5t27 106.5v709h39v-710q0 -80 -37 -130.5t-121 -50.5zM141 948q12 -21 32.5 -48.5t43 -55t40.5 -47.5v-7h-29q-27 25 -55 57.5t-50 60.5q-22 -28 -50.5 -60.5t-55.5 -57.5h-29v7
q19 20 41.5 47.5t43 55t32.5 48.5h36z" />
    <glyph glyph-name="jcircumflex" unicode="&#x135;" horiz-adv-x="217" 
d="M13 -240q-20 0 -36 3t-28 7v36q15 -7 30.5 -9t31.5 -2q78 0 78 96v639h39v-642q0 -64 -32.5 -96t-82.5 -32zM127 764q12 -21 32.5 -48.5t43 -55t40.5 -47.5v-7h-29q-27 25 -55 57.5t-50 60.5q-22 -28 -50.5 -60.5t-55.5 -57.5h-29v7q19 20 41.5 47.5t43 55t32.5 48.5h36z
" />
    <glyph glyph-name="uni0136" unicode="&#x136;" horiz-adv-x="570" 
d="M570 0h-48l-283 386l-98 -96v-290h-39v714h39v-382q15 17 31.5 34t33.5 35l306 313h51l-295 -300zM333 -68q-9 -36 -25 -77t-39 -76h-23v7q8 16 17.5 43.5t17.5 58t11 51.5h41v-7z" />
    <glyph glyph-name="uni0137" unicode="&#x137;" horiz-adv-x="470" 
d="M127 381v-81.5t-1 -81.5v0q15 18 29 34t30 34l220 244h48l-207 -228l226 -302h-46l-207 276l-92 -99v-177h-38v760h38v-379zM279 -68q-9 -36 -25 -77t-39 -76h-23v7q8 16 17.5 43.5t17.5 58t11 51.5h41v-7z" />
    <glyph glyph-name="kgreenlandic" unicode="&#x138;" horiz-adv-x="470" 
d="M453 530l-204 -229l223 -301h-46l-204 275l-93 -100v-175h-40v530h40v-143q0 -91 -2 -172q15 18 26.5 31.5t26.5 30.5l225 253h48z" />
    <glyph glyph-name="Lacute" unicode="&#x139;" horiz-adv-x="510" 
d="M102 0v714h39v-678h348v-36h-387zM251 942q-17 -21 -41.5 -48.5t-52.5 -55t-53 -48.5h-29v7q21 20 46 47.5t47.5 55.5t36.5 50h46v-8z" />
    <glyph glyph-name="lacute" unicode="&#x13a;" horiz-adv-x="217" 
d="M128 0h-38v760h38v-760zM239 988q-17 -21 -41.5 -48.5t-52.5 -55t-53 -48.5h-29v7q21 20 46 47.5t47.5 55.5t36.5 50h46v-8z" />
    <glyph glyph-name="uni013B" unicode="&#x13b;" horiz-adv-x="510" 
d="M102 0v714h39v-678h348v-36h-387zM330 -68q-9 -36 -25 -77t-39 -76h-23v7q8 16 17.5 43.5t17.5 58t11 51.5h41v-7z" />
    <glyph glyph-name="uni013C" unicode="&#x13c;" horiz-adv-x="217" 
d="M128 0h-38v760h38v-760zM153 -68q-9 -36 -25 -77t-39 -76h-23v7q8 16 17.5 43.5t17.5 58t11 51.5h41v-7z" />
    <glyph glyph-name="Lcaron" unicode="&#x13d;" horiz-adv-x="510" 
d="M477 707q-9 -36 -25 -77t-37 -76h-23v7q7 16 16.5 44t17 58t10.5 51h41v-7zM102 0v714h39v-678h348v-36h-387z" />
    <glyph glyph-name="lcaron" unicode="&#x13e;" horiz-adv-x="217" 
d="M250 753q-8 -36 -24 -77t-37 -76h-24v7q8 16 17 44t16.5 58t10.5 51h41v-7zM128 0h-38v760h38v-760z" />
    <glyph glyph-name="Ldot" unicode="&#x13f;" horiz-adv-x="510" 
d="M102 0v714h39v-678h348v-36h-387zM362 422q19 0 25.5 -10t6.5 -26t-6.5 -26t-25.5 -10q-16 0 -23 10t-7 26t7 26t23 10z" />
    <glyph glyph-name="ldot" unicode="&#x140;" horiz-adv-x="219" 
d="M128 0h-38v760h38v-760zM218 424q19 0 25.5 -10t6.5 -26t-6.5 -26t-25.5 -10q-16 0 -23 10t-7 26t7 26t23 10z" />
    <glyph glyph-name="Lslash" unicode="&#x141;" horiz-adv-x="510" 
d="M102 0v276l-72 -46l-19 29l91 58v397h39v-373l164 104l19 -29l-183 -116v-264h348v-36h-387z" />
    <glyph glyph-name="lslash" unicode="&#x142;" horiz-adv-x="217" 
d="M91 0v328l-66 -45l-19 29l85 56v392h38v-368l78 52l17 -28l-95 -63v-353h-38z" />
    <glyph glyph-name="Nacute" unicode="&#x143;" horiz-adv-x="711" 
d="M608 0h-36l-433 642h-2q1 -41 1.5 -79.5t0.5 -81.5v-481h-37v714h37l431 -640h2q0 34 -1 77t-1 80v483h38v-714zM485 942q-17 -21 -41.5 -48.5t-52.5 -55t-53 -48.5h-29v7q21 20 46 47.5t47.5 55.5t36.5 50h46v-8z" />
    <glyph glyph-name="nacute" unicode="&#x144;" horiz-adv-x="582" 
d="M316 540q88 0 135.5 -47t47.5 -146v-347h-39v345q0 83 -38 121.5t-109 38.5q-87 0 -136 -51.5t-49 -156.5v-297h-39v530h31l6 -104h3q19 45 64.5 79.5t122.5 34.5zM422 758q-17 -21 -41.5 -48.5t-52.5 -55t-53 -48.5h-29v7q21 20 46 47.5t47.5 55.5t36.5 50h46v-8z" />
    <glyph glyph-name="uni0145" unicode="&#x145;" horiz-adv-x="711" 
d="M608 0h-36l-433 642h-2q1 -41 1.5 -79.5t0.5 -81.5v-481h-37v714h37l431 -640h2q0 34 -1 77t-1 80v483h38v-714zM399 -68q-9 -36 -25 -77t-39 -76h-23v7q8 16 17.5 43.5t17.5 58t11 51.5h41v-7z" />
    <glyph glyph-name="uni0146" unicode="&#x146;" horiz-adv-x="582" 
d="M316 540q88 0 135.5 -47t47.5 -146v-347h-39v345q0 83 -38 121.5t-109 38.5q-87 0 -136 -51.5t-49 -156.5v-297h-39v530h31l6 -104h3q19 45 64.5 79.5t122.5 34.5zM335 -68q-9 -36 -25 -77t-39 -76h-23v7q8 16 17.5 43.5t17.5 58t11 51.5h41v-7z" />
    <glyph glyph-name="Ncaron" unicode="&#x147;" horiz-adv-x="711" 
d="M608 0h-36l-433 642h-2q1 -41 1.5 -79.5t0.5 -81.5v-481h-37v714h37l431 -640h2q0 34 -1 77t-1 80v483h38v-714zM337 790q-12 21 -32.5 48.5t-43 54.5t-40.5 47v8h29q27 -26 55 -58t50 -61q22 29 50.5 61t55.5 58h29v-8q-18 -20 -41 -47t-43.5 -54.5t-32.5 -48.5h-36z
" />
    <glyph glyph-name="ncaron" unicode="&#x148;" horiz-adv-x="582" 
d="M316 540q88 0 135.5 -47t47.5 -146v-347h-39v345q0 83 -38 121.5t-109 38.5q-87 0 -136 -51.5t-49 -156.5v-297h-39v530h31l6 -104h3q19 45 64.5 79.5t122.5 34.5zM273 606q-12 21 -32.5 48.5t-43 54.5t-40.5 47v8h29q27 -26 55 -58t50 -61q22 29 50.5 61t55.5 58h29v-8
q-18 -20 -41 -47t-43.5 -54.5t-32.5 -48.5h-36z" />
    <glyph glyph-name="napostrophe" unicode="&#x149;" horiz-adv-x="601" 
d="M335 540q88 0 135.5 -47t47.5 -146v-347h-39v345q0 83 -38 121.5t-109 38.5q-87 0 -136 -51.5t-49 -156.5v-297h-39v530h31l6 -104h3q19 45 64.5 79.5t122.5 34.5zM102 705q-10 -60 -30.5 -122t-44.5 -114h-27q14 36 26.5 79t21.5 86.5t13 79.5h35z" />
    <glyph glyph-name="Eng" unicode="&#x14a;" horiz-adv-x="711" 
d="M451 -177q-23 0 -45 4t-34 9v35q16 -5 36.5 -8t41.5 -3q58 0 89 35t31 113l-431 634h-2q1 -40 1.5 -80.5t0.5 -82.5v-479h-37v714h37l431 -637h2q-1 37 -1.5 79.5t-0.5 81.5v476h38v-710q0 -87 -40.5 -134t-116.5 -47z" />
    <glyph glyph-name="eng" unicode="&#x14b;" horiz-adv-x="582" 
d="M386 -240q-20 0 -35.5 3t-27.5 7v36q15 -7 30 -9t31 -2q76 0 76 96v454q0 83 -38 121.5t-109 38.5q-86 0 -135.5 -51.5t-49.5 -156.5v-297h-39v530h31l6 -104h3q19 45 64 79.5t123 34.5q88 0 135.5 -47t47.5 -146v-459q0 -64 -32 -96t-81 -32z" />
    <glyph glyph-name="Omacron" unicode="&#x14c;" horiz-adv-x="759" 
d="M696 358q0 -108 -35 -191t-105.5 -130t-176.5 -47q-105 0 -175.5 47t-105.5 130t-35 192q0 108 36.5 190.5t108.5 129t176 46.5q150 0 231 -97.5t81 -269.5zM103 359q0 -98 30 -173t91.5 -117.5t155.5 -42.5t155 42t90.5 116.5t29.5 173.5q0 157 -69.5 244t-201.5 87
q-95 0 -157 -42t-93 -116.5t-31 -171.5zM512 830v-34h-264v34h264z" />
    <glyph glyph-name="omacron" unicode="&#x14d;" horiz-adv-x="581" 
d="M522 265q0 -80 -25.5 -142t-77.5 -97.5t-130 -35.5q-75 0 -126.5 35t-78 97t-26.5 143q0 127 62.5 201t173.5 74q79 0 129 -36t74.5 -98t24.5 -141zM98 265q0 -107 47 -173.5t144 -66.5q67 0 110 30.5t63 84.5t20 125q0 68 -19 122t-60.5 86t-108.5 32
q-95 0 -145.5 -63.5t-50.5 -176.5zM424 646v-34h-264v34h264z" />
    <glyph glyph-name="Obreve" unicode="&#x14e;" horiz-adv-x="759" 
d="M696 358q0 -108 -35 -191t-105.5 -130t-176.5 -47q-105 0 -175.5 47t-105.5 130t-35 192q0 108 36.5 190.5t108.5 129t176 46.5q150 0 231 -97.5t81 -269.5zM103 359q0 -98 30 -173t91.5 -117.5t155.5 -42.5t155 42t90.5 116.5t29.5 173.5q0 157 -69.5 244t-201.5 87
q-95 0 -157 -42t-93 -116.5t-31 -171.5zM509 906q-6 -55 -39 -85.5t-91 -30.5t-91 30t-37 86h31q8 -82 98 -82q46 0 70 21.5t28 60.5h31z" />
    <glyph glyph-name="obreve" unicode="&#x14f;" horiz-adv-x="581" 
d="M522 265q0 -80 -25.5 -142t-77.5 -97.5t-130 -35.5q-75 0 -126.5 35t-78 97t-26.5 143q0 127 62.5 201t173.5 74q79 0 129 -36t74.5 -98t24.5 -141zM98 265q0 -107 47 -173.5t144 -66.5q67 0 110 30.5t63 84.5t20 125q0 68 -19 122t-60.5 86t-108.5 32
q-95 0 -145.5 -63.5t-50.5 -176.5zM420 722q-6 -55 -39 -85.5t-91 -30.5t-91 30t-37 86h31q8 -82 98 -82q46 0 70 21.5t28 60.5h31z" />
    <glyph glyph-name="Ohungarumlaut" unicode="&#x150;" horiz-adv-x="759" 
d="M696 358q0 -108 -35 -191t-105.5 -130t-176.5 -47q-105 0 -175.5 47t-105.5 130t-35 192q0 108 36.5 190.5t108.5 129t176 46.5q150 0 231 -97.5t81 -269.5zM103 359q0 -98 30 -173t91.5 -117.5t155.5 -42.5t155 42t90.5 116.5t29.5 173.5q0 157 -69.5 244t-201.5 87
q-95 0 -157 -42t-93 -116.5t-31 -171.5zM535 942q-13 -22 -33.5 -49.5t-43.5 -54.5t-44 -48h-27v7q17 20 37 47t38 55.5t30 50.5h43v-8zM372 942q-14 -22 -34 -49.5t-43 -54.5t-44 -48h-27v7q17 20 37 47t38 55.5t30 50.5h43v-8z" />
    <glyph glyph-name="ohungarumlaut" unicode="&#x151;" horiz-adv-x="581" 
d="M522 265q0 -80 -25.5 -142t-77.5 -97.5t-130 -35.5q-75 0 -126.5 35t-78 97t-26.5 143q0 127 62.5 201t173.5 74q79 0 129 -36t74.5 -98t24.5 -141zM98 265q0 -107 47 -173.5t144 -66.5q67 0 110 30.5t63 84.5t20 125q0 68 -19 122t-60.5 86t-108.5 32
q-95 0 -145.5 -63.5t-50.5 -176.5zM446 758q-13 -22 -33.5 -49.5t-43.5 -54.5t-44 -48h-27v7q17 20 37 47t38 55.5t30 50.5h43v-8zM283 758q-14 -22 -34 -49.5t-43 -54.5t-44 -48h-27v7q17 20 37 47t38 55.5t30 50.5h43v-8z" />
    <glyph glyph-name="OE" unicode="&#x152;" horiz-adv-x="905" 
d="M380 719q25 0 44.5 -1.5t44.5 -3.5h374v-36h-344v-284h325v-36h-325v-322h344v-36h-380q-18 -2 -38.5 -3t-45.5 -1q-105 0 -175.5 45.5t-105.5 127t-35 190.5q0 108 36.5 189t107.5 126t173 45zM382 683q-94 0 -156 -41t-92.5 -113.5t-30.5 -169.5q0 -99 30 -172.5
t91.5 -114.5t154.5 -41q53 0 81 7v638q-13 2 -33 4.5t-45 2.5z" />
    <glyph glyph-name="oe" unicode="&#x153;" horiz-adv-x="963" 
d="M706 539q68 0 111.5 -32t65 -87.5t21.5 -125.5v-31h-386q-1 -116 51 -177t149 -61q49 0 84.5 7.5t80.5 28.5v-38q-39 -17 -77.5 -25t-87.5 -8q-91 0 -144.5 44t-74.5 117q-21 -72 -73 -116.5t-138 -44.5q-75 0 -126 35t-77.5 97t-26.5 143q0 127 62 200.5t173 73.5
q87 0 137.5 -45.5t69.5 -118.5q21 72 72 118t134 46zM706 505q-79 0 -128.5 -53t-58.5 -155h344q1 93 -38 150.5t-119 57.5zM293 505q-95 0 -145 -63t-50 -177q0 -108 46.5 -174t143.5 -66q100 0 146 66t46 173q0 69 -19 123.5t-60.5 86t-107.5 31.5z" />
    <glyph glyph-name="Racute" unicode="&#x154;" horiz-adv-x="586" 
d="M269 714q125 0 190 -41.5t65 -150.5q0 -81 -43 -128.5t-115 -67.5l196 -326h-47l-188 315h-186v-315h-39v714h167zM264 678h-123v-328h151q87 0 139 44.5t52 126.5q0 90 -54 123.5t-165 33.5zM424 942q-17 -21 -41.5 -48.5t-52.5 -55t-53 -48.5h-29v7q21 20 46 47.5
t47.5 55.5t36.5 50h46v-8z" />
    <glyph glyph-name="racute" unicode="&#x155;" horiz-adv-x="383" 
d="M290 538q22 0 41 -2.5t36 -7.5l-7 -36q-18 5 -34.5 7.5t-37.5 2.5q-79 0 -119.5 -56t-40.5 -151v-295h-38v530h34l3 -101h3q16 46 56.5 77.5t103.5 31.5zM329 758q-17 -21 -41.5 -48.5t-52.5 -55t-53 -48.5h-29v7q21 20 46 47.5t47.5 55.5t36.5 50h46v-8z" />
    <glyph glyph-name="uni0156" unicode="&#x156;" horiz-adv-x="586" 
d="M269 714q125 0 190 -41.5t65 -150.5q0 -81 -43 -128.5t-115 -67.5l196 -326h-47l-188 315h-186v-315h-39v714h167zM264 678h-123v-328h151q87 0 139 44.5t52 126.5q0 90 -54 123.5t-165 33.5zM347 -68q-9 -36 -25 -77t-39 -76h-23v7q8 16 17.5 43.5t17.5 58t11 51.5h41
v-7z" />
    <glyph glyph-name="uni0157" unicode="&#x157;" horiz-adv-x="383" 
d="M290 538q22 0 41 -2.5t36 -7.5l-7 -36q-18 5 -34.5 7.5t-37.5 2.5q-79 0 -119.5 -56t-40.5 -151v-295h-38v530h34l3 -101h3q16 46 56.5 77.5t103.5 31.5zM152 -68q-9 -36 -25 -77t-39 -76h-23v7q8 16 17.5 43.5t17.5 58t11 51.5h41v-7z" />
    <glyph glyph-name="Rcaron" unicode="&#x158;" horiz-adv-x="586" 
d="M269 714q125 0 190 -41.5t65 -150.5q0 -81 -43 -128.5t-115 -67.5l196 -326h-47l-188 315h-186v-315h-39v714h167zM264 678h-123v-328h151q87 0 139 44.5t52 126.5q0 90 -54 123.5t-165 33.5zM275 790q-12 21 -32.5 48.5t-43 54.5t-40.5 47v8h29q27 -26 55 -58t50 -61
q22 29 50.5 61t55.5 58h29v-8q-18 -20 -41 -47t-43.5 -54.5t-32.5 -48.5h-36z" />
    <glyph glyph-name="rcaron" unicode="&#x159;" horiz-adv-x="383" 
d="M290 538q22 0 41 -2.5t36 -7.5l-7 -36q-18 5 -34.5 7.5t-37.5 2.5q-79 0 -119.5 -56t-40.5 -151v-295h-38v530h34l3 -101h3q16 46 56.5 77.5t103.5 31.5zM180 606q-12 21 -32.5 48.5t-43 54.5t-40.5 47v8h29q27 -26 55 -58t50 -61q22 29 50.5 61t55.5 58h29v-8
q-18 -20 -41 -47t-43.5 -54.5t-32.5 -48.5h-36z" />
    <glyph glyph-name="Sacute" unicode="&#x15a;" horiz-adv-x="544" 
d="M492 182q0 -64 -32.5 -106.5t-87.5 -64t-123 -21.5q-67 0 -112.5 9t-81.5 21v41q39 -15 88 -25t109 -10q56 0 101 16.5t72 51t27 87.5q0 47 -22.5 76t-65.5 49.5t-105 41.5q-58 19 -102.5 42t-69 59t-24.5 95t30.5 99t81.5 60.5t115 20.5q99 0 184 -38l-15 -34
q-44 20 -86.5 28t-84.5 8q-51 0 -93 -15.5t-67 -47t-25 -80.5q0 -51 23 -81t63.5 -48.5t93.5 -36.5q63 -20 110 -43.5t73 -59t26 -94.5zM405 942q-17 -21 -41.5 -48.5t-52.5 -55t-53 -48.5h-29v7q21 20 46 47.5t47.5 55.5t36.5 50h46v-8z" />
    <glyph glyph-name="sacute" unicode="&#x15b;" horiz-adv-x="462" 
d="M416 137q0 -69 -51.5 -108t-150.5 -39q-55 0 -99 10t-73 24v40q38 -19 82 -29.5t91 -10.5q86 0 124 30t38 81q0 35 -19.5 57t-54.5 37t-80 29q-48 16 -86 31.5t-60 42t-22 74.5q0 63 50.5 98.5t135.5 35.5q47 0 88 -9t74 -23l-15 -34q-29 14 -69 22.5t-79 8.5
q-69 0 -107.5 -24.5t-38.5 -73.5q0 -37 19 -57t52 -32.5t76 -27.5q46 -15 85.5 -31.5t64.5 -44.5t25 -77zM361 758q-17 -21 -41.5 -48.5t-52.5 -55t-53 -48.5h-29v7q21 20 46 47.5t47.5 55.5t36.5 50h46v-8z" />
    <glyph glyph-name="Scircumflex" unicode="&#x15c;" horiz-adv-x="544" 
d="M492 182q0 -64 -32.5 -106.5t-87.5 -64t-123 -21.5q-67 0 -112.5 9t-81.5 21v41q39 -15 88 -25t109 -10q56 0 101 16.5t72 51t27 87.5q0 47 -22.5 76t-65.5 49.5t-105 41.5q-58 19 -102.5 42t-69 59t-24.5 95t30.5 99t81.5 60.5t115 20.5q99 0 184 -38l-15 -34
q-44 20 -86.5 28t-84.5 8q-51 0 -93 -15.5t-67 -47t-25 -80.5q0 -51 23 -81t63.5 -48.5t93.5 -36.5q63 -20 110 -43.5t73 -59t26 -94.5zM293 948q12 -21 32.5 -48.5t43 -55t40.5 -47.5v-7h-29q-27 25 -55 57.5t-50 60.5q-22 -28 -50.5 -60.5t-55.5 -57.5h-29v7
q19 20 41.5 47.5t43 55t32.5 48.5h36z" />
    <glyph glyph-name="scircumflex" unicode="&#x15d;" horiz-adv-x="462" 
d="M416 137q0 -69 -51.5 -108t-150.5 -39q-55 0 -99 10t-73 24v40q38 -19 82 -29.5t91 -10.5q86 0 124 30t38 81q0 35 -19.5 57t-54.5 37t-80 29q-48 16 -86 31.5t-60 42t-22 74.5q0 63 50.5 98.5t135.5 35.5q47 0 88 -9t74 -23l-15 -34q-29 14 -69 22.5t-79 8.5
q-69 0 -107.5 -24.5t-38.5 -73.5q0 -37 19 -57t52 -32.5t76 -27.5q46 -15 85.5 -31.5t64.5 -44.5t25 -77zM250 764q12 -21 32.5 -48.5t43 -55t40.5 -47.5v-7h-29q-27 25 -55 57.5t-50 60.5q-22 -28 -50.5 -60.5t-55.5 -57.5h-29v7q19 20 41.5 47.5t43 55t32.5 48.5h36z" />
    <glyph glyph-name="Scedilla" unicode="&#x15e;" horiz-adv-x="544" 
d="M492 182q0 -64 -32.5 -106.5t-87.5 -64t-123 -21.5q-67 0 -112.5 9t-81.5 21v41q39 -15 88 -25t109 -10q56 0 101 16.5t72 51t27 87.5q0 47 -22.5 76t-65.5 49.5t-105 41.5q-58 19 -102.5 42t-69 59t-24.5 95t30.5 99t81.5 60.5t115 20.5q99 0 184 -38l-15 -34
q-44 20 -86.5 28t-84.5 8q-51 0 -93 -15.5t-67 -47t-25 -80.5q0 -51 23 -81t63.5 -48.5t93.5 -36.5q63 -20 110 -43.5t73 -59t26 -94.5zM357 -144q0 -44 -33.5 -70t-87.5 -26q-34 0 -55 6v30q12 -3 25 -4.5t31 -1.5q38 0 61.5 16.5t23.5 48.5q0 58 -100 60l43 85h32l-31 -63
q41 -3 66 -23.5t25 -57.5z" />
    <glyph glyph-name="scedilla" unicode="&#x15f;" horiz-adv-x="462" 
d="M416 137q0 -69 -51.5 -108t-150.5 -39q-55 0 -99 10t-73 24v40q38 -19 82 -29.5t91 -10.5q86 0 124 30t38 81q0 35 -19.5 57t-54.5 37t-80 29q-48 16 -86 31.5t-60 42t-22 74.5q0 63 50.5 98.5t135.5 35.5q47 0 88 -9t74 -23l-15 -34q-29 14 -69 22.5t-79 8.5
q-69 0 -107.5 -24.5t-38.5 -73.5q0 -37 19 -57t52 -32.5t76 -27.5q46 -15 85.5 -31.5t64.5 -44.5t25 -77zM320 -144q0 -44 -33.5 -70t-87.5 -26q-34 0 -55 6v30q12 -3 25 -4.5t31 -1.5q38 0 61.5 16.5t23.5 48.5q0 58 -100 60l43 85h32l-31 -63q41 -3 66 -23.5t25 -57.5z
" />
    <glyph glyph-name="Scaron" unicode="&#x160;" horiz-adv-x="544" 
d="M492 182q0 -64 -32.5 -106.5t-87.5 -64t-123 -21.5q-67 0 -112.5 9t-81.5 21v41q39 -15 88 -25t109 -10q56 0 101 16.5t72 51t27 87.5q0 47 -22.5 76t-65.5 49.5t-105 41.5q-58 19 -102.5 42t-69 59t-24.5 95t30.5 99t81.5 60.5t115 20.5q99 0 184 -38l-15 -34
q-44 20 -86.5 28t-84.5 8q-51 0 -93 -15.5t-67 -47t-25 -80.5q0 -51 23 -81t63.5 -48.5t93.5 -36.5q63 -20 110 -43.5t73 -59t26 -94.5zM256 790q-12 21 -32.5 48.5t-43 54.5t-40.5 47v8h29q27 -26 55 -58t50 -61q22 29 50.5 61t55.5 58h29v-8q-18 -20 -41 -47t-43.5 -54.5
t-32.5 -48.5h-36z" />
    <glyph glyph-name="scaron" unicode="&#x161;" horiz-adv-x="462" 
d="M416 137q0 -69 -51.5 -108t-150.5 -39q-55 0 -99 10t-73 24v40q38 -19 82 -29.5t91 -10.5q86 0 124 30t38 81q0 35 -19.5 57t-54.5 37t-80 29q-48 16 -86 31.5t-60 42t-22 74.5q0 63 50.5 98.5t135.5 35.5q47 0 88 -9t74 -23l-15 -34q-29 14 -69 22.5t-79 8.5
q-69 0 -107.5 -24.5t-38.5 -73.5q0 -37 19 -57t52 -32.5t76 -27.5q46 -15 85.5 -31.5t64.5 -44.5t25 -77zM213 606q-12 21 -32.5 48.5t-43 54.5t-40.5 47v8h29q27 -26 55 -58t50 -61q22 29 50.5 61t55.5 58h29v-8q-18 -20 -41 -47t-43.5 -54.5t-32.5 -48.5h-36z" />
    <glyph glyph-name="uni0162" unicode="&#x162;" horiz-adv-x="515" 
d="M277 0h-39v678h-234v36h508v-36h-235v-678zM336 -144q0 -44 -33.5 -70t-87.5 -26q-34 0 -55 6v30q12 -3 25 -4.5t31 -1.5q38 0 61.5 16.5t23.5 48.5q0 58 -100 60l43 85h32l-31 -63q41 -3 66 -23.5t25 -57.5z" />
    <glyph glyph-name="uni0163" unicode="&#x163;" horiz-adv-x="328" 
d="M223 25q23 0 42.5 3t35.5 9v-33q-16 -6 -36 -10t-45 -4q-69 0 -99 39t-30 114v353h-80v26l80 9l12 128h27v-129h168v-34h-168v-350q0 -59 20.5 -90t72.5 -31zM275 -144q0 -44 -33.5 -70t-87.5 -26q-34 0 -55 6v30q12 -3 25 -4.5t31 -1.5q38 0 61.5 16.5t23.5 48.5
q0 58 -100 60l43 85h32l-31 -63q41 -3 66 -23.5t25 -57.5z" />
    <glyph glyph-name="Tcaron" unicode="&#x164;" horiz-adv-x="515" 
d="M277 0h-39v678h-234v36h508v-36h-235v-678zM239 790q-12 21 -32.5 48.5t-43 54.5t-40.5 47v8h29q27 -26 55 -58t50 -61q22 29 50.5 61t55.5 58h29v-8q-18 -20 -41 -47t-43.5 -54.5t-32.5 -48.5h-36z" />
    <glyph glyph-name="tcaron" unicode="&#x165;" horiz-adv-x="328" 
d="M387 753q-8 -36 -24 -77t-38 -76h-23v7q8 16 17 44t16.5 58t10.5 51h41v-7zM223 25q23 0 42.5 3t35.5 9v-33q-16 -6 -36 -10t-45 -4q-69 0 -99 39t-30 114v353h-80v26l80 9l12 128h27v-129h168v-34h-168v-350q0 -59 20.5 -90t72.5 -31z" />
    <glyph glyph-name="Tbar" unicode="&#x166;" horiz-adv-x="515" 
d="M238 0v349h-182v35h182v294h-234v36h508v-36h-235v-294h180v-35h-180v-349h-39z" />
    <glyph glyph-name="tbar" unicode="&#x167;" horiz-adv-x="328" 
d="M223 25q23 0 42.5 3t35.5 9v-33q-16 -6 -36 -10t-45 -4q-69 0 -99 39t-30 114v141h-72v33h72v179h-80v26l80 9l12 128h27v-129h168v-34h-168v-179h151v-33h-151v-138q0 -59 20.5 -90t72.5 -31z" />
    <glyph glyph-name="Utilde" unicode="&#x168;" horiz-adv-x="716" 
d="M622 252q0 -129 -72 -195.5t-194 -66.5q-125 0 -193.5 68t-68.5 196v460h39v-459q0 -113 58.5 -171t166.5 -58q105 0 165.5 56t60.5 164v468h38v-462zM192 800q4 51 28.5 77.5t64.5 26.5q24 0 43 -11t35.5 -25t33 -25t35.5 -11q23 0 40.5 14.5t22.5 57.5h31
q-5 -51 -30.5 -78t-64.5 -27q-25 0 -43.5 11t-34.5 25t-32.5 24.5t-37.5 10.5t-38.5 -14.5t-22.5 -55.5h-30z" />
    <glyph glyph-name="utilde" unicode="&#x169;" horiz-adv-x="582" 
d="M492 530v-530h-32l-6 103h-2q-19 -45 -64.5 -79t-123.5 -34q-183 0 -183 193v347h39v-343q0 -84 38 -123t109 -39q87 0 136.5 51t49.5 156v298h39zM125 616q4 51 28.5 77.5t64.5 26.5q24 0 43 -11t35.5 -25t33 -25t35.5 -11q23 0 40.5 14.5t22.5 57.5h31
q-5 -51 -30.5 -78t-64.5 -27q-25 0 -43.5 11t-34.5 25t-32.5 24.5t-37.5 10.5t-38.5 -14.5t-22.5 -55.5h-30z" />
    <glyph glyph-name="Umacron" unicode="&#x16a;" horiz-adv-x="716" 
d="M622 252q0 -129 -72 -195.5t-194 -66.5q-125 0 -193.5 68t-68.5 196v460h39v-459q0 -113 58.5 -171t166.5 -58q105 0 165.5 56t60.5 164v468h38v-462zM491 830v-34h-264v34h264z" />
    <glyph glyph-name="umacron" unicode="&#x16b;" horiz-adv-x="582" 
d="M492 530v-530h-32l-6 103h-2q-19 -45 -64.5 -79t-123.5 -34q-183 0 -183 193v347h39v-343q0 -84 38 -123t109 -39q87 0 136.5 51t49.5 156v298h39zM424 646v-34h-264v34h264z" />
    <glyph glyph-name="Ubreve" unicode="&#x16c;" horiz-adv-x="716" 
d="M622 252q0 -129 -72 -195.5t-194 -66.5q-125 0 -193.5 68t-68.5 196v460h39v-459q0 -113 58.5 -171t166.5 -58q105 0 165.5 56t60.5 164v468h38v-462zM487 906q-6 -55 -39 -85.5t-91 -30.5t-91 30t-37 86h31q8 -82 98 -82q46 0 70 21.5t28 60.5h31z" />
    <glyph glyph-name="ubreve" unicode="&#x16d;" horiz-adv-x="582" 
d="M492 530v-530h-32l-6 103h-2q-19 -45 -64.5 -79t-123.5 -34q-183 0 -183 193v347h39v-343q0 -84 38 -123t109 -39q87 0 136.5 51t49.5 156v298h39zM421 722q-6 -55 -39 -85.5t-91 -30.5t-91 30t-37 86h31q8 -82 98 -82q46 0 70 21.5t28 60.5h31z" />
    <glyph glyph-name="Uring" unicode="&#x16e;" horiz-adv-x="716" 
d="M622 252q0 -129 -72 -195.5t-194 -66.5q-125 0 -193.5 68t-68.5 196v460h39v-459q0 -113 58.5 -171t166.5 -58q105 0 165.5 56t60.5 164v468h38v-462zM358 794q-43 0 -73 27.5t-30 73.5q0 44 30 72.5t73 28.5q42 0 72 -29t30 -72q0 -45 -30 -73t-72 -28zM358 823
q32 0 52 21t20 51q0 31 -21.5 51.5t-50.5 20.5q-32 0 -52.5 -20.5t-20.5 -51.5q0 -30 20 -51t53 -21z" />
    <glyph glyph-name="uring" unicode="&#x16f;" horiz-adv-x="582" 
d="M492 530v-530h-32l-6 103h-2q-19 -45 -64.5 -79t-123.5 -34q-183 0 -183 193v347h39v-343q0 -84 38 -123t109 -39q87 0 136.5 51t49.5 156v298h39zM292 610q-43 0 -73 27.5t-30 73.5q0 44 30 72.5t73 28.5q42 0 72 -29t30 -72q0 -45 -30 -73t-72 -28zM292 639q32 0 52 21
t20 51q0 31 -21.5 51.5t-50.5 20.5q-32 0 -52.5 -20.5t-20.5 -51.5q0 -30 20 -51t53 -21z" />
    <glyph glyph-name="Uhungarumlaut" unicode="&#x170;" horiz-adv-x="716" 
d="M622 252q0 -129 -72 -195.5t-194 -66.5q-125 0 -193.5 68t-68.5 196v460h39v-459q0 -113 58.5 -171t166.5 -58q105 0 165.5 56t60.5 164v468h38v-462zM513 942q-13 -22 -33.5 -49.5t-43.5 -54.5t-44 -48h-27v7q17 20 37 47t38 55.5t30 50.5h43v-8zM350 942
q-14 -22 -34 -49.5t-43 -54.5t-44 -48h-27v7q17 20 37 47t38 55.5t30 50.5h43v-8z" />
    <glyph glyph-name="uhungarumlaut" unicode="&#x171;" horiz-adv-x="582" 
d="M492 530v-530h-32l-6 103h-2q-19 -45 -64.5 -79t-123.5 -34q-183 0 -183 193v347h39v-343q0 -84 38 -123t109 -39q87 0 136.5 51t49.5 156v298h39zM446 758q-13 -22 -33.5 -49.5t-43.5 -54.5t-44 -48h-27v7q17 20 37 47t38 55.5t30 50.5h43v-8zM283 758
q-14 -22 -34 -49.5t-43 -54.5t-44 -48h-27v7q17 20 37 47t38 55.5t30 50.5h43v-8z" />
    <glyph glyph-name="Uogonek" unicode="&#x172;" horiz-adv-x="716" 
d="M438 -119q0 -35 14 -51t41 -16q15 0 27.5 2t20.5 5v-30q-9 -4 -22 -6.5t-30 -2.5q-38 0 -61.5 22.5t-23.5 71.5q0 36 16 68.5t42 60.5q-47 -15 -106 -15q-125 0 -193.5 68t-68.5 196v460h39v-459q0 -113 58.5 -171t166.5 -58q105 0 165.5 56t60.5 164v468h38v-462
q0 -77 -26.5 -132t-74.5 -87q-29 -30 -56 -68t-27 -84z" />
    <glyph glyph-name="uogonek" unicode="&#x173;" horiz-adv-x="582" 
d="M492 530v-530h-32l-6 103h-2q-19 -45 -64.5 -79t-123.5 -34q-183 0 -183 193v347h39v-343q0 -84 38 -123t109 -39q87 0 136.5 51t49.5 156v298h39zM401 -128q0 -58 56 -58q14 0 26.5 2t21.5 5v-30q-10 -4 -23 -6.5t-30 -2.5q-38 0 -62 21.5t-24 63.5q0 37 25 73t73 72
l24 -12q-34 -28 -60.5 -59.5t-26.5 -68.5z" />
    <glyph glyph-name="Wcircumflex" unicode="&#x174;" horiz-adv-x="881" 
d="M855 714l-197 -714h-37l-157 559q-8 31 -15 54.5t-12 48.5q-4 -23 -8.5 -43t-11.5 -43l-157 -576h-37l-194 714h40l141 -522q10 -39 18 -68.5t14 -60.5q7 31 14.5 61.5t18.5 69.5l144 520h39l148 -523q12 -41 19.5 -70.5t13.5 -60.5q6 32 12.5 61t17.5 70l145 523h41z
M459 948q12 -21 32.5 -48.5t43 -55t40.5 -47.5v-7h-29q-27 25 -55 57.5t-50 60.5q-22 -28 -50.5 -60.5t-55.5 -57.5h-29v7q19 20 41.5 47.5t43 55t32.5 48.5h36z" />
    <glyph glyph-name="wcircumflex" unicode="&#x175;" horiz-adv-x="706" 
d="M390 371q-9 29 -16 53t-14 50h-3q-6 -26 -13.5 -51t-16.5 -52l-122 -372h-38l-152 530h42l98 -354q13 -45 19.5 -72.5t11.5 -51.5h3q6 24 13 51t21 70l119 357h36l114 -356q11 -38 20 -67.5t14 -54.5h3q3 24 10 52.5t18 71.5l95 354h39l-143 -530h-39zM371 764
q12 -21 32.5 -48.5t43 -55t40.5 -47.5v-7h-29q-27 25 -55 57.5t-50 60.5q-22 -28 -50.5 -60.5t-55.5 -57.5h-29v7q19 20 41.5 47.5t43 55t32.5 48.5h36z" />
    <glyph glyph-name="Ycircumflex" unicode="&#x176;" horiz-adv-x="517" 
d="M259 314l215 400h43l-238 -439v-275h-39v271l-240 443h44zM277 948q12 -21 32.5 -48.5t43 -55t40.5 -47.5v-7h-29q-27 25 -55 57.5t-50 60.5q-22 -28 -50.5 -60.5t-55.5 -57.5h-29v7q19 20 41.5 47.5t43 55t32.5 48.5h36z" />
    <glyph glyph-name="ycircumflex" unicode="&#x177;" horiz-adv-x="445" 
d="M0 530h41l133 -346q17 -46 29 -80t20 -57h2q7 22 19 56t29 78l132 349h41l-245 -637q-26 -67 -58.5 -101t-87.5 -34q-30 0 -58 9v35q14 -4 26.5 -7t28.5 -3q40 0 65.5 26t48.5 86l38 100zM241 764q12 -21 32.5 -48.5t43 -55t40.5 -47.5v-7h-29q-27 25 -55 57.5t-50 60.5
q-22 -28 -50.5 -60.5t-55.5 -57.5h-29v7q19 20 41.5 47.5t43 55t32.5 48.5h36z" />
    <glyph glyph-name="Ydieresis" unicode="&#x178;" horiz-adv-x="517" 
d="M259 314l215 400h43l-238 -439v-275h-39v271l-240 443h44zM138 863q0 15 6.5 24.5t21.5 9.5q17 0 23 -9.5t6 -24.5q0 -16 -6 -25.5t-23 -9.5q-15 0 -21.5 9.5t-6.5 25.5zM323 863q0 15 6.5 24.5t21.5 9.5q17 0 23 -9.5t6 -24.5q0 -16 -6 -25.5t-23 -9.5q-15 0 -21.5 9.5
t-6.5 25.5z" />
    <glyph glyph-name="Zacute" unicode="&#x179;" horiz-adv-x="577" 
d="M537 0h-501v28l438 650h-413v36h464v-28l-437 -650h449v-36zM419 942q-17 -21 -41.5 -48.5t-52.5 -55t-53 -48.5h-29v7q21 20 46 47.5t47.5 55.5t36.5 50h46v-8z" />
    <glyph glyph-name="zacute" unicode="&#x17a;" horiz-adv-x="459" 
d="M416 0h-375v25l326 471h-301v34h351v-26l-327 -470h326v-34zM360 758q-17 -21 -41.5 -48.5t-52.5 -55t-53 -48.5h-29v7q21 20 46 47.5t47.5 55.5t36.5 50h46v-8z" />
    <glyph glyph-name="Zdotaccent" unicode="&#x17b;" horiz-adv-x="577" 
d="M537 0h-501v28l438 650h-413v36h464v-28l-437 -650h449v-36zM288 908q19 0 25.5 -10t6.5 -26t-6.5 -26t-25.5 -10q-16 0 -23 10t-7 26t7 26t23 10z" />
    <glyph glyph-name="zdotaccent" unicode="&#x17c;" horiz-adv-x="459" 
d="M416 0h-375v25l326 471h-301v34h351v-26l-327 -470h326v-34zM228 724q19 0 25.5 -10t6.5 -26t-6.5 -26t-25.5 -10q-16 0 -23 10t-7 26t7 26t23 10z" />
    <glyph glyph-name="Zcaron" unicode="&#x17d;" horiz-adv-x="577" 
d="M537 0h-501v28l438 650h-413v36h464v-28l-437 -650h449v-36zM270 790q-12 21 -32.5 48.5t-43 54.5t-40.5 47v8h29q27 -26 55 -58t50 -61q22 29 50.5 61t55.5 58h29v-8q-18 -20 -41 -47t-43.5 -54.5t-32.5 -48.5h-36z" />
    <glyph glyph-name="zcaron" unicode="&#x17e;" horiz-adv-x="459" 
d="M416 0h-375v25l326 471h-301v34h351v-26l-327 -470h326v-34zM211 606q-12 21 -32.5 48.5t-43 54.5t-40.5 47v8h29q27 -26 55 -58t50 -61q22 29 50.5 61t55.5 58h29v-8q-18 -20 -41 -47t-43.5 -54.5t-32.5 -48.5h-36z" />
    <glyph glyph-name="longs" unicode="&#x17f;" horiz-adv-x="301" 
d="M244 730q-116 0 -116 -149v-581h-38v583q0 86 40 134t114 48q22 0 40.5 -3t36.5 -8l-7 -35q-16 5 -32 8t-38 3z" />
    <glyph glyph-name="uni0180" unicode="&#x180;" horiz-adv-x="590" 
d="M304 -10q-70 0 -113.5 30.5t-62.5 76.5h-3l-6 -97h-31v625h-74v33h74v102h39v-102h236v-33h-236v-90q0 -26 -1 -60t-2 -57h3q18 53 67.5 87.5t122.5 34.5q104 0 159 -69.5t55 -204.5q0 -79 -24.5 -141.5t-75 -98.5t-127.5 -36zM301 25q94 0 142 63t48 179q0 238 -177 238
q-97 0 -142 -63t-45 -177v-9q0 -113 42 -172t132 -59z" />
    <glyph glyph-name="uni0181" unicode="&#x181;" horiz-adv-x="696" 
d="M177 0v678h-26q-55 0 -80 -24.5t-25 -66.5q0 -16 3.5 -31.5t6.5 -22.5h-37q-9 22 -9 57q0 54 34.5 89t104.5 35h222q131 0 190.5 -42t59.5 -131q0 -61 -36 -106.5t-104 -57.5v-2q84 -13 121.5 -57t37.5 -115q0 -72 -32.5 -116.5t-89.5 -65.5t-131 -21h-210zM381 392
q103 0 151.5 37t48.5 109q0 75 -50.5 107.5t-161.5 32.5h-153v-286h165zM390 35q101 0 155 41.5t54 127.5q0 85 -56.5 119t-162.5 34h-164v-322h174z" />
    <glyph glyph-name="uni0182" unicode="&#x182;" horiz-adv-x="590" 
d="M102 0v714h392v-36h-353v-281h141q118 0 179.5 -44t61.5 -149q0 -204 -230 -204h-191zM286 36q101 0 148.5 40t47.5 128q0 62 -24 96t-70.5 47.5t-111.5 13.5h-135v-325h145z" />
    <glyph glyph-name="uni0183" unicode="&#x183;" horiz-adv-x="590" 
d="M304 -10q-70 0 -113.5 30.5t-62.5 76.5h-3l-6 -97h-31v760h385v-35h-346v-190q0 -26 -1 -60t-2 -57h3q18 53 67.5 87.5t122.5 34.5q104 0 159 -69.5t55 -204.5q0 -79 -24.5 -141.5t-75 -98.5t-127.5 -36zM301 25q94 0 142 63t48 179q0 238 -177 238q-97 0 -142 -63
t-45 -177v-9q0 -113 42 -172t132 -59z" />
    <glyph glyph-name="uni0184" unicode="&#x184;" horiz-adv-x="590" 
d="M320 -2q-114 0 -167 60.5t-53 173.5v482h39v-317h147q116 0 178.5 -45t62.5 -149q0 -92 -53 -148.5t-154 -56.5zM321 34q79 0 122 45t43 124q0 91 -53.5 124.5t-152.5 33.5h-141v-122q0 -106 44.5 -155.5t137.5 -49.5z" />
    <glyph glyph-name="uni0185" unicode="&#x185;" horiz-adv-x="589" 
d="M308 -10q-105 0 -162.5 67t-57.5 198v505h38v-225q0 -26 -1 -60t-1 -57h2q17 50 66 86t124 36q104 0 159.5 -69.5t55.5 -204.5q0 -79 -23.5 -141.5t-73 -98.5t-126.5 -36zM308 25q92 0 137.5 63t45.5 179q0 238 -178 238q-97 0 -142 -63t-45 -177v-10q0 -113 46.5 -171.5
t135.5 -58.5z" />
    <glyph glyph-name="uni0186" unicode="&#x186;" horiz-adv-x="618" 
d="M214 -10q-57 0 -99 8t-76 21v36q37 -13 78.5 -21t94.5 -8q98 0 165.5 44.5t102 122.5t34.5 179q0 96 -30 167t-92 110t-157 39q-45 0 -93.5 -10.5t-88.5 -31.5l-16 35q40 19 92 31t110 12q108 0 178 -44t104 -123t34 -185q0 -109 -39 -195.5t-115 -136.5t-187 -50z" />
    <glyph glyph-name="uni0187" unicode="&#x187;" horiz-adv-x="618" 
d="M642 858q20 0 34.5 -3.5t22.5 -6.5v-35q-8 3 -22 7t-31 4q-29 0 -44.5 -17t-15.5 -54v-67l-15 -35q-41 21 -82.5 29t-83.5 8q-96 0 -163.5 -42t-103 -116.5t-35.5 -170.5q0 -100 32 -175t95.5 -116.5t158.5 -41.5q56 0 100.5 8t81.5 21v-34q-35 -14 -80 -22.5t-104 -8.5
q-107 0 -179 46t-108.5 129.5t-36.5 194.5q0 104 40.5 186.5t117 130t184.5 47.5q77 0 145 -24v54q0 51 24.5 77.5t67.5 26.5z" />
    <glyph glyph-name="uni0188" unicode="&#x188;" horiz-adv-x="467" 
d="M302 -10q-82 0 -136 34t-81 95.5t-27 142.5q0 84 31.5 146.5t89.5 97t137 34.5q26 0 48.5 -3.5t43.5 -9.5v129q0 58 25.5 85.5t71.5 27.5q19 0 30 -3t20 -6v-35q-8 3 -20 6t-28 3q-31 0 -47.5 -17.5t-16.5 -62.5v-139l-9 -35q-29 12 -59.5 18t-58.5 6q-68 0 -117 -30
t-75 -84.5t-26 -127.5q0 -67 21.5 -120.5t66.5 -85t115 -31.5q38 0 73 7.5t64 19.5v-35q-25 -12 -59.5 -19.5t-76.5 -7.5z" />
    <glyph glyph-name="Dtail" unicode="&#x189;" horiz-adv-x="700" 
d="M288 714q173 0 260.5 -89.5t87.5 -260.5q0 -180 -93 -272t-278 -92h-162v337h-83v36h83v341h185zM277 678h-135v-305h201v-36h-201v-301h123q331 0 331 327q0 155 -77 235t-242 80z" />
    <glyph glyph-name="uni018A" unicode="&#x18a;" horiz-adv-x="772" 
d="M174 0v678h-23q-55 0 -80 -24.5t-25 -66.5q0 -16 3.5 -31.5t6.5 -22.5h-37q-10 24 -10 57q0 57 35.5 90.5t104.5 33.5h211q173 0 260.5 -89.5t87.5 -260.5q0 -180 -93 -272t-278 -92h-163zM337 36q331 0 331 327q0 155 -77 235t-242 80h-136v-642h124z" />
    <glyph glyph-name="uni018B" unicode="&#x18b;" horiz-adv-x="590" 
d="M306 0q-123 0 -186.5 46.5t-63.5 149.5q0 109 69 161.5t196 52.5h120v269h-349v35h388v-714h-174zM311 36h130v338h-117q-69 0 -120.5 -16t-79.5 -54.5t-28 -106.5q0 -85 52.5 -123t162.5 -38z" />
    <glyph glyph-name="uni018C" unicode="&#x18c;" horiz-adv-x="590" 
d="M281 -10q-111 0 -167 68t-56 199q0 137 60 210t170 73q70 0 113.5 -33.5t61.5 -81.5h3q-2 29 -2.5 59.5t-0.5 59.5v181h-345v35h383v-760h-32l-4 105h-2q-19 -47 -62.5 -81t-119.5 -34zM284 25q97 0 138 61.5t41 173.5v6q0 116 -41.5 177.5t-131.5 61.5q-93 0 -142.5 -63
t-49.5 -186q0 -115 46 -173t140 -58z" />
    <glyph glyph-name="uni018D" unicode="&#x18d;" horiz-adv-x="575" 
d="M295 540q70 0 122 -29t80.5 -81.5t28.5 -121.5q0 -91 -50 -155t-163 -100q41 -23 69.5 -44t43.5 -46t15 -63q0 -61 -44.5 -98t-127.5 -37q-52 0 -97.5 15t-73.5 39l18 33q29 -23 66.5 -38t86.5 -15q67 0 100 27t33 73q0 31 -14.5 52t-44.5 41t-76 47q-61 34 -105.5 70
t-69 83t-24.5 114q0 68 27.5 120.5t78.5 83t121 30.5zM295 505q-60 0 -102 -25.5t-64 -70.5t-22 -103q0 -86 47 -140t125 -95q98 30 153 85t55 150q0 90 -52.5 144.5t-139.5 54.5z" />
    <glyph glyph-name="uni018E" unicode="&#x18e;" horiz-adv-x="551" 
d="M62 0v36h348v322h-329v36h329v284h-348v36h387v-714h-387z" />
    <glyph glyph-name="uni018F" unicode="&#x18f;" horiz-adv-x="694" 
d="M306 688q-60 0 -107.5 -10t-85.5 -23v38q35 12 82.5 21.5t110.5 9.5q156 0 241.5 -96t85.5 -269q0 -172 -75 -270.5t-221 -98.5q-137 0 -208.5 83t-71.5 274v26h535q-3 147 -75 231t-211 84zM337 26q126 0 188.5 84.5t66.5 227.5h-494q0 -167 60 -239.5t179 -72.5z" />
    <glyph glyph-name="uni0190" unicode="&#x190;" horiz-adv-x="551" 
d="M308 724q66 0 115 -16.5t85 -39.5l-19 -30q-36 21 -78.5 36t-102.5 15q-80 0 -132 -39t-52 -112t45.5 -111t150.5 -38h105v-35h-106q-110 0 -166.5 -42t-56.5 -123t52 -122.5t152 -41.5q59 0 114.5 14t95.5 36v-39q-39 -19 -92 -32.5t-119 -13.5q-123 0 -183 52t-60 146
q0 77 41 122t110 61v3q-33 8 -61 27.5t-45 53t-17 85.5q0 85 61.5 134.5t162.5 49.5z" />
    <glyph glyph-name="uni0191" unicode="&#x191;" horiz-adv-x="599" 
d="M124 -244q-61 0 -96.5 34t-35.5 92q0 19 3 35.5t7 30.5l37 -12q-2 -8 -5 -21t-3 -32q0 -43 25 -67.5t67 -24.5q49 0 74.5 36t25.5 100v787h369v-36h-330v-288h311v-36h-311v-429q0 -77 -34 -123t-104 -46z" />
    <glyph glyph-name="fhook" unicode="&#x192;" horiz-adv-x="382" 
d="M120 -244q-61 0 -93 34t-32 92q0 15 2 28t5 23l36 -10q-2 -6 -4 -15.5t-2 -24.5q0 -44 21 -68.5t64 -24.5q40 0 64.5 28.5t24.5 87.5v590h-100v26l100 8v66q0 83 36 126t114 43q26 0 47 -4t40 -9l-8 -35q-37 13 -79 13q-59 0 -85 -31t-26 -102v-67h122v-34h-122v-590
q0 -71 -32 -110.5t-93 -39.5z" />
    <glyph glyph-name="uni0193" unicode="&#x193;" horiz-adv-x="722" 
d="M690 858q20 0 34.5 -3.5t22.5 -6.5v-35q-8 3 -22 7t-32 4q-28 0 -43.5 -17t-15.5 -54v-71l-17 -36q-48 23 -96.5 33.5t-96.5 10.5q-100 0 -172 -43t-110.5 -118.5t-38.5 -172.5q0 -170 84 -250t233 -80q56 0 101 8.5t82 22.5v262h-228v36h267v-321q-50 -22 -107.5 -33
t-120.5 -11q-172 0 -261.5 95.5t-89.5 269.5q0 107 43 190.5t124.5 132t194.5 48.5q47 0 90 -7.5t83 -22.5v58q0 51 24.5 77.5t67.5 26.5z" />
    <glyph glyph-name="Gammalatin" unicode="&#x194;" horiz-adv-x="608" 
d="M285 -240q-48 0 -75 32.5t-27 83.5q0 52 24 110t58 122l-267 606h43l191 -438q18 -42 32.5 -76.5t22.5 -56.5q8 22 21.5 56t32.5 78l189 437h43l-263 -605q34 -67 56 -122.5t22 -110.5q0 -51 -27 -83.5t-76 -32.5zM287 -204q30 0 46.5 21t16.5 61q0 46 -19 94t-44 99
q-26 -52 -45.5 -100.5t-19.5 -91.5q0 -42 17.5 -62.5t47.5 -20.5z" />
    <glyph glyph-name="uni0195" unicode="&#x195;" horiz-adv-x="906" 
d="M644 -12q-98 0 -143.5 51t-45.5 149v157q0 83 -37.5 121.5t-107.5 38.5q-85 0 -133.5 -51.5t-48.5 -156.5v-297h-39v760h39v-256q0 -22 -1 -39.5t-2 -38.5h3q17 46 63 79.5t122 33.5q87 0 134 -46.5t47 -145.5v-153q0 -88 36 -129.5t114 -41.5q76 0 110 42.5t34 128.5
v348h39v-351q0 -98 -46 -150.5t-137 -52.5z" />
    <glyph glyph-name="Iotalatin" unicode="&#x196;" horiz-adv-x="307" 
d="M215 -10q-55 0 -90 32t-35 110v582h39v-573q0 -64 24 -89.5t68 -25.5q22 0 40 3.5t35 9.5v-35q-14 -6 -35 -10t-46 -4z" />
    <glyph glyph-name="uni0197" unicode="&#x197;" horiz-adv-x="294" 
d="M238 714v-26l-71 -8v-288h92v-36h-92v-323l71 -6v-27h-181v27l71 6v323h-92v36h92v288l-71 8v26h181z" />
    <glyph glyph-name="uni0198" unicode="&#x198;" horiz-adv-x="618" 
d="M573 720q12 0 21 -2t15 -4v-35q-6 3 -15.5 4.5t-20.5 1.5q-24 0 -46.5 -14.5t-49.5 -42.5l-208 -213l301 -415h-48l-281 387l-100 -100v-287h-39v714h39v-384q14 17 31 35l34 36l232 240q42 42 71 60.5t64 18.5z" />
    <glyph glyph-name="uni0199" unicode="&#x199;" horiz-adv-x="470" 
d="M212 763q13 0 25 -1.5t20 -3.5v-35q-8 2 -18.5 3.5t-24.5 1.5q-42 0 -64.5 -25.5t-22.5 -79.5v-242v-81t-1 -81h2q12 16 27 33l30 34l220 244h48l-207 -228l226 -302h-46l-207 276l-92 -99v-177h-38v624q0 66 31.5 102.5t91.5 36.5z" />
    <glyph glyph-name="uni019A" unicode="&#x19a;" horiz-adv-x="217" 
d="M90 0v365h-77v33h77v362h38v-362h77v-33h-77v-365h-38z" />
    <glyph glyph-name="uni019B" unicode="&#x19b;" horiz-adv-x="493" 
d="M-6 0l230 535l-23 68l-115 -34l-10 32l114 33q-20 56 -39.5 76.5t-56.5 20.5q-15 0 -26 -2t-21 -5v35q11 3 23.5 5t30.5 2q34 0 55.5 -11t37.5 -37.5t33 -72.5l120 35l9 -32l-118 -35l187 -538q9 -28 20.5 -38.5t26.5 -10.5q8 0 15 1.5t11 2.5v-32q-6 -3 -14 -4.5
t-20 -1.5q-29 0 -46 16.5t-28 49.5l-116 338q-9 26 -17.5 49.5t-13.5 44.5h-3q-15 -46 -33 -88l-171 -402h-42z" />
    <glyph glyph-name="uni019C" unicode="&#x19c;" horiz-adv-x="975" 
d="M277 -10q-92 0 -140.5 48t-48.5 161v515h39v-514q0 -96 39 -135t113 -39q90 0 138 48t48 165v475h39v-514q0 -96 39 -135t114 -39q87 0 136 49t49 168v471h39v-714h-31l-6 100h-3q-12 -28 -34.5 -53t-60 -41t-93.5 -16q-78 0 -119 32t-58 86h-2q-21 -53 -69 -85.5
t-128 -32.5z" />
    <glyph glyph-name="uni019D" unicode="&#x19d;" horiz-adv-x="711" 
d="M34 -163q-19 0 -31.5 2t-24.5 7v36q13 -4 25.5 -7t28.5 -3q70 0 70 88v754h37l431 -640h2q0 34 -1 77t-1 80v483h38v-714h-36l-433 642h-2q1 -41 1.5 -79.5t0.5 -81.5v-525q0 -60 -29.5 -89.5t-75.5 -29.5z" />
    <glyph glyph-name="uni019E" unicode="&#x19e;" horiz-adv-x="582" 
d="M450 -234v579q0 82 -36 121t-106 39q-86 0 -133 -51.5t-47 -156.5v-297h-39v530h31l6 -104h3q19 45 62 79.5t120 34.5q87 0 132.5 -47t45.5 -146v-581h-39z" />
    <glyph glyph-name="uni019F" unicode="&#x19f;" horiz-adv-x="760" 
d="M696 358q0 -108 -35 -191t-105.5 -130t-176.5 -47q-105 0 -175.5 47t-105.5 130t-35 192q0 108 36.5 190.5t108.5 129t176 46.5q150 0 231 -97.5t81 -269.5zM384 689q-91 0 -152.5 -39.5t-93 -109t-34.5 -159.5h551q-5 147 -74.5 227.5t-196.5 80.5zM380 26
q92 0 152.5 40t90.5 112t32 167h-551q2 -94 32.5 -166t91 -112.5t152.5 -40.5z" />
    <glyph glyph-name="Ohorn" unicode="&#x1a0;" horiz-adv-x="759" 
d="M696 358q0 -108 -35 -191t-105.5 -130t-176.5 -47t-176 47t-105 130t-35 192q0 108 36.5 190.5t108.5 129t176 46.5q81 0 142.5 -29.5t100.5 -84.5q36 11 59.5 44.5t23.5 104.5h37l5 -6q-2 -74 -31 -114t-76 -57q25 -44 38 -100.5t13 -124.5zM103 359q0 -98 30 -173
t91.5 -117.5t155.5 -42.5t155 42t90.5 116.5t29.5 173.5q0 157 -69.5 244t-201.5 87q-95 0 -157 -42.5t-93 -117t-31 -170.5z" />
    <glyph glyph-name="ohorn" unicode="&#x1a1;" horiz-adv-x="578" 
d="M522 265q0 -80 -25.5 -142t-77.5 -97.5t-130 -35.5q-75 0 -126.5 35t-78 97t-26.5 143q0 127 62.5 201t173.5 74q57 0 99 -19.5t70 -53.5q34 12 53.5 45.5t19.5 99.5h37l5 -7q-3 -70 -28.5 -109.5t-67.5 -57.5q40 -70 40 -173zM98 265q0 -108 47 -174t144 -66
q67 0 110 30t63 84.5t20 125.5q0 69 -19 123t-60.5 85.5t-108.5 31.5q-96 0 -146 -63t-50 -177z" />
    <glyph glyph-name="uni01A2" unicode="&#x1a2;" horiz-adv-x="1061" 
d="M674 358q0 -108 -34.5 -191t-102.5 -130t-169 -47t-168.5 47t-102 130t-34.5 192q0 108 36 190.5t105 129t169 46.5q73 0 129 -26t95 -75q25 43 70.5 71t110.5 28q88 0 138.5 -53t50.5 -158v-512h-39v507q0 90 -41 135.5t-114 45.5q-55 0 -95 -24.5t-61 -67.5
q27 -46 42 -105.5t15 -132.5zM103 359q0 -98 29.5 -173t88.5 -117.5t148 -42.5t147.5 42t87.5 116.5t29 173.5q0 157 -68 244t-192 87q-90 0 -149.5 -42t-90 -116.5t-30.5 -171.5z" />
    <glyph glyph-name="uni01A3" unicode="&#x1a3;" horiz-adv-x="819" 
d="M517 265q0 -80 -25.5 -142t-76.5 -97.5t-128 -35.5q-75 0 -125.5 35t-77 97t-26.5 143q0 127 62 201t172 74q50 0 88.5 -16t66.5 -44q22 24 55.5 42t82.5 18q150 0 150 -181v-599h-38v596q0 149 -116 149q-39 0 -66.5 -14t-48.5 -36q26 -36 38.5 -85t12.5 -105zM98 265
q0 -107 46.5 -173.5t142.5 -66.5q66 0 108 30.5t62 84.5t20 125q0 68 -18.5 122t-59.5 86t-107 32q-95 0 -144.5 -63.5t-49.5 -176.5z" />
    <glyph glyph-name="uni01A4" unicode="&#x1a4;" horiz-adv-x="652" 
d="M174 0v678h-23q-55 0 -80 -24.5t-25 -66.5q0 -16 3.5 -31.5t6.5 -22.5h-37q-9 22 -9 57q0 54 34.5 89t104.5 35h196q124 0 187.5 -47.5t63.5 -150.5q0 -111 -69 -163.5t-196 -52.5h-118v-300h-39zM327 335q70 0 121 16t79 55.5t28 107.5q0 87 -52 125.5t-163 38.5h-127
v-343h114z" />
    <glyph glyph-name="uni01A5" unicode="&#x1a5;" horiz-adv-x="590" 
d="M216 765q20 0 36.5 -3t26.5 -6v-36q-10 4 -25.5 7t-35.5 3q-44 0 -66.5 -25.5t-22.5 -80.5v-94q0 -23 -1 -56t-2 -56h3q18 48 64.5 85t125.5 37q104 0 159.5 -69t55.5 -202q0 -134 -59 -206.5t-164 -72.5q-75 0 -119.5 34t-62.5 82h-3q2 -30 2.5 -61.5t0.5 -60.5v-218
h-38v859q0 67 31.5 103.5t93.5 36.5zM316 505q-93 0 -139.5 -61.5t-46.5 -174.5v-6q0 -121 46.5 -179.5t131.5 -58.5q89 0 137.5 63t48.5 181q0 236 -178 236z" />
    <glyph glyph-name="uni01A6" unicode="&#x1a6;" horiz-adv-x="586" 
d="M515 -100l-188 315h-186v-215h-39v714h39v-100h128q125 0 190 -41.5t65 -150.5q0 -81 -43 -128.5t-115 -67.5l196 -326h-47zM292 250q87 0 139 44.5t52 126.5q0 90 -54 123.5t-165 33.5h-123v-328h151z" />
    <glyph glyph-name="uni01A7" unicode="&#x1a7;" horiz-adv-x="544" 
d="M268 724q97 0 157.5 -41t60.5 -130q0 -59 -25.5 -96t-71 -62t-103.5 -47q-62 -24 -106 -45.5t-67.5 -52t-23.5 -78.5q0 -52 26 -84t70 -47t100 -15q60 0 111 11.5t90 25.5v-39q-33 -12 -83.5 -23t-118.5 -11q-67 0 -120 19.5t-84 60t-31 102.5q0 60 28 97t76.5 61.5
t110.5 48.5q54 22 95 42.5t64 50t23 79.5q0 73 -48.5 105t-130.5 32q-40 0 -85.5 -9.5t-87.5 -28.5l-13 33q43 19 90.5 30t96.5 11z" />
    <glyph glyph-name="uni01A8" unicode="&#x1a8;" horiz-adv-x="462" 
d="M223 540q87 0 134 -32.5t47 -97.5q0 -46 -23 -73.5t-62 -45t-86 -33.5q-72 -23 -114.5 -49t-42.5 -78q0 -51 36 -79t122 -28q47 0 94 11t83 27v-37q-29 -14 -76.5 -24.5t-102.5 -10.5q-100 0 -147.5 36t-47.5 105q0 48 24.5 77t65 47.5t87.5 34.5q43 15 77 29t54.5 35
t20.5 56q0 48 -37.5 71.5t-105.5 23.5q-38 0 -79 -8.5t-70 -22.5l-13 34q32 14 74 23t88 9z" />
    <glyph glyph-name="uni01A9" unicode="&#x1a9;" horiz-adv-x="577" 
d="M36 0v32l273 339l-263 313v30h466v-37h-309q-27 0 -51.5 1t-53.5 1l252 -300v-10l-265 -332h60h59h333v-37h-501z" />
    <glyph glyph-name="uni01AA" unicode="&#x1aa;" horiz-adv-x="352" 
d="M115 765q59 0 92 -35.5t33 -97.5v-719q0 -62 25.5 -89t71.5 -27q20 0 36 3t27 7v-33q-25 -12 -65 -12q-62 0 -98 35t-36 110v633h-80q-61 0 -96 29t-35 83q0 48 32 80.5t93 32.5zM113 730q-42 0 -63.5 -22t-21.5 -55q0 -79 99 -79h74v50q0 55 -23 80.5t-65 25.5z" />
    <glyph glyph-name="uni01AB" unicode="&#x1ab;" horiz-adv-x="328" 
d="M194 -240q-20 0 -34.5 3.5t-23.5 7.5v36q11 -6 25.5 -9t32.5 -3q32 0 51.5 19.5t19.5 60.5v120q-20 -5 -48 -5q-66 0 -96 39t-30 114v353h-80v26l80 9l12 128h27v-129h168v-34h-168v-350q0 -59 20 -90t73 -31q23 0 42.5 3t35.5 9v-163q0 -54 -29 -84t-78 -30z" />
    <glyph glyph-name="uni01AC" unicode="&#x1ac;" horiz-adv-x="510" 
d="M242 0v678h-87q-57 0 -82.5 -24.5t-25.5 -65.5q0 -19 4.5 -34.5t7.5 -22.5h-39q-4 10 -7.5 25t-3.5 33q0 54 34.5 89.5t109.5 35.5h363v-36h-235v-678h-39z" />
    <glyph glyph-name="uni01AD" unicode="&#x1ad;" horiz-adv-x="328" 
d="M205 765q21 0 36 -3.5t26 -7.5v-36q-12 5 -28.5 8.5t-35.5 3.5q-34 0 -53.5 -20.5t-19.5 -62.5v-117h168v-34h-168v-350q0 -59 20.5 -90t72.5 -31q23 0 42.5 3t35.5 9v-33q-16 -6 -36 -10t-45 -4q-69 0 -99 39t-30 114v353h-80v26l81 9v116q0 56 30.5 87t82.5 31z" />
    <glyph glyph-name="uni01AE" unicode="&#x1ae;" horiz-adv-x="515" 
d="M368 -171q-63 0 -96.5 35.5t-33.5 107.5v706h-234v36h508v-36h-235v-700q0 -62 25.5 -87.5t68.5 -25.5q19 0 32.5 3t23.5 7v-35q-23 -11 -59 -11z" />
    <glyph glyph-name="Uhorn" unicode="&#x1af;" horiz-adv-x="726" 
d="M622 611q39 11 62.5 44t23.5 105h37l5 -6q-3 -76 -33 -118.5t-95 -56.5v-327q0 -129 -71 -195.5t-193 -66.5q-126 0 -195 68t-69 196v460h39v-459q0 -113 58.5 -171t167.5 -58q105 0 165 56t60 163v469h38v-103z" />
    <glyph glyph-name="uhorn" unicode="&#x1b0;" horiz-adv-x="594" 
d="M611 606q-3 -71 -31.5 -114t-87.5 -57v-435h-32l-6 103h-2q-19 -45 -64.5 -79t-122.5 -34q-184 0 -184 193v346h39v-342q0 -84 38 -123t109 -39q87 0 136.5 51t49.5 156v297h39v-62q36 11 56.5 44.5t20.5 100.5h36z" />
    <glyph glyph-name="Upsilonlatin" unicode="&#x1b1;" horiz-adv-x="773" 
d="M388 25q83 0 146 37t98 104.5t35 159.5q0 88 -25.5 152.5t-72.5 113t-110 89.5v33h274v-36h-217q54 -35 97.5 -83t69 -114.5t25.5 -155.5q0 -100 -40 -175.5t-112 -118t-168 -42.5q-97 0 -169.5 40t-112.5 115t-40 181q0 89 24.5 155.5t67.5 115t99 82.5h-216v36h274v-33
q-102 -61 -155 -143.5t-53 -211.5q0 -95 35 -162.5t98 -103t148 -35.5z" />
    <glyph glyph-name="uni01B2" unicode="&#x1b2;" horiz-adv-x="716" 
d="M356 -10q-125 0 -193.5 68t-68.5 196v460h39v-459q0 -113 58.5 -171t166.5 -58q105 0 165.5 56t60.5 164v354q0 47 -22 67.5t-55 20.5q-24 0 -43.5 -6.5t-29.5 -12.5v37q11 6 31 12t48 6q50 0 79.5 -30.5t29.5 -91.5v-350q0 -129 -72 -195.5t-194 -66.5z" />
    <glyph glyph-name="uni01B3" unicode="&#x1b3;" horiz-adv-x="567" 
d="M240 0v271l-240 443h44l215 -401l164 337q16 33 36.5 54t58.5 21q15 0 26 -2.5t18 -6.5v-34q-6 3 -15.5 5.5t-21.5 2.5q-27 0 -41 -16.5t-28 -44.5l-177 -354v-275h-39z" />
    <glyph glyph-name="uni01B4" unicode="&#x1b4;" horiz-adv-x="523" 
d="M474 538q28 0 44 -8v-34q-6 3 -15.5 5t-20.5 2q-28 0 -43 -16.5t-27 -47.5l-211 -546q-26 -67 -58.5 -101t-87.5 -34q-30 0 -58 9v35q14 -4 26.5 -7t28.5 -3q40 0 65.5 26t48.5 86l38 100l-204 526h41l133 -346q17 -46 29 -80t20 -57h2q15 46 48 134l106 278
q14 36 35 57.5t60 21.5z" />
    <glyph glyph-name="uni01B5" unicode="&#x1b5;" horiz-adv-x="577" 
d="M81 387h197l196 291h-413v36h464v-28l-201 -299h164v-34h-187l-213 -317h449v-36h-501v28l219 325h-174v34z" />
    <glyph glyph-name="uni01B6" unicode="&#x1b6;" horiz-adv-x="459" 
d="M417 530v-26l-149 -215h145v-34h-170l-153 -221h326v-34h-375v25l159 230h-141v34h165l143 207h-301v34h351z" />
    <glyph glyph-name="uni01B7" unicode="&#x1b7;" horiz-adv-x="579" 
d="M477 714v-31l-254 -284q135 -1 203 -48.5t68 -150.5q0 -96 -64.5 -153t-187.5 -57q-60 0 -111.5 11t-90.5 32v41q40 -23 94 -36t108 -13q102 0 156.5 46t54.5 129q0 164 -222 164h-55v35l250 279h-372v36h423z" />
    <glyph glyph-name="uni01B8" unicode="&#x1b8;" horiz-adv-x="557" 
d="M299 -10q-123 0 -185.5 57.5t-62.5 151.5q0 104 68.5 155t195.5 52l-240 277v31h419v-36h-368l237 -274v-33h-47q-224 0 -224 -172q0 -83 53.5 -128.5t155.5 -45.5q57 0 110.5 13t93.5 34v-39q-39 -19 -90.5 -31t-115.5 -12z" />
    <glyph glyph-name="uni01B9" unicode="&#x1b9;" horiz-adv-x="449" 
d="M257 -240q-110 0 -170 58.5t-60 156.5q0 106 69 165.5t210 61.5l-258 299v29h369v-35h-317l254 -298v-29h-42q-246 0 -246 -191q0 -84 50.5 -133t141.5 -49q49 0 92.5 9.5t78.5 26.5v-38q-35 -16 -76.5 -24.5t-95.5 -8.5z" />
    <glyph glyph-name="uni01BA" unicode="&#x1ba;" horiz-adv-x="470" 
d="M203 -240q-85 0 -129.5 30t-44.5 87q0 55 38.5 86t127.5 38q81 6 122.5 34t41.5 101q0 52 -26.5 78.5t-72 35t-100.5 8.5h-41v32l203 205h-273v35h332v-29l-211 -209q60 0 112 -12t84.5 -45.5t32.5 -98.5q0 -86 -52 -124.5t-151 -45.5q-75 -5 -101.5 -28t-26.5 -62
q0 -81 135 -81q51 0 91 7.5t77 20.5v-37q-28 -11 -70.5 -18.5t-97.5 -7.5z" />
    <glyph glyph-name="uni01BB" unicode="&#x1bb;" horiz-adv-x="572" 
d="M269 771q92 0 145 -49t53 -136q0 -60 -20.5 -106t-56.5 -94h103v-34h-128l-260 -316v-2h392v-34h-440v33l263 319h-219v34h245q39 51 60 95.5t21 103.5q0 73 -42.5 111.5t-117.5 38.5q-52 0 -95 -19t-78 -45l-20 28q40 32 88 52t107 20z" />
    <glyph glyph-name="uni01BC" unicode="&#x1bc;" horiz-adv-x="567" 
d="M259 -10q-63 0 -107.5 13.5t-71.5 27.5v41q35 -20 78.5 -33.5t101.5 -13.5q57 0 103 20.5t73 63.5t27 111q0 90 -58.5 131t-152.5 41h-92v286h-98v36h415v-36h-278v-251h61q72 0 126.5 -23t86 -69t31.5 -116q0 -77 -32.5 -128t-87.5 -76t-125 -25z" />
    <glyph glyph-name="uni01BD" unicode="&#x1bd;" horiz-adv-x="430" 
d="M187 -8q-52 0 -93 11t-65 24v40q31 -17 72 -28.5t89 -11.5q87 0 125 39t38 94t-35.5 86.5t-114.5 31.5h-90v217h-76v35h342v-35h-229v-183h64q91 0 134.5 -42t43.5 -109q0 -45 -21 -83.5t-66.5 -62t-117.5 -23.5z" />
    <glyph glyph-name="uni01BE" unicode="&#x1be;" horiz-adv-x="444" 
d="M202 -10q-55 0 -93 8.5t-60 18.5v39q32 -14 69.5 -23t83.5 -9q60 0 94.5 15t49.5 41t15 58q0 39 -18 60.5t-47.5 34.5t-63.5 25q-27 9 -45.5 22.5t-28 39.5t-9.5 73v103h-83v26l82 9l12 128h27v-129h169v-34h-169v-99q0 -39 7.5 -59.5t21.5 -31t34 -17.5q38 -12 72 -28
t56 -43.5t22 -75.5q0 -67 -48 -109.5t-150 -42.5z" />
    <glyph glyph-name="uni01BF" unicode="&#x1bf;" horiz-adv-x="597" 
d="M322 540q95 0 150.5 -58t55.5 -164q0 -99 -47 -171t-136.5 -111.5t-216.5 -41.5v-228h-38v764h32l4 -120h2q11 33 35 63t63 48.5t96 18.5zM319 505q-102 0 -146.5 -65.5t-44.5 -177.5v-233q170 3 265 77t95 212q0 87 -45 137t-124 50z" />
    <glyph glyph-name="uni01C0" unicode="&#x1c0;" horiz-adv-x="354" 
d="M158 0v760h37v-760h-37z" />
    <glyph glyph-name="uni01C1" unicode="&#x1c1;" horiz-adv-x="539" 
d="M158 0v760h37v-760h-37zM344 0v760h37v-760h-37z" />
    <glyph glyph-name="uni01C2" unicode="&#x1c2;" horiz-adv-x="516" 
d="M276 760v-275h173v-35h-173v-133h173v-34h-173v-283h-36v283h-173v34h173v133h-173v35h173v275h36z" />
    <glyph glyph-name="uni01C3" unicode="&#x1c3;" horiz-adv-x="231" 
d="M133 179h-32l-6 535h44zM82 29q0 17 8 28t25 11q19 0 26.5 -11t7.5 -28t-7.5 -27.5t-26.5 -10.5q-17 0 -25 10.5t-8 27.5z" />
    <glyph glyph-name="uni01C4" unicode="&#x1c4;" horiz-adv-x="1267" 
d="M636 364q0 -180 -93 -272t-278 -92h-163v714h186q173 0 260.5 -89.5t87.5 -260.5zM596 363q0 155 -77 235t-242 80h-136v-642h124q331 0 331 327zM1227 0h-501v28l438 650h-413v36h464v-28l-437 -650h449v-36zM959 790q-12 21 -32.5 48.5t-43 54.5t-40.5 47v8h29
q27 -26 55 -58t50 -61q22 29 50.5 61t55.5 58h29v-8q-18 -20 -41 -47t-43.5 -54.5t-32.5 -48.5h-36z" />
    <glyph glyph-name="uni01C5" unicode="&#x1c5;" horiz-adv-x="1158" 
d="M636 364q0 -180 -93 -272t-278 -92h-163v714h186q173 0 260.5 -89.5t87.5 -260.5zM596 363q0 155 -77 235t-242 80h-136v-642h124q331 0 331 327zM1116 0h-375v25l326 471h-301v34h351v-26l-327 -470h326v-34zM908 606q-12 21 -32.5 48.5t-43 54.5t-40.5 47v8h29
q27 -26 55 -58t50 -61q22 29 50.5 61t55.5 58h29v-8q-18 -20 -41 -47t-43.5 -54.5t-32.5 -48.5h-36z" />
    <glyph glyph-name="uni01C6" unicode="&#x1c6;" horiz-adv-x="1048" 
d="M281 -10q-111 0 -167 68t-56 199q0 137 60 210t170 73q70 0 113.5 -33.5t61.5 -81.5h3q-2 29 -2.5 59.5t-0.5 59.5v216h38v-760h-32l-4 105h-2q-19 -47 -62.5 -81t-119.5 -34zM284 25q97 0 138 61.5t41 173.5v6q0 116 -41.5 177.5t-131.5 61.5q-93 0 -142.5 -63
t-49.5 -186q0 -115 46 -173t140 -58zM1006 0h-375v25l326 471h-301v34h351v-26l-327 -470h326v-34zM799 606q-12 21 -32.5 48.5t-43 54.5t-40.5 47v8h29q27 -26 55 -58t50 -61q22 29 50.5 61t55.5 58h29v-8q-18 -20 -41 -47t-43.5 -54.5t-32.5 -48.5h-36z" />
    <glyph glyph-name="uni01C7" unicode="&#x1c7;" horiz-adv-x="750" 
d="M102 0v714h39v-678h348v-36h-387zM494 -177q-27 0 -46 3.5t-32 8.5v38q14 -6 34.5 -9.5t43.5 -3.5q65 0 92 38.5t27 106.5v709h39v-710q0 -80 -37 -130.5t-121 -50.5z" />
    <glyph glyph-name="uni01C8" unicode="&#x1c8;" horiz-adv-x="727" 
d="M102 0v714h39v-678h348v-36h-387zM588 688q0 16 7 26t23 10q19 0 25.5 -10t6.5 -26t-6.5 -26t-25.5 -10q-16 0 -23 10t-7 26zM523 -240q-20 0 -36 3t-28 7v36q15 -7 30.5 -9t31.5 -2q78 0 78 96v639h39v-642q0 -64 -32.5 -96t-82.5 -32z" />
    <glyph glyph-name="uni01C9" unicode="&#x1c9;" horiz-adv-x="435" 
d="M128 0h-38v760h38v-760zM295 688q0 16 7 26t23 10q19 0 25.5 -10t6.5 -26t-6.5 -26t-25.5 -10q-16 0 -23 10t-7 26zM230 -240q-20 0 -36 3t-28 7v36q15 -7 30.5 -9t31.5 -2q78 0 78 96v639h39v-642q0 -64 -32.5 -96t-82.5 -32z" />
    <glyph glyph-name="uni01CA" unicode="&#x1ca;" horiz-adv-x="950" 
d="M608 0h-36l-433 642h-2q1 -41 1.5 -79.5t0.5 -81.5v-481h-37v714h37l431 -640h2q0 34 -1 77t-1 80v483h38v-714zM695 -177q-27 0 -46 3.5t-32 8.5v38q14 -6 34.5 -9.5t43.5 -3.5q65 0 92 38.5t27 106.5v709h39v-710q0 -80 -37 -130.5t-121 -50.5z" />
    <glyph glyph-name="uni01CB" unicode="&#x1cb;" horiz-adv-x="927" 
d="M608 0h-36l-433 642h-2q1 -41 1.5 -79.5t0.5 -81.5v-481h-37v714h37l431 -640h2q0 34 -1 77t-1 80v483h38v-714zM789 688q0 16 7 26t23 10q19 0 25.5 -10t6.5 -26t-6.5 -26t-25.5 -10q-16 0 -23 10t-7 26zM724 -240q-20 0 -36 3t-28 7v36q15 -7 30.5 -9t31.5 -2
q78 0 78 96v639h39v-642q0 -64 -32.5 -96t-82.5 -32z" />
    <glyph glyph-name="uni01CC" unicode="&#x1cc;" horiz-adv-x="800" 
d="M316 540q88 0 135.5 -47t47.5 -146v-347h-39v345q0 83 -38 121.5t-109 38.5q-87 0 -136 -51.5t-49 -156.5v-297h-39v530h31l6 -104h3q19 45 64.5 79.5t122.5 34.5zM660 688q0 16 7 26t23 10q19 0 25.5 -10t6.5 -26t-6.5 -26t-25.5 -10q-16 0 -23 10t-7 26zM595 -240
q-20 0 -36 3t-28 7v36q15 -7 30.5 -9t31.5 -2q78 0 78 96v639h39v-642q0 -64 -32.5 -96t-82.5 -32z" />
    <glyph glyph-name="uni01CD" unicode="&#x1cd;" horiz-adv-x="590" 
d="M548 0l-100 261h-305l-102 -261h-41l281 716h37l271 -716h-41zM330 578q-5 17 -14 41.5t-18 50.5q-7 -24 -16 -48.5t-17 -43.5l-108 -281h277zM279 790q-12 21 -32.5 48.5t-43 54.5t-40.5 47v8h29q27 -26 55 -58t50 -61q22 29 50.5 61t55.5 58h29v-8q-18 -20 -41 -47
t-43.5 -54.5t-32.5 -48.5h-36z" />
    <glyph glyph-name="uni01CE" unicode="&#x1ce;" horiz-adv-x="521" 
d="M269 539q85 0 127.5 -44.5t42.5 -141.5v-353h-31l-7 98h-2q-24 -46 -67.5 -77t-122.5 -31q-78 0 -119.5 38t-41.5 105q0 79 65.5 119.5t186.5 46.5l100 6v40q0 86 -33 122.5t-99 36.5q-77 0 -157 -40l-12 34q38 18 81 29.5t89 11.5zM304 268q-102 -5 -159 -37t-57 -98
q0 -52 33 -80.5t92 -28.5q94 0 140 53.5t47 141.5v53zM237 606q-12 21 -32.5 48.5t-43 54.5t-40.5 47v8h29q27 -26 55 -58t50 -61q22 29 50.5 61t55.5 58h29v-8q-18 -20 -41 -47t-43.5 -54.5t-32.5 -48.5h-36z" />
    <glyph glyph-name="uni01CF" unicode="&#x1cf;" horiz-adv-x="294" 
d="M238 0h-181v27l71 6v647l-71 8v26h181v-26l-71 -8v-647l71 -6v-27zM127 790q-12 21 -32.5 48.5t-43 54.5t-40.5 47v8h29q27 -26 55 -58t50 -61q22 29 50.5 61t55.5 58h29v-8q-18 -20 -41 -47t-43.5 -54.5t-32.5 -48.5h-36z" />
    <glyph glyph-name="uni01D0" unicode="&#x1d0;" horiz-adv-x="217" 
d="M128 0h-39v530h39v-530zM89 606q-12 21 -32.5 48.5t-43 54.5t-40.5 47v8h29q27 -26 55 -58t50 -61q22 29 50.5 61t55.5 58h29v-8q-18 -20 -41 -47t-43.5 -54.5t-32.5 -48.5h-36z" />
    <glyph glyph-name="uni01D1" unicode="&#x1d1;" horiz-adv-x="759" 
d="M696 358q0 -108 -35 -191t-105.5 -130t-176.5 -47q-105 0 -175.5 47t-105.5 130t-35 192q0 108 36.5 190.5t108.5 129t176 46.5q150 0 231 -97.5t81 -269.5zM103 359q0 -98 30 -173t91.5 -117.5t155.5 -42.5t155 42t90.5 116.5t29.5 173.5q0 157 -69.5 244t-201.5 87
q-95 0 -157 -42t-93 -116.5t-31 -171.5zM360 790q-12 21 -32.5 48.5t-43 54.5t-40.5 47v8h29q27 -26 55 -58t50 -61q22 29 50.5 61t55.5 58h29v-8q-18 -20 -41 -47t-43.5 -54.5t-32.5 -48.5h-36z" />
    <glyph glyph-name="uni01D2" unicode="&#x1d2;" horiz-adv-x="581" 
d="M522 265q0 -80 -25.5 -142t-77.5 -97.5t-130 -35.5q-75 0 -126.5 35t-78 97t-26.5 143q0 127 62.5 201t173.5 74q79 0 129 -36t74.5 -98t24.5 -141zM98 265q0 -107 47 -173.5t144 -66.5q67 0 110 30.5t63 84.5t20 125q0 68 -19 122t-60.5 86t-108.5 32
q-95 0 -145.5 -63.5t-50.5 -176.5zM271 606q-12 21 -32.5 48.5t-43 54.5t-40.5 47v8h29q27 -26 55 -58t50 -61q22 29 50.5 61t55.5 58h29v-8q-18 -20 -41 -47t-43.5 -54.5t-32.5 -48.5h-36z" />
    <glyph glyph-name="uni01D3" unicode="&#x1d3;" horiz-adv-x="716" 
d="M622 252q0 -129 -72 -195.5t-194 -66.5q-125 0 -193.5 68t-68.5 196v460h39v-459q0 -113 58.5 -171t166.5 -58q105 0 165.5 56t60.5 164v468h38v-462zM339 790q-12 21 -32.5 48.5t-43 54.5t-40.5 47v8h29q27 -26 55 -58t50 -61q22 29 50.5 61t55.5 58h29v-8
q-18 -20 -41 -47t-43.5 -54.5t-32.5 -48.5h-36z" />
    <glyph glyph-name="uni01D4" unicode="&#x1d4;" horiz-adv-x="582" 
d="M492 530v-530h-32l-6 103h-2q-19 -45 -64.5 -79t-123.5 -34q-183 0 -183 193v347h39v-343q0 -84 38 -123t109 -39q87 0 136.5 51t49.5 156v298h39zM271 606q-12 21 -32.5 48.5t-43 54.5t-40.5 47v8h29q27 -26 55 -58t50 -61q22 29 50.5 61t55.5 58h29v-8q-18 -20 -41 -47
t-43.5 -54.5t-32.5 -48.5h-36z" />
    <glyph glyph-name="uni01D5" unicode="&#x1d5;" horiz-adv-x="716" 
d="M491 989v-34h-264v34h264zM265 892q17 0 23 -10.5t6 -24.5q0 -16 -6 -25.5t-23 -9.5q-15 0 -21.5 9.5t-6.5 25.5q0 14 6.5 24.5t21.5 10.5zM450 892q17 0 23.5 -10.5t6.5 -24.5q0 -16 -6.5 -25.5t-23.5 -9.5q-14 0 -21 9.5t-7 25.5q0 14 7 24.5t21 10.5zM622 252
q0 -129 -72 -195.5t-194 -66.5q-125 0 -193.5 68t-68.5 196v460h39v-459q0 -113 58.5 -171t166.5 -58q105 0 165.5 56t60.5 164v468h38v-462z" />
    <glyph glyph-name="uni01D6" unicode="&#x1d6;" horiz-adv-x="582" 
d="M424 804v-33h-263v33h263zM198 707q17 0 23.5 -10t6.5 -25t-6.5 -24.5t-23.5 -9.5q-14 0 -21 9.5t-7 24.5t7 25t21 10zM384 707q17 0 23 -10t6 -25t-6 -24.5t-23 -9.5q-15 0 -21.5 9.5t-6.5 24.5t6.5 25t21.5 10zM492 530v-530h-32l-6 103h-2q-19 -45 -64.5 -79
t-123.5 -34q-183 0 -183 193v347h39v-343q0 -84 38 -123t109 -39q87 0 136.5 51t49.5 156v298h39z" />
    <glyph glyph-name="uni01D7" unicode="&#x1d7;" horiz-adv-x="716" 
d="M332 939q28 28 59 65.5t51 70.5h46v-8q-24 -33 -58 -69t-69 -66h-29v7zM265 822q-15 0 -21.5 9.5t-6.5 25.5q0 14 6.5 24.5t21.5 10.5q17 0 23 -10.5t6 -24.5q0 -16 -6 -25.5t-23 -9.5zM450 822q-14 0 -21 9.5t-7 25.5q0 14 7 24.5t21 10.5q17 0 23.5 -10.5t6.5 -24.5
q0 -16 -6.5 -25.5t-23.5 -9.5zM622 252q0 -129 -72 -195.5t-194 -66.5q-125 0 -193.5 68t-68.5 196v460h39v-459q0 -113 58.5 -171t166.5 -58q105 0 165.5 56t60.5 164v468h38v-462z" />
    <glyph glyph-name="uni01D8" unicode="&#x1d8;" horiz-adv-x="582" 
d="M265 755q28 27 59.5 65t51.5 70h45v-7q-24 -33 -58 -69t-69 -66h-29v7zM198 638q-14 0 -21 9.5t-7 24.5t7 25t21 10q17 0 23.5 -10t6.5 -25t-6.5 -24.5t-23.5 -9.5zM384 638q-15 0 -21.5 9.5t-6.5 24.5t6.5 25t21.5 10q17 0 23 -10t6 -25t-6 -24.5t-23 -9.5zM492 530
v-530h-32l-6 103h-2q-19 -45 -64.5 -79t-123.5 -34q-183 0 -183 193v347h39v-343q0 -84 38 -123t109 -39q87 0 136.5 51t49.5 156v298h39z" />
    <glyph glyph-name="uni01D9" unicode="&#x1d9;" horiz-adv-x="716" 
d="M340 930q-12 19 -32 44t-42.5 49t-40.5 39v7h26q30 -24 57 -48.5t50 -52.5q24 28 52 54t55 47h26v-7q-17 -15 -39.5 -39t-43 -49t-31.5 -44h-37zM265 822q-15 0 -21.5 9.5t-6.5 25.5q0 14 6.5 24.5t21.5 10.5q17 0 23 -10.5t6 -24.5q0 -16 -6 -25.5t-23 -9.5zM450 822
q-14 0 -21 9.5t-7 25.5q0 14 7 24.5t21 10.5q17 0 23.5 -10.5t6.5 -24.5q0 -16 -6.5 -25.5t-23.5 -9.5zM622 252q0 -129 -72 -195.5t-194 -66.5q-125 0 -193.5 68t-68.5 196v460h39v-459q0 -113 58.5 -171t166.5 -58q105 0 165.5 56t60.5 164v468h38v-462z" />
    <glyph glyph-name="uni01DA" unicode="&#x1da;" horiz-adv-x="582" 
d="M273 745q-11 20 -31.5 45t-43 48.5t-40.5 39.5v6h27q30 -23 56.5 -47.5t50.5 -52.5q24 28 51.5 53.5t54.5 46.5h27v-6q-17 -16 -39.5 -39.5t-43 -48.5t-32.5 -45h-37zM198 638q-14 0 -21 9.5t-7 24.5t7 25t21 10q17 0 23.5 -10t6.5 -25t-6.5 -24.5t-23.5 -9.5zM384 638
q-15 0 -21.5 9.5t-6.5 24.5t6.5 25t21.5 10q17 0 23 -10t6 -25t-6 -24.5t-23 -9.5zM492 530v-530h-32l-6 103h-2q-19 -45 -64.5 -79t-123.5 -34q-183 0 -183 193v347h39v-343q0 -84 38 -123t109 -39q87 0 136.5 51t49.5 156v298h39z" />
    <glyph glyph-name="uni01DB" unicode="&#x1db;" horiz-adv-x="716" 
d="M278 1075q20 -33 51 -70.5t59 -65.5v-7h-29q-35 30 -69 66t-57 69v8h45zM265 892q17 0 23 -10.5t6 -24.5q0 -16 -6 -25.5t-23 -9.5q-15 0 -21.5 9.5t-6.5 25.5q0 14 6.5 24.5t21.5 10.5zM450 892q17 0 23.5 -10.5t6.5 -24.5q0 -16 -6.5 -25.5t-23.5 -9.5q-14 0 -21 9.5
t-7 25.5q0 14 7 24.5t21 10.5zM622 252q0 -129 -72 -195.5t-194 -66.5q-125 0 -193.5 68t-68.5 196v460h39v-459q0 -113 58.5 -171t166.5 -58q105 0 165.5 56t60.5 164v468h38v-462z" />
    <glyph glyph-name="uni01DC" unicode="&#x1dc;" horiz-adv-x="582" 
d="M211 890q20 -32 51.5 -70t59.5 -65v-7h-29q-35 30 -69 66t-58 69v7h45zM198 707q17 0 23.5 -10t6.5 -25t-6.5 -24.5t-23.5 -9.5q-14 0 -21 9.5t-7 24.5t7 25t21 10zM384 707q17 0 23 -10t6 -25t-6 -24.5t-23 -9.5q-15 0 -21.5 9.5t-6.5 24.5t6.5 25t21.5 10zM492 530
v-530h-32l-6 103h-2q-19 -45 -64.5 -79t-123.5 -34q-183 0 -183 193v347h39v-343q0 -84 38 -123t109 -39q87 0 136.5 51t49.5 156v298h39z" />
    <glyph glyph-name="uni01DD" unicode="&#x1dd;" horiz-adv-x="545" 
d="M245 540q82 0 135.5 -34.5t80 -95t26.5 -140.5q0 -78 -26 -141.5t-77 -101t-127 -37.5q-68 0 -112 32t-65 88t-21 126v31h388q0 114 -52 175.5t-150 61.5q-49 0 -84.5 -7.5t-80.5 -27.5v37q39 18 77.5 26t87.5 8zM99 233q0 -93 39 -150.5t119 -57.5t130 53t58 155h-346z
" />
    <glyph glyph-name="uni01DE" unicode="&#x1de;" horiz-adv-x="590" 
d="M432 989v-34h-264v34h264zM206 892q17 0 23 -10.5t6 -24.5q0 -16 -6 -25.5t-23 -9.5q-15 0 -21.5 9.5t-6.5 25.5q0 14 6.5 24.5t21.5 10.5zM391 892q17 0 23.5 -10.5t6.5 -24.5q0 -16 -6.5 -25.5t-23.5 -9.5q-14 0 -21 9.5t-7 25.5q0 14 7 24.5t21 10.5zM548 0l-100 261
h-305l-102 -261h-41l281 716h37l271 -716h-41zM330 578q-5 17 -14 41.5t-18 50.5q-7 -24 -16 -48.5t-17 -43.5l-108 -281h277z" />
    <glyph glyph-name="uni01DF" unicode="&#x1df;" horiz-adv-x="521" 
d="M390 804v-33h-264v33h264zM164 707q17 0 23 -10t6 -25t-6 -24.5t-23 -9.5q-15 0 -21.5 9.5t-6.5 24.5t6.5 25t21.5 10zM349 707q17 0 23.5 -10t6.5 -25t-6.5 -24.5t-23.5 -9.5q-14 0 -21 9.5t-7 24.5t7 25t21 10zM269 539q85 0 127.5 -44.5t42.5 -141.5v-353h-31l-7 98
h-2q-24 -46 -67.5 -77t-122.5 -31q-78 0 -119.5 38t-41.5 105q0 79 65.5 119.5t186.5 46.5l100 6v40q0 86 -33 122.5t-99 36.5q-77 0 -157 -40l-12 34q38 18 81 29.5t89 11.5zM304 268q-102 -5 -159 -37t-57 -98q0 -52 33 -80.5t92 -28.5q94 0 140 53.5t47 141.5v53z" />
    <glyph glyph-name="uni01E0" unicode="&#x1e0;" horiz-adv-x="590" 
d="M432 962v-34h-264v34h264zM299 860q19 0 25.5 -10.5t6.5 -25.5q0 -16 -6.5 -26t-25.5 -10q-16 0 -23 10t-7 26q0 15 7 25.5t23 10.5zM548 0l-100 261h-305l-102 -261h-41l281 716h37l271 -716h-41zM330 578q-5 17 -14 41.5t-18 50.5q-7 -24 -16 -48.5t-17 -43.5
l-108 -281h277z" />
    <glyph glyph-name="uni01E1" unicode="&#x1e1;" horiz-adv-x="521" 
d="M390 804v-33h-264v33h264zM257 702q18 0 25 -10.5t7 -25.5q0 -16 -7 -26t-25 -10q-16 0 -23.5 10t-7.5 26q0 15 7.5 25.5t23.5 10.5zM269 539q85 0 127.5 -44.5t42.5 -141.5v-353h-31l-7 98h-2q-24 -46 -67.5 -77t-122.5 -31q-78 0 -119.5 38t-41.5 105q0 79 65.5 119.5
t186.5 46.5l100 6v40q0 86 -33 122.5t-99 36.5q-77 0 -157 -40l-12 34q38 18 81 29.5t89 11.5zM304 268q-102 -5 -159 -37t-57 -98q0 -52 33 -80.5t92 -28.5q94 0 140 53.5t47 141.5v53z" />
    <glyph glyph-name="uni01E2" unicode="&#x1e2;" horiz-adv-x="787" 
d="M764 0h-382v260h-227l-112 -260h-44l314 714h451v-36h-343v-284h324v-36h-324v-322h343v-36zM172 296h210v382h-45zM537 830v-34h-264v34h264z" />
    <glyph glyph-name="uni01E3" unicode="&#x1e3;" horiz-adv-x="853" 
d="M604 540q64 0 107 -32.5t64 -88t19 -125.5v-31h-365q-1 -116 48.5 -177t137.5 -61q45 0 79 7.5t79 28.5v-38q-74 -33 -158 -33q-81 0 -132.5 40.5t-72.5 105.5q-21 -66 -68.5 -106t-130.5 -40q-79 0 -121 38t-42 105q0 79 65 119.5t182 46.5l95 6v41q0 85 -33 121.5
t-95 36.5q-74 0 -154 -40l-12 34q39 19 81.5 30t86.5 11q68 0 106.5 -33.5t48.5 -106.5q23 62 69 101.5t116 39.5zM604 505q-70 0 -118 -53t-56 -155h323q1 93 -36.5 150.5t-112.5 57.5zM299 268q-99 -5 -155 -37t-56 -98q0 -52 33 -80.5t93 -28.5q87 0 130.5 53.5
t44.5 141.5v53zM558 646v-34h-264v34h264z" />
    <glyph glyph-name="uni01E4" unicode="&#x1e4;" horiz-adv-x="722" 
d="M416 -10q-175 0 -264 95.5t-89 269.5q0 107 43 190.5t124.5 132t194.5 48.5q58 0 110 -11t99 -33l-17 -36q-48 23 -96.5 33.5t-97.5 10.5q-100 0 -171.5 -43t-110 -118t-38.5 -173q0 -172 84 -251t233 -79q56 0 101 8t82 23v102h-201v34h201v128h-228v37h267v-165h63v-34
h-63v-124q-99 -45 -226 -45z" />
    <glyph glyph-name="uni01E5" unicode="&#x1e5;" horiz-adv-x="590" 
d="M287 540q69 0 109 -27t63 -70h3l6 87h32v-595h75v-34h-78q-10 -66 -64 -103.5t-157 -37.5q-60 0 -105.5 10.5t-81.5 25.5v41q36 -18 84 -30t104 -12q82 0 126 26.5t54 79.5h-181v34h185v93q0 21 0.5 40.5t2.5 44.5h-3q-20 -58 -67.5 -87.5t-117.5 -29.5q-102 0 -160 67.5
t-58 197.5q0 129 58 204t171 75zM289 505q-97 0 -144 -64.5t-47 -179.5q0 -113 46.5 -172t134.5 -59q73 0 112.5 31.5t55 81.5t15.5 106v42q0 63 -16.5 111.5t-54 75.5t-102.5 27z" />
    <glyph glyph-name="Gcaron" unicode="&#x1e6;" horiz-adv-x="722" 
d="M375 355h267v-321q-50 -22 -107.5 -33t-120.5 -11q-172 0 -261.5 95.5t-89.5 269.5q0 107 43 190.5t124.5 132t194.5 48.5q58 0 110 -11t99 -33l-17 -36q-48 23 -96.5 33.5t-96.5 10.5q-100 0 -172 -43t-110.5 -118.5t-38.5 -172.5q0 -170 84 -250t233 -80q56 0 101 8.5
t82 22.5v262h-228v36zM379 790q-12 21 -32.5 48.5t-43 54.5t-40.5 47v8h29q27 -26 55 -58t50 -61q22 29 50.5 61t55.5 58h29v-8q-18 -20 -41 -47t-43.5 -54.5t-32.5 -48.5h-36z" />
    <glyph glyph-name="gcaron" unicode="&#x1e7;" horiz-adv-x="590" 
d="M287 540q69 0 109 -27t63 -70h3l6 87h32v-552q0 -99 -51.5 -158.5t-172.5 -59.5q-60 0 -105.5 10.5t-81.5 25.5v41q36 -18 84 -30t104 -12q99 0 141.5 49.5t42.5 132.5v38q0 25 0.5 46.5t2.5 46.5h-3q-20 -58 -67.5 -88t-117.5 -30q-102 0 -160 68.5t-58 199.5
q0 130 58 206t171 76zM289 505q-97 0 -144 -65.5t-47 -181.5q0 -114 46.5 -173.5t134.5 -59.5q73 0 112.5 31.5t55 82t15.5 107.5v43q0 64 -16.5 112.5t-54 76t-102.5 27.5zM266 606q-12 21 -32.5 48.5t-43 54.5t-40.5 47v8h29q27 -26 55 -58t50 -61q22 29 50.5 61t55.5 58
h29v-8q-18 -20 -41 -47t-43.5 -54.5t-32.5 -48.5h-36z" />
    <glyph glyph-name="uni01E8" unicode="&#x1e8;" horiz-adv-x="570" 
d="M570 0h-48l-283 386l-98 -96v-290h-39v714h39v-382q15 17 31.5 34t33.5 35l306 313h51l-295 -300zM283 790q-12 21 -32.5 48.5t-43 54.5t-40.5 47v8h29q27 -26 55 -58t50 -61q22 29 50.5 61t55.5 58h29v-8q-18 -20 -41 -47t-43.5 -54.5t-32.5 -48.5h-36z" />
    <glyph glyph-name="uni01E9" unicode="&#x1e9;" horiz-adv-x="470" 
d="M127 381v-81.5t-1 -81.5v0q15 18 29 34t30 34l220 244h48l-207 -228l226 -302h-46l-207 276l-92 -99v-177h-38v760h38v-379zM89 836q-12 21 -32.5 48.5t-43 54.5t-40.5 47v8h29q27 -26 55 -58t50 -61q22 29 50.5 61t55.5 58h29v-8q-18 -20 -41 -47t-43.5 -54.5
t-32.5 -48.5h-36z" />
    <glyph glyph-name="uni01EA" unicode="&#x1ea;" horiz-adv-x="759" 
d="M696 358q0 -108 -35 -191t-105.5 -130t-176.5 -47q-105 0 -175.5 47t-105.5 130t-35 192q0 108 36.5 190.5t108.5 129t176 46.5q150 0 231 -97.5t81 -269.5zM103 359q0 -98 30 -173t91.5 -117.5t155.5 -42.5t155 42t90.5 116.5t29.5 173.5q0 157 -69.5 244t-201.5 87
q-95 0 -157 -42t-93 -116.5t-31 -171.5zM341 -128q0 -58 56 -58q14 0 26.5 2t21.5 5v-30q-10 -4 -23 -6.5t-30 -2.5q-38 0 -62 21.5t-24 63.5q0 37 25 73t73 72l24 -12q-34 -28 -60.5 -59.5t-26.5 -68.5z" />
    <glyph glyph-name="uni01EB" unicode="&#x1eb;" horiz-adv-x="581" 
d="M522 265q0 -80 -25.5 -142t-77.5 -97.5t-130 -35.5q-75 0 -126.5 35t-78 97t-26.5 143q0 127 62.5 201t173.5 74q79 0 129 -36t74.5 -98t24.5 -141zM98 265q0 -107 47 -173.5t144 -66.5q67 0 110 30.5t63 84.5t20 125q0 68 -19 122t-60.5 86t-108.5 32
q-95 0 -145.5 -63.5t-50.5 -176.5zM268 -128q0 -58 56 -58q14 0 26.5 2t21.5 5v-30q-10 -4 -23 -6.5t-30 -2.5q-38 0 -62 21.5t-24 63.5q0 37 25 73t73 72l24 -12q-34 -28 -60.5 -59.5t-26.5 -68.5z" />
    <glyph glyph-name="uni01EC" unicode="&#x1ec;" horiz-adv-x="759" 
d="M696 358q0 -108 -35 -191t-105.5 -130t-176.5 -47q-105 0 -175.5 47t-105.5 130t-35 192q0 108 36.5 190.5t108.5 129t176 46.5q150 0 231 -97.5t81 -269.5zM103 359q0 -98 30 -173t91.5 -117.5t155.5 -42.5t155 42t90.5 116.5t29.5 173.5q0 157 -69.5 244t-201.5 87
q-95 0 -157 -42t-93 -116.5t-31 -171.5zM511 830v-34h-264v34h264zM362 -128q0 -58 56 -58q14 0 26.5 2t21.5 5v-30q-10 -4 -23 -6.5t-30 -2.5q-38 0 -62 21.5t-24 63.5q0 37 25 73t73 72l24 -12q-34 -28 -60.5 -59.5t-26.5 -68.5z" />
    <glyph glyph-name="uni01ED" unicode="&#x1ed;" horiz-adv-x="581" 
d="M522 265q0 -80 -25.5 -142t-77.5 -97.5t-130 -35.5q-75 0 -126.5 35t-78 97t-26.5 143q0 127 62.5 201t173.5 74q79 0 129 -36t74.5 -98t24.5 -141zM98 265q0 -107 47 -173.5t144 -66.5q67 0 110 30.5t63 84.5t20 125q0 68 -19 122t-60.5 86t-108.5 32
q-95 0 -145.5 -63.5t-50.5 -176.5zM422 646v-34h-264v34h264zM268 -128q0 -58 56 -58q14 0 26.5 2t21.5 5v-30q-10 -4 -23 -6.5t-30 -2.5q-38 0 -62 21.5t-24 63.5q0 37 25 73t73 72l24 -12q-34 -28 -60.5 -59.5t-26.5 -68.5z" />
    <glyph glyph-name="uni01EE" unicode="&#x1ee;" horiz-adv-x="579" 
d="M477 714v-31l-254 -284q135 -1 203 -48.5t68 -150.5q0 -96 -64.5 -153t-187.5 -57q-60 0 -111.5 11t-90.5 32v41q40 -23 94 -36t108 -13q102 0 156.5 46t54.5 129q0 164 -222 164h-55v35l250 279h-372v36h423zM255 790q-12 21 -32.5 48.5t-43 54.5t-40.5 47v8h29
q27 -26 55 -58t50 -61q22 29 50.5 61t55.5 58h29v-8q-18 -20 -41 -47t-43.5 -54.5t-32.5 -48.5h-36z" />
    <glyph glyph-name="uni01EF" unicode="&#x1ef;" horiz-adv-x="449" 
d="M400 530v-29l-261 -299q145 -2 212 -56.5t67 -156.5q0 -68 -28 -119.5t-80.5 -80.5t-125.5 -29q-52 0 -93 8.5t-75 24.5v40q35 -17 77.5 -27.5t91.5 -10.5q91 0 142 53t51 141q0 91 -60 135t-185 44h-43v29l257 298h-315v35h368zM191 606q-12 21 -32.5 48.5t-43 54.5
t-40.5 47v8h29q27 -26 55 -58t50 -61q22 29 50.5 61t55.5 58h29v-8q-18 -20 -41 -47t-43.5 -54.5t-32.5 -48.5h-36z" />
    <glyph glyph-name="uni01F0" unicode="&#x1f0;" horiz-adv-x="217" 
d="M13 -240q-20 0 -36 3t-28 7v36q15 -7 30.5 -9t31.5 -2q78 0 78 96v639h39v-642q0 -64 -32.5 -96t-82.5 -32zM89 606q-12 21 -32.5 48.5t-43 54.5t-40.5 47v8h29q27 -26 55 -58t50 -61q22 29 50.5 61t55.5 58h29v-8q-18 -20 -41 -47t-43.5 -54.5t-32.5 -48.5h-36z" />
    <glyph glyph-name="uni01F1" unicode="&#x1f1;" horiz-adv-x="1267" 
d="M636 364q0 -180 -93 -272t-278 -92h-163v714h186q173 0 260.5 -89.5t87.5 -260.5zM596 363q0 155 -77 235t-242 80h-136v-642h124q331 0 331 327zM1227 0h-501v28l438 650h-413v36h464v-28l-437 -650h449v-36z" />
    <glyph glyph-name="uni01F2" unicode="&#x1f2;" horiz-adv-x="1159" 
d="M636 364q0 -180 -93 -272t-278 -92h-163v714h186q173 0 260.5 -89.5t87.5 -260.5zM596 363q0 155 -77 235t-242 80h-136v-642h124q331 0 331 327zM1116 0h-375v25l326 471h-301v34h351v-26l-327 -470h326v-34z" />
    <glyph glyph-name="uni01F3" unicode="&#x1f3;" horiz-adv-x="1048" 
d="M281 -10q-111 0 -167 68t-56 199q0 137 60 210t170 73q70 0 113.5 -33.5t61.5 -81.5h3q-2 29 -2.5 59.5t-0.5 59.5v216h38v-760h-32l-4 105h-2q-19 -47 -62.5 -81t-119.5 -34zM284 25q97 0 138 61.5t41 173.5v6q0 116 -41.5 177.5t-131.5 61.5q-93 0 -142.5 -63
t-49.5 -186q0 -115 46 -173t140 -58zM1006 0h-375v25l326 471h-301v34h351v-26l-327 -470h326v-34z" />
    <glyph glyph-name="uni01F4" unicode="&#x1f4;" horiz-adv-x="722" 
d="M375 355h267v-321q-50 -22 -107.5 -33t-120.5 -11q-172 0 -261.5 95.5t-89.5 269.5q0 107 43 190.5t124.5 132t194.5 48.5q58 0 110 -11t99 -33l-17 -36q-48 23 -96.5 33.5t-96.5 10.5q-100 0 -172 -43t-110.5 -118.5t-38.5 -172.5q0 -170 84 -250t233 -80q56 0 101 8.5
t82 22.5v262h-228v36zM539 942q-17 -21 -41.5 -48.5t-52.5 -55t-53 -48.5h-29v7q21 20 46 47.5t47.5 55.5t36.5 50h46v-8z" />
    <glyph glyph-name="uni01F5" unicode="&#x1f5;" horiz-adv-x="590" 
d="M287 540q69 0 109 -27t63 -70h3l6 87h32v-552q0 -99 -51.5 -158.5t-172.5 -59.5q-60 0 -105.5 10.5t-81.5 25.5v41q36 -18 84 -30t104 -12q99 0 141.5 49.5t42.5 132.5v38q0 25 0.5 46.5t2.5 46.5h-3q-20 -58 -67.5 -88t-117.5 -30q-102 0 -160 68.5t-58 199.5
q0 130 58 206t171 76zM289 505q-97 0 -144 -65.5t-47 -181.5q0 -114 46.5 -173.5t134.5 -59.5q73 0 112.5 31.5t55 82t15.5 107.5v43q0 64 -16.5 112.5t-54 76t-102.5 27.5zM423 758q-17 -21 -41.5 -48.5t-52.5 -55t-53 -48.5h-29v7q21 20 46 47.5t47.5 55.5t36.5 50h46v-8z
" />
    <glyph glyph-name="uni01F6" unicode="&#x1f6;" horiz-adv-x="987" 
d="M102 0v714h39v-322h387v322h39v-528q0 -60 18.5 -95t51.5 -50t76 -15q64 0 102.5 36t38.5 125v343h37v-347q0 -101 -50.5 -147t-128.5 -46q-83 0 -133.5 45.5t-50.5 148.5v172h-387v-356h-39z" />
    <glyph glyph-name="uni01F7" unicode="&#x1f7;" horiz-adv-x="610" 
d="M352 725q55 0 101.5 -25t74.5 -80.5t28 -147.5q0 -94 -32 -170t-89 -135t-133 -101.5t-164 -69.5v-236h-36v955h31l5 -131h3q12 34 38 66.5t68.5 53.5t104.5 21zM345 689q-96 0 -151.5 -64.5t-55.5 -185.5v-406q105 32 191 90.5t136.5 144.5t50.5 202q0 82 -23.5 130
t-62.5 68.5t-85 20.5z" />
    <glyph glyph-name="uni01F8" unicode="&#x1f8;" horiz-adv-x="711" 
d="M608 0h-36l-433 642h-2q1 -41 1.5 -79.5t0.5 -81.5v-481h-37v714h37l431 -640h2q0 34 -1 77t-1 80v483h38v-714zM307 950q14 -22 36.5 -50t47.5 -55.5t47 -47.5v-7h-29q-26 21 -54 48.5t-52.5 55t-40.5 48.5v8h45z" />
    <glyph glyph-name="uni01F9" unicode="&#x1f9;" horiz-adv-x="582" 
d="M316 540q88 0 135.5 -47t47.5 -146v-347h-39v345q0 83 -38 121.5t-109 38.5q-87 0 -136 -51.5t-49 -156.5v-297h-39v530h31l6 -104h3q19 45 64.5 79.5t122.5 34.5zM243 766q14 -22 36.5 -50t47.5 -55.5t47 -47.5v-7h-29q-26 21 -54 48.5t-52.5 55t-40.5 48.5v8h45z" />
    <glyph glyph-name="Aringacute" unicode="&#x1fa;" horiz-adv-x="589" 
d="M277 830q30 29 60.5 65t50.5 69h45v-8q-49 -68 -127 -133h-29v7zM274 584q-36 7 -58.5 33t-22.5 70q0 45 29.5 73.5t75.5 28.5q47 0 75.5 -28t28.5 -75q0 -42 -22 -67.5t-58 -34.5l272 -584h-43l-104 225h-304l-107 -225h-42zM297 608q35 0 56 20.5t21 57.5
q0 35 -21 55.5t-56 20.5q-34 0 -55 -20.5t-21 -55.5q0 -37 21.5 -57.5t54.5 -20.5zM159 261h273l-106 233q-7 14 -14 31t-15 36q-7 -19 -14 -35.5t-13 -30.5z" />
    <glyph glyph-name="aringacute" unicode="&#x1fb;" horiz-adv-x="521" 
d="M388 945q-24 -31 -61.5 -65.5t-72.5 -63.5h-30v7q28 26 60.5 62t52.5 67h51v-7zM270 784q42 0 72 -29.5t30 -71.5q0 -46 -30 -74t-72 -28t-72.5 27.5t-30.5 74.5q0 44 30 72.5t73 28.5zM270 754q-31 0 -52 -20.5t-21 -50.5q0 -31 20 -51.5t53 -20.5q32 0 52 20.5t20 51.5
q0 30 -21.5 50.5t-50.5 20.5zM269 539q85 0 127.5 -44.5t42.5 -141.5v-353h-31l-7 98h-2q-24 -46 -67.5 -77t-122.5 -31q-78 0 -119.5 38t-41.5 105q0 79 65.5 119.5t186.5 46.5l100 6v40q0 86 -33 122.5t-99 36.5q-77 0 -157 -40l-12 34q38 18 81 29.5t89 11.5zM304 268
q-102 -5 -159 -37t-57 -98q0 -52 33 -80.5t92 -28.5q94 0 140 53.5t47 141.5v53z" />
    <glyph glyph-name="AEacute" unicode="&#x1fc;" horiz-adv-x="787" 
d="M764 0h-382v260h-227l-112 -260h-44l314 714h451v-36h-343v-284h324v-36h-324v-322h343v-36zM172 296h210v382h-45zM535 942q-17 -21 -41.5 -48.5t-52.5 -55t-53 -48.5h-29v7q21 20 46 47.5t47.5 55.5t36.5 50h46v-8z" />
    <glyph glyph-name="aeacute" unicode="&#x1fd;" horiz-adv-x="853" 
d="M604 540q64 0 107 -32.5t64 -88t19 -125.5v-31h-365q-1 -116 48.5 -177t137.5 -61q45 0 79 7.5t79 28.5v-38q-74 -33 -158 -33q-81 0 -132.5 40.5t-72.5 105.5q-21 -66 -68.5 -106t-130.5 -40q-79 0 -121 38t-42 105q0 79 65 119.5t182 46.5l95 6v41q0 85 -33 121.5
t-95 36.5q-74 0 -154 -40l-12 34q39 19 81.5 30t86.5 11q68 0 106.5 -33.5t48.5 -106.5q23 62 69 101.5t116 39.5zM604 505q-70 0 -118 -53t-56 -155h323q1 93 -36.5 150.5t-112.5 57.5zM299 268q-99 -5 -155 -37t-56 -98q0 -52 33 -80.5t93 -28.5q87 0 130.5 53.5
t44.5 141.5v53zM558 758q-17 -21 -41.5 -48.5t-52.5 -55t-53 -48.5h-29v7q21 20 46 47.5t47.5 55.5t36.5 50h46v-8z" />
    <glyph glyph-name="Oslashacute" unicode="&#x1fe;" horiz-adv-x="759" 
d="M696 358q0 -108 -35 -191t-105.5 -130t-176.5 -47q-63 0 -113.5 17.5t-87.5 50.5l-62 -85l-29 20l65 88q-44 50 -66.5 121t-22.5 157q0 108 36.5 190.5t108.5 129t176 46.5q59 0 107.5 -16t85.5 -46l57 78l29 -20l-59 -81q44 -47 68 -118.5t24 -163.5zM103 359
q0 -76 18 -138.5t54 -106.5l380 519q-32 27 -75 41.5t-96 14.5q-95 0 -157 -42t-93 -116.5t-31 -171.5zM655 358q0 164 -75 250l-380 -520q33 -29 78 -45.5t102 -16.5q94 0 155 42t90.5 116.5t29.5 173.5zM510 942q-17 -21 -41.5 -48.5t-52.5 -55t-53 -48.5h-29v7
q21 20 46 47.5t47.5 55.5t36.5 50h46v-8z" />
    <glyph glyph-name="oslashacute" unicode="&#x1ff;" horiz-adv-x="581" 
d="M522 265q0 -80 -25.5 -142t-77.5 -97.5t-130 -35.5q-49 0 -86.5 15t-65.5 43l-61 -76l-27 20l64 81q-55 74 -55 192q0 127 62.5 201t173.5 74q47 0 83 -13.5t63 -38.5l54 69l27 -20l-57 -72q29 -37 43.5 -88.5t14.5 -111.5zM98 265q0 -100 39 -161l280 356
q-22 21 -52.5 33t-70.5 12q-95 0 -145.5 -63.5t-50.5 -176.5zM482 265q0 50 -10 93t-32 75l-281 -357q23 -24 55.5 -37.5t74.5 -13.5q67 0 110 30.5t63 84.5t20 125zM421 758q-17 -21 -41.5 -48.5t-52.5 -55t-53 -48.5h-29v7q21 20 46 47.5t47.5 55.5t36.5 50h46v-8z" />
    <glyph glyph-name="uni0200" unicode="&#x200;" horiz-adv-x="590" 
d="M548 0l-100 261h-305l-102 -261h-41l281 716h37l271 -716h-41zM330 578q-5 17 -14 41.5t-18 50.5q-7 -24 -16 -48.5t-17 -43.5l-108 -281h277zM307 950q11 -22 29 -50.5t38 -55.5t37 -47v-7h-27q-21 21 -44 48t-43 54.5t-34 49.5v8h44zM143 950q12 -22 30 -50.5t38 -55.5
t37 -47v-7h-27q-21 21 -44 48t-43 54.5t-34 49.5v8h43z" />
    <glyph glyph-name="uni0201" unicode="&#x201;" horiz-adv-x="521" 
d="M269 539q85 0 127.5 -44.5t42.5 -141.5v-353h-31l-7 98h-2q-24 -46 -67.5 -77t-122.5 -31q-78 0 -119.5 38t-41.5 105q0 79 65.5 119.5t186.5 46.5l100 6v40q0 86 -33 122.5t-99 36.5q-77 0 -157 -40l-12 34q38 18 81 29.5t89 11.5zM304 268q-102 -5 -159 -37t-57 -98
q0 -52 33 -80.5t92 -28.5q94 0 140 53.5t47 141.5v53zM265 766q11 -22 29 -50.5t38 -55.5t37 -47v-7h-27q-21 21 -44 48t-43 54.5t-34 49.5v8h44zM101 766q12 -22 30 -50.5t38 -55.5t37 -47v-7h-27q-21 21 -44 48t-43 54.5t-34 49.5v8h43z" />
    <glyph glyph-name="uni0202" unicode="&#x202;" horiz-adv-x="590" 
d="M548 0l-100 261h-305l-102 -261h-41l281 716h37l271 -716h-41zM330 578q-5 17 -14 41.5t-18 50.5q-7 -24 -16 -48.5t-17 -43.5l-108 -281h277zM301 906q58 0 91 -30t37 -86h-31q-8 83 -97 83q-47 0 -70.5 -21.5t-28.5 -61.5h-31q6 56 39 86t91 30z" />
    <glyph glyph-name="uni0203" unicode="&#x203;" horiz-adv-x="521" 
d="M269 539q85 0 127.5 -44.5t42.5 -141.5v-353h-31l-7 98h-2q-24 -46 -67.5 -77t-122.5 -31q-78 0 -119.5 38t-41.5 105q0 79 65.5 119.5t186.5 46.5l100 6v40q0 86 -33 122.5t-99 36.5q-77 0 -157 -40l-12 34q38 18 81 29.5t89 11.5zM304 268q-102 -5 -159 -37t-57 -98
q0 -52 33 -80.5t92 -28.5q94 0 140 53.5t47 141.5v53zM259 722q58 0 91 -30t37 -86h-31q-8 83 -97 83q-47 0 -70.5 -21.5t-28.5 -61.5h-31q6 56 39 86t91 30z" />
    <glyph glyph-name="uni0204" unicode="&#x204;" horiz-adv-x="551" 
d="M490 0h-388v714h388v-36h-349v-284h329v-36h-329v-322h349v-36zM317 950q11 -22 29 -50.5t38 -55.5t37 -47v-7h-27q-21 21 -44 48t-43 54.5t-34 49.5v8h44zM153 950q12 -22 30 -50.5t38 -55.5t37 -47v-7h-27q-21 21 -44 48t-43 54.5t-34 49.5v8h43z" />
    <glyph glyph-name="uni0205" unicode="&#x205;" horiz-adv-x="545" 
d="M288 540q68 0 111.5 -32.5t65 -88t21.5 -125.5v-31h-388q-1 -115 51.5 -176.5t150.5 -61.5q49 0 84.5 7.5t80.5 28.5v-38q-39 -17 -77.5 -25t-88.5 -8q-81 0 -134.5 34t-80 95t-26.5 141q0 77 26 140.5t77 101.5t127 38zM288 505q-80 0 -130 -53.5t-59 -154.5h347
q0 93 -39 150.5t-119 57.5zM289 766q11 -22 29 -50.5t38 -55.5t37 -47v-7h-27q-21 21 -44 48t-43 54.5t-34 49.5v8h44zM125 766q12 -22 30 -50.5t38 -55.5t37 -47v-7h-27q-21 21 -44 48t-43 54.5t-34 49.5v8h43z" />
    <glyph glyph-name="uni0206" unicode="&#x206;" horiz-adv-x="551" 
d="M490 0h-388v714h388v-36h-349v-284h329v-36h-329v-322h349v-36zM311 906q58 0 91 -30t37 -86h-31q-8 83 -97 83q-47 0 -70.5 -21.5t-28.5 -61.5h-31q6 56 39 86t91 30z" />
    <glyph glyph-name="uni0207" unicode="&#x207;" horiz-adv-x="545" 
d="M288 540q68 0 111.5 -32.5t65 -88t21.5 -125.5v-31h-388q-1 -115 51.5 -176.5t150.5 -61.5q49 0 84.5 7.5t80.5 28.5v-38q-39 -17 -77.5 -25t-88.5 -8q-81 0 -134.5 34t-80 95t-26.5 141q0 77 26 140.5t77 101.5t127 38zM288 505q-80 0 -130 -53.5t-59 -154.5h347
q0 93 -39 150.5t-119 57.5zM283 722q58 0 91 -30t37 -86h-31q-8 83 -97 83q-47 0 -70.5 -21.5t-28.5 -61.5h-31q6 56 39 86t91 30z" />
    <glyph glyph-name="uni0208" unicode="&#x208;" horiz-adv-x="294" 
d="M238 0h-181v27l71 6v647l-71 8v26h181v-26l-71 -8v-647l71 -6v-27zM155 950q11 -22 29 -50.5t38 -55.5t37 -47v-7h-27q-21 21 -44 48t-43 54.5t-34 49.5v8h44zM-9 950q12 -22 30 -50.5t38 -55.5t37 -47v-7h-27q-21 21 -44 48t-43 54.5t-34 49.5v8h43z" />
    <glyph glyph-name="uni0209" unicode="&#x209;" horiz-adv-x="217" 
d="M128 0h-39v530h39v-530zM116 766q11 -22 29 -50.5t38 -55.5t37 -47v-7h-27q-21 21 -44 48t-43 54.5t-34 49.5v8h44zM-48 766q12 -22 30 -50.5t38 -55.5t37 -47v-7h-27q-21 21 -44 48t-43 54.5t-34 49.5v8h43z" />
    <glyph glyph-name="uni020A" unicode="&#x20a;" horiz-adv-x="294" 
d="M238 0h-181v27l71 6v647l-71 8v26h181v-26l-71 -8v-647l71 -6v-27zM149 906q58 0 91 -30t37 -86h-31q-8 83 -97 83q-47 0 -70.5 -21.5t-28.5 -61.5h-31q6 56 39 86t91 30z" />
    <glyph glyph-name="uni020B" unicode="&#x20b;" horiz-adv-x="217" 
d="M128 0h-39v530h39v-530zM110 722q58 0 91 -30t37 -86h-31q-8 83 -97 83q-47 0 -70.5 -21.5t-28.5 -61.5h-31q6 56 39 86t91 30z" />
    <glyph glyph-name="uni020C" unicode="&#x20c;" horiz-adv-x="759" 
d="M696 358q0 -108 -35 -191t-105.5 -130t-176.5 -47q-105 0 -175.5 47t-105.5 130t-35 192q0 108 36.5 190.5t108.5 129t176 46.5q150 0 231 -97.5t81 -269.5zM103 359q0 -98 30 -173t91.5 -117.5t155.5 -42.5t155 42t90.5 116.5t29.5 173.5q0 157 -69.5 244t-201.5 87
q-95 0 -157 -42t-93 -116.5t-31 -171.5zM388 950q11 -22 29 -50.5t38 -55.5t37 -47v-7h-27q-21 21 -44 48t-43 54.5t-34 49.5v8h44zM224 950q12 -22 30 -50.5t38 -55.5t37 -47v-7h-27q-21 21 -44 48t-43 54.5t-34 49.5v8h43z" />
    <glyph glyph-name="uni020D" unicode="&#x20d;" horiz-adv-x="581" 
d="M522 265q0 -80 -25.5 -142t-77.5 -97.5t-130 -35.5q-75 0 -126.5 35t-78 97t-26.5 143q0 127 62.5 201t173.5 74q79 0 129 -36t74.5 -98t24.5 -141zM98 265q0 -107 47 -173.5t144 -66.5q67 0 110 30.5t63 84.5t20 125q0 68 -19 122t-60.5 86t-108.5 32
q-95 0 -145.5 -63.5t-50.5 -176.5zM298 766q11 -22 29 -50.5t38 -55.5t37 -47v-7h-27q-21 21 -44 48t-43 54.5t-34 49.5v8h44zM134 766q12 -22 30 -50.5t38 -55.5t37 -47v-7h-27q-21 21 -44 48t-43 54.5t-34 49.5v8h43z" />
    <glyph glyph-name="uni020E" unicode="&#x20e;" horiz-adv-x="759" 
d="M696 358q0 -108 -35 -191t-105.5 -130t-176.5 -47q-105 0 -175.5 47t-105.5 130t-35 192q0 108 36.5 190.5t108.5 129t176 46.5q150 0 231 -97.5t81 -269.5zM103 359q0 -98 30 -173t91.5 -117.5t155.5 -42.5t155 42t90.5 116.5t29.5 173.5q0 157 -69.5 244t-201.5 87
q-95 0 -157 -42t-93 -116.5t-31 -171.5zM382 906q58 0 91 -30t37 -86h-31q-8 83 -97 83q-47 0 -70.5 -21.5t-28.5 -61.5h-31q6 56 39 86t91 30z" />
    <glyph glyph-name="uni020F" unicode="&#x20f;" horiz-adv-x="581" 
d="M522 265q0 -80 -25.5 -142t-77.5 -97.5t-130 -35.5q-75 0 -126.5 35t-78 97t-26.5 143q0 127 62.5 201t173.5 74q79 0 129 -36t74.5 -98t24.5 -141zM98 265q0 -107 47 -173.5t144 -66.5q67 0 110 30.5t63 84.5t20 125q0 68 -19 122t-60.5 86t-108.5 32
q-95 0 -145.5 -63.5t-50.5 -176.5zM292 722q58 0 91 -30t37 -86h-31q-8 83 -97 83q-47 0 -70.5 -21.5t-28.5 -61.5h-31q6 56 39 86t91 30z" />
    <glyph glyph-name="uni0210" unicode="&#x210;" horiz-adv-x="586" 
d="M269 714q125 0 190 -41.5t65 -150.5q0 -81 -43 -128.5t-115 -67.5l196 -326h-47l-188 315h-186v-315h-39v714h167zM264 678h-123v-328h151q87 0 139 44.5t52 126.5q0 90 -54 123.5t-165 33.5zM316 950q11 -22 29 -50.5t38 -55.5t37 -47v-7h-27q-21 21 -44 48t-43 54.5
t-34 49.5v8h44zM152 950q12 -22 30 -50.5t38 -55.5t37 -47v-7h-27q-21 21 -44 48t-43 54.5t-34 49.5v8h43z" />
    <glyph glyph-name="uni0211" unicode="&#x211;" horiz-adv-x="383" 
d="M290 538q22 0 41 -2.5t36 -7.5l-7 -36q-18 5 -34.5 7.5t-37.5 2.5q-79 0 -119.5 -56t-40.5 -151v-295h-38v530h34l3 -101h3q16 46 56.5 77.5t103.5 31.5zM229 766q11 -22 29 -50.5t38 -55.5t37 -47v-7h-27q-21 21 -44 48t-43 54.5t-34 49.5v8h44zM65 766q12 -22 30 -50.5
t38 -55.5t37 -47v-7h-27q-21 21 -44 48t-43 54.5t-34 49.5v8h43z" />
    <glyph glyph-name="uni0212" unicode="&#x212;" horiz-adv-x="586" 
d="M269 714q125 0 190 -41.5t65 -150.5q0 -81 -43 -128.5t-115 -67.5l196 -326h-47l-188 315h-186v-315h-39v714h167zM264 678h-123v-328h151q87 0 139 44.5t52 126.5q0 90 -54 123.5t-165 33.5zM311 906q58 0 91 -30t37 -86h-31q-8 83 -97 83q-47 0 -70.5 -21.5
t-28.5 -61.5h-31q6 56 39 86t91 30z" />
    <glyph glyph-name="uni0213" unicode="&#x213;" horiz-adv-x="383" 
d="M290 538q22 0 41 -2.5t36 -7.5l-7 -36q-18 5 -34.5 7.5t-37.5 2.5q-79 0 -119.5 -56t-40.5 -151v-295h-38v530h34l3 -101h3q16 46 56.5 77.5t103.5 31.5zM223 722q58 0 91 -30t37 -86h-31q-8 83 -97 83q-47 0 -70.5 -21.5t-28.5 -61.5h-31q6 56 39 86t91 30z" />
    <glyph glyph-name="uni0214" unicode="&#x214;" horiz-adv-x="716" 
d="M622 252q0 -129 -72 -195.5t-194 -66.5q-125 0 -193.5 68t-68.5 196v460h39v-459q0 -113 58.5 -171t166.5 -58q105 0 165.5 56t60.5 164v468h38v-462zM366 950q11 -22 29 -50.5t38 -55.5t37 -47v-7h-27q-21 21 -44 48t-43 54.5t-34 49.5v8h44zM202 950q12 -22 30 -50.5
t38 -55.5t37 -47v-7h-27q-21 21 -44 48t-43 54.5t-34 49.5v8h43z" />
    <glyph glyph-name="uni0215" unicode="&#x215;" horiz-adv-x="582" 
d="M492 530v-530h-32l-6 103h-2q-19 -45 -64.5 -79t-123.5 -34q-183 0 -183 193v347h39v-343q0 -84 38 -123t109 -39q87 0 136.5 51t49.5 156v298h39zM299 766q11 -22 29 -50.5t38 -55.5t37 -47v-7h-27q-21 21 -44 48t-43 54.5t-34 49.5v8h44zM135 766q12 -22 30 -50.5
t38 -55.5t37 -47v-7h-27q-21 21 -44 48t-43 54.5t-34 49.5v8h43z" />
    <glyph glyph-name="uni0216" unicode="&#x216;" horiz-adv-x="716" 
d="M622 252q0 -129 -72 -195.5t-194 -66.5q-125 0 -193.5 68t-68.5 196v460h39v-459q0 -113 58.5 -171t166.5 -58q105 0 165.5 56t60.5 164v468h38v-462zM360 906q58 0 91 -30t37 -86h-31q-8 83 -97 83q-47 0 -70.5 -21.5t-28.5 -61.5h-31q6 56 39 86t91 30z" />
    <glyph glyph-name="uni0217" unicode="&#x217;" horiz-adv-x="582" 
d="M492 530v-530h-32l-6 103h-2q-19 -45 -64.5 -79t-123.5 -34q-183 0 -183 193v347h39v-343q0 -84 38 -123t109 -39q87 0 136.5 51t49.5 156v298h39zM293 722q58 0 91 -30t37 -86h-31q-8 83 -97 83q-47 0 -70.5 -21.5t-28.5 -61.5h-31q6 56 39 86t91 30z" />
    <glyph glyph-name="uni0218" unicode="&#x218;" horiz-adv-x="544" 
d="M492 182q0 -64 -32.5 -106.5t-87.5 -64t-123 -21.5q-67 0 -112.5 9t-81.5 21v41q39 -15 88 -25t109 -10q56 0 101 16.5t72 51t27 87.5q0 47 -22.5 76t-65.5 49.5t-105 41.5q-58 19 -102.5 42t-69 59t-24.5 95t30.5 99t81.5 60.5t115 20.5q99 0 184 -38l-15 -34
q-44 20 -86.5 28t-84.5 8q-51 0 -93 -15.5t-67 -47t-25 -80.5q0 -51 23 -81t63.5 -48.5t93.5 -36.5q63 -20 110 -43.5t73 -59t26 -94.5zM313 -68q-9 -36 -25 -77t-39 -76h-23v7q8 16 17.5 43.5t17.5 58t11 51.5h41v-7z" />
    <glyph glyph-name="uni0219" unicode="&#x219;" horiz-adv-x="462" 
d="M416 137q0 -69 -51.5 -108t-150.5 -39q-55 0 -99 10t-73 24v40q38 -19 82 -29.5t91 -10.5q86 0 124 30t38 81q0 35 -19.5 57t-54.5 37t-80 29q-48 16 -86 31.5t-60 42t-22 74.5q0 63 50.5 98.5t135.5 35.5q47 0 88 -9t74 -23l-15 -34q-29 14 -69 22.5t-79 8.5
q-69 0 -107.5 -24.5t-38.5 -73.5q0 -37 19 -57t52 -32.5t76 -27.5q46 -15 85.5 -31.5t64.5 -44.5t25 -77zM275 -68q-9 -36 -25 -77t-39 -76h-23v7q8 16 17.5 43.5t17.5 58t11 51.5h41v-7z" />
    <glyph glyph-name="uni021A" unicode="&#x21a;" horiz-adv-x="515" 
d="M277 0h-39v678h-234v36h508v-36h-235v-678zM302 -68q-9 -36 -25 -77t-39 -76h-23v7q8 16 17.5 43.5t17.5 58t11 51.5h41v-7z" />
    <glyph glyph-name="uni021B" unicode="&#x21b;" horiz-adv-x="328" 
d="M223 25q23 0 42.5 3t35.5 9v-33q-16 -6 -36 -10t-45 -4q-69 0 -99 39t-30 114v353h-80v26l80 9l12 128h27v-129h168v-34h-168v-350q0 -59 20.5 -90t72.5 -31zM239 -68q-9 -36 -25 -77t-39 -76h-23v7q8 16 17.5 43.5t17.5 58t11 51.5h41v-7z" />
    <glyph glyph-name="uni021C" unicode="&#x21c;" horiz-adv-x="549" 
d="M41 -142q150 39 240.5 82.5t130.5 97t40 120.5q0 71 -35.5 115t-101.5 75q-34 -12 -71.5 -22.5t-79.5 -21.5l-8 34q89 22 152 45.5t97 60.5t34 99q0 55 -25.5 87t-65 45.5t-80.5 13.5q-60 0 -108 -19t-91 -49l-21 28q51 36 102.5 55.5t117.5 19.5q57 0 105 -18.5
t77 -58.5t29 -103q0 -67 -34.5 -109t-92.5 -70q60 -27 100 -75t40 -131q0 -84 -46.5 -145.5t-146 -108t-258.5 -85.5v38z" />
    <glyph glyph-name="uni021D" unicode="&#x21d;" horiz-adv-x="471" 
d="M30 -204q108 25 186.5 57t121 79t42.5 116q0 60 -30.5 97.5t-85.5 61.5q-27 -10 -58 -20t-66 -19l-9 32q81 21 132.5 44t76.5 55.5t25 80.5q0 45 -21.5 73t-56 40.5t-72.5 12.5q-42 0 -81.5 -11t-72.5 -28l-14 30q37 20 79 31.5t89 11.5q82 0 136 -40t54 -120
q0 -54 -28.5 -92.5t-77.5 -63.5q31 -13 59 -35.5t45 -57t17 -82.5q0 -85 -49 -139.5t-137 -89.5t-204 -61v37z" />
    <glyph glyph-name="uni021E" unicode="&#x21e;" horiz-adv-x="713" 
d="M611 0h-39v357h-431v-357h-39v714h39v-321h431v321h39v-714zM338 790q-12 21 -32.5 48.5t-43 54.5t-40.5 47v8h29q27 -26 55 -58t50 -61q22 29 50.5 61t55.5 58h29v-8q-18 -20 -41 -47t-43.5 -54.5t-32.5 -48.5h-36z" />
    <glyph glyph-name="uni021F" unicode="&#x21f;" horiz-adv-x="582" 
d="M128 504q0 -22 -1 -39.5t-2 -38.5h3q18 46 64 79.5t124 33.5q87 0 135 -46.5t48 -145.5v-347h-39v345q0 83 -38 121.5t-109 38.5q-87 0 -136 -51.5t-49 -156.5v-297h-39v760h39v-256zM90 836q-12 21 -32.5 48.5t-43 54.5t-40.5 47v8h29q27 -26 55 -58t50 -61
q22 29 50.5 61t55.5 58h29v-8q-18 -20 -41 -47t-43.5 -54.5t-32.5 -48.5h-36z" />
    <glyph glyph-name="uni0220" unicode="&#x220;" horiz-adv-x="671" 
d="M354 724q110 0 166.5 -59t56.5 -187v-718h-39v714q0 115 -46 164.5t-140 49.5q-108 0 -159.5 -58.5t-51.5 -170.5v-459h-39v714h31l5 -119h2q20 53 71.5 91t142.5 38z" />
    <glyph glyph-name="uni0221" unicode="&#x221;" horiz-adv-x="849" 
d="M494 -96q1 24 5.5 56t10.5 57q-16 12 -26 33t-15 57h-1q-20 -48 -64 -82.5t-122 -34.5q-112 0 -168 68t-56 199q0 137 60 210t170 73q70 0 113.5 -33.5t61.5 -81.5h3q-2 29 -2.5 59.5t-0.5 59.5v216h38v-597q0 -34 5 -61.5t16 -43.5q13 35 36 72t60.5 62t93.5 25
q55 0 89 -26t34 -73q0 -51 -38 -84.5t-128 -33.5q-43 0 -77.5 2t-47.5 4q-5 -19 -9 -50.5t-5 -54.5zM284 25q97 0 138 60.5t41 174.5v6q0 116 -41.5 177.5t-131.5 61.5q-93 0 -142.5 -63t-49.5 -186q0 -115 46 -173t140 -58zM669 34q74 0 101.5 22.5t27.5 59.5
q0 32 -22.5 49.5t-66.5 17.5q-48 0 -78.5 -21t-48.5 -53.5t-29 -68.5q17 -2 48 -4t68 -2z" />
    <glyph glyph-name="uni0222" unicode="&#x222;" horiz-adv-x="644" 
d="M323 -12q-126 0 -197 62t-71 173q0 66 24 110t62 68.5t79 31.5q-64 12 -97.5 56t-33.5 139v102h39v-99q0 -68 18 -107t60 -55.5t113 -16.5q72 0 115.5 16.5t63 57t19.5 110.5v94h39v-99q0 -65 -16 -105t-45.5 -61.5t-69.5 -31.5q43 -7 81 -31.5t61.5 -69t22.5 -111.5
q-1 -114 -70.5 -173.5t-196.5 -59.5zM324 24q110 0 167.5 51t57.5 146q0 97 -54.5 146t-175.5 49q-111 0 -167 -49.5t-56 -143.5t59 -146.5t169 -52.5z" />
    <glyph glyph-name="uni0223" unicode="&#x223;" horiz-adv-x="596" 
d="M300 -12q-106 0 -170 63t-64 178q0 70 21.5 115t55 70t69.5 33q-37 7 -63 26.5t-40 58t-14 102.5v105h39v-102q0 -66 16 -103t52 -52.5t94 -15.5t95.5 14.5t55.5 52.5t18 110v96h38v-102q0 -64 -15 -102.5t-41 -58.5t-61 -29q38 -7 71.5 -32t54 -71t20.5 -117
q-2 -118 -64 -178.5t-168 -60.5zM300 23q90 0 141 52.5t51 151.5q0 103 -48 153.5t-149 50.5q-90 0 -139.5 -51t-49.5 -151q0 -99 52.5 -152.5t141.5 -53.5z" />
    <glyph glyph-name="uni0224" unicode="&#x224;" horiz-adv-x="577" 
d="M457 -175q-14 0 -26.5 3t-19.5 7v34q8 -3 19.5 -6t24.5 -3q45 0 45 61v79h-464v28l438 650h-413v36h464v-28l-437 -650h449v-116q0 -95 -80 -95z" />
    <glyph glyph-name="uni0225" unicode="&#x225;" horiz-adv-x="459" 
d="M417 530v-26l-327 -470h335v-114q0 -95 -81 -95q-14 0 -26 3t-19 7v34q8 -3 19.5 -6t23.5 -3q46 0 46 61v79h-347v25l326 471h-301v34h351z" />
    <glyph glyph-name="uni0226" unicode="&#x226;" horiz-adv-x="590" 
d="M548 0l-100 261h-305l-102 -261h-41l281 716h37l271 -716h-41zM330 578q-5 17 -14 41.5t-18 50.5q-7 -24 -16 -48.5t-17 -43.5l-108 -281h277zM294 908q19 0 25.5 -10t6.5 -26t-6.5 -26t-25.5 -10q-16 0 -23 10t-7 26t7 26t23 10z" />
    <glyph glyph-name="uni0227" unicode="&#x227;" horiz-adv-x="521" 
d="M269 539q85 0 127.5 -44.5t42.5 -141.5v-353h-31l-7 98h-2q-24 -46 -67.5 -77t-122.5 -31q-78 0 -119.5 38t-41.5 105q0 79 65.5 119.5t186.5 46.5l100 6v40q0 86 -33 122.5t-99 36.5q-77 0 -157 -40l-12 34q38 18 81 29.5t89 11.5zM304 268q-102 -5 -159 -37t-57 -98
q0 -52 33 -80.5t92 -28.5q94 0 140 53.5t47 141.5v53zM260 724q19 0 25.5 -10t6.5 -26t-6.5 -26t-25.5 -10q-16 0 -23 10t-7 26t7 26t23 10z" />
    <glyph glyph-name="uni0228" unicode="&#x228;" horiz-adv-x="551" 
d="M490 0h-388v714h388v-36h-349v-284h329v-36h-329v-322h349v-36zM374 -144q0 -44 -33.5 -70t-87.5 -26q-34 0 -55 6v30q12 -3 25 -4.5t31 -1.5q38 0 61.5 16.5t23.5 48.5q0 58 -100 60l43 85h32l-31 -63q41 -3 66 -23.5t25 -57.5z" />
    <glyph glyph-name="uni0229" unicode="&#x229;" horiz-adv-x="545" 
d="M288 540q68 0 111.5 -32.5t65 -88t21.5 -125.5v-31h-388q-1 -115 51.5 -176.5t150.5 -61.5q49 0 84.5 7.5t80.5 28.5v-38q-39 -17 -77.5 -25t-88.5 -8q-81 0 -134.5 34t-80 95t-26.5 141q0 77 26 140.5t77 101.5t127 38zM288 505q-80 0 -130 -53.5t-59 -154.5h347
q0 93 -39 150.5t-119 57.5zM372 -144q0 -44 -33.5 -70t-87.5 -26q-34 0 -55 6v30q12 -3 25 -4.5t31 -1.5q38 0 61.5 16.5t23.5 48.5q0 58 -100 60l43 85h32l-31 -63q41 -3 66 -23.5t25 -57.5z" />
    <glyph glyph-name="uni022A" unicode="&#x22a;" horiz-adv-x="759" 
d="M513 989v-34h-264v34h264zM287 892q17 0 23 -10.5t6 -24.5q0 -16 -6 -25.5t-23 -9.5q-15 0 -21.5 9.5t-6.5 25.5q0 14 6.5 24.5t21.5 10.5zM472 892q17 0 23.5 -10.5t6.5 -24.5q0 -16 -6.5 -25.5t-23.5 -9.5q-15 0 -21.5 9.5t-6.5 25.5q0 14 6.5 24.5t21.5 10.5zM696 358
q0 -108 -35 -191t-105.5 -130t-176.5 -47q-105 0 -175.5 47t-105.5 130t-35 192q0 108 36.5 190.5t108.5 129t176 46.5q150 0 231 -97.5t81 -269.5zM103 359q0 -98 30 -173t91.5 -117.5t155.5 -42.5t155 42t90.5 116.5t29.5 173.5q0 157 -69.5 244t-201.5 87q-95 0 -157 -42
t-93 -116.5t-31 -171.5z" />
    <glyph glyph-name="uni022B" unicode="&#x22b;" horiz-adv-x="581" 
d="M423 804v-33h-263v33h263zM197 707q17 0 23 -10t6 -25t-6 -24.5t-23 -9.5q-15 0 -21.5 9.5t-6.5 24.5t6.5 25t21.5 10zM382 707q18 0 24 -10t6 -25t-6 -24.5t-24 -9.5q-14 0 -20.5 9.5t-6.5 24.5t6.5 25t20.5 10zM522 265q0 -80 -25.5 -142t-77.5 -97.5t-130 -35.5
q-75 0 -126.5 35t-78 97t-26.5 143q0 127 62.5 201t173.5 74q79 0 129 -36t74.5 -98t24.5 -141zM98 265q0 -107 47 -173.5t144 -66.5q67 0 110 30.5t63 84.5t20 125q0 68 -19 122t-60.5 86t-108.5 32q-95 0 -145.5 -63.5t-50.5 -176.5z" />
    <glyph glyph-name="uni022C" unicode="&#x22c;" horiz-adv-x="759" 
d="M249 955v34h264v-34h-264zM217 787q4 50 27.5 75.5t62.5 25.5q24 0 43 -10.5t35 -24t32.5 -24t35.5 -10.5q21 0 38.5 14t22.5 55h30q-4 -49 -28.5 -75.5t-63.5 -26.5q-25 0 -43 10.5t-34 24.5t-32.5 24.5t-36.5 10.5q-21 0 -37.5 -14.5t-21.5 -54.5h-30zM696 358
q0 -108 -35 -191t-105.5 -130t-176.5 -47q-105 0 -175.5 47t-105.5 130t-35 192q0 108 36.5 190.5t108.5 129t176 46.5q150 0 231 -97.5t81 -269.5zM103 359q0 -98 30 -173t91.5 -117.5t155.5 -42.5t155 42t90.5 116.5t29.5 173.5q0 157 -69.5 244t-201.5 87q-95 0 -157 -42
t-93 -116.5t-31 -171.5z" />
    <glyph glyph-name="uni022D" unicode="&#x22d;" horiz-adv-x="581" 
d="M160 771v33h263v-33h-263zM127 603q4 50 27.5 75.5t63.5 25.5q24 0 42.5 -10.5t34.5 -24.5t32.5 -24.5t35.5 -10.5q22 0 39 14.5t22 55.5h30q-4 -49 -28.5 -75.5t-63.5 -26.5q-24 0 -42.5 10.5t-34.5 24.5t-32 24.5t-37 10.5q-20 0 -37 -14.5t-22 -54.5h-30zM522 265
q0 -80 -25.5 -142t-77.5 -97.5t-130 -35.5q-75 0 -126.5 35t-78 97t-26.5 143q0 127 62.5 201t173.5 74q79 0 129 -36t74.5 -98t24.5 -141zM98 265q0 -107 47 -173.5t144 -66.5q67 0 110 30.5t63 84.5t20 125q0 68 -19 122t-60.5 86t-108.5 32q-95 0 -145.5 -63.5
t-50.5 -176.5z" />
    <glyph glyph-name="uni022E" unicode="&#x22e;" horiz-adv-x="759" 
d="M696 358q0 -108 -35 -191t-105.5 -130t-176.5 -47q-105 0 -175.5 47t-105.5 130t-35 192q0 108 36.5 190.5t108.5 129t176 46.5q150 0 231 -97.5t81 -269.5zM103 359q0 -98 30 -173t91.5 -117.5t155.5 -42.5t155 42t90.5 116.5t29.5 173.5q0 157 -69.5 244t-201.5 87
q-95 0 -157 -42t-93 -116.5t-31 -171.5zM379 908q19 0 25.5 -10t6.5 -26t-6.5 -26t-25.5 -10q-16 0 -23 10t-7 26t7 26t23 10z" />
    <glyph glyph-name="uni022F" unicode="&#x22f;" horiz-adv-x="581" 
d="M522 265q0 -80 -25.5 -142t-77.5 -97.5t-130 -35.5q-75 0 -126.5 35t-78 97t-26.5 143q0 127 62.5 201t173.5 74q79 0 129 -36t74.5 -98t24.5 -141zM98 265q0 -107 47 -173.5t144 -66.5q67 0 110 30.5t63 84.5t20 125q0 68 -19 122t-60.5 86t-108.5 32
q-95 0 -145.5 -63.5t-50.5 -176.5zM290 724q19 0 25.5 -10t6.5 -26t-6.5 -26t-25.5 -10q-16 0 -23 10t-7 26t7 26t23 10z" />
    <glyph glyph-name="uni0230" unicode="&#x230;" horiz-adv-x="759" 
d="M513 962v-34h-264v34h264zM380 860q19 0 25.5 -10.5t6.5 -25.5q0 -16 -6.5 -26t-25.5 -10q-16 0 -23 10t-7 26q0 15 7 25.5t23 10.5zM696 358q0 -108 -35 -191t-105.5 -130t-176.5 -47q-105 0 -175.5 47t-105.5 130t-35 192q0 108 36.5 190.5t108.5 129t176 46.5
q150 0 231 -97.5t81 -269.5zM103 359q0 -98 30 -173t91.5 -117.5t155.5 -42.5t155 42t90.5 116.5t29.5 173.5q0 157 -69.5 244t-201.5 87q-95 0 -157 -42t-93 -116.5t-31 -171.5z" />
    <glyph glyph-name="uni0231" unicode="&#x231;" horiz-adv-x="581" 
d="M423 804v-33h-263v33h263zM290 702q19 0 25.5 -10.5t6.5 -25.5q0 -16 -6.5 -26t-25.5 -10q-16 0 -23 10t-7 26q0 15 7 25.5t23 10.5zM522 265q0 -80 -25.5 -142t-77.5 -97.5t-130 -35.5q-75 0 -126.5 35t-78 97t-26.5 143q0 127 62.5 201t173.5 74q79 0 129 -36t74.5 -98
t24.5 -141zM98 265q0 -107 47 -173.5t144 -66.5q67 0 110 30.5t63 84.5t20 125q0 68 -19 122t-60.5 86t-108.5 32q-95 0 -145.5 -63.5t-50.5 -176.5z" />
    <glyph glyph-name="uni0232" unicode="&#x232;" horiz-adv-x="517" 
d="M259 314l215 400h43l-238 -439v-275h-39v271l-240 443h44zM392 830v-34h-264v34h264z" />
    <glyph glyph-name="uni0233" unicode="&#x233;" horiz-adv-x="445" 
d="M0 530h41l133 -346q17 -46 29 -80t20 -57h2q7 22 19 56t29 78l132 349h41l-245 -637q-26 -67 -58.5 -101t-87.5 -34q-30 0 -58 9v35q14 -4 26.5 -7t28.5 -3q40 0 65.5 26t48.5 86l38 100zM355 646v-34h-264v34h264z" />
    <glyph glyph-name="uni0234" unicode="&#x234;" horiz-adv-x="349" 
d="M21 -12q12 39 30.5 76.5t40.5 62.5q-1 14 -1.5 32.5t-0.5 34.5v566h38v-599q16 12 40 22.5t55 10.5q52 0 81.5 -27t29.5 -73q0 -48 -34 -76t-80 -28q-48 0 -77 24.5t-42 66.5q-13 -17 -25.5 -45.5t-20.5 -56.5zM219 24q35 0 56 19.5t21 49.5q0 32 -20 49.5t-55 17.5
q-27 0 -50.5 -11t-39.5 -30q3 -40 25.5 -67.5t62.5 -27.5z" />
    <glyph glyph-name="uni0235" unicode="&#x235;" horiz-adv-x="721" 
d="M392 -12q12 39 30.5 76.5t40.5 62.5q-1 14 -2 31.5t-1 33.5v153q0 83 -38 121.5t-109 38.5q-87 0 -136 -51.5t-49 -156.5v-297h-39v530h31l6 -104h3q19 45 64.5 79.5t122.5 34.5q88 0 135.5 -47t47.5 -146v-186q16 12 39.5 22.5t55.5 10.5q51 0 80.5 -27.5t29.5 -73.5
q0 -49 -33.5 -76t-80.5 -27t-76 24.5t-43 66.5q-13 -17 -25 -45.5t-21 -56.5zM590 24q35 0 55.5 19.5t20.5 49.5q0 32 -19.5 49.5t-54.5 17.5q-28 0 -51.5 -11t-39.5 -30q3 -40 25.5 -67.5t63.5 -27.5z" />
    <glyph glyph-name="uni0236" unicode="&#x236;" horiz-adv-x="351" 
d="M23 -12q12 39 30.5 76.5t40.5 62.5q-2 15 -2.5 33t-0.5 35v301h-80v26l80 9l12 128h27v-129h168v-34h-168v-335q16 12 39.5 22.5t55.5 10.5q51 0 80.5 -27.5t29.5 -73.5q0 -49 -33.5 -76t-80.5 -27t-76 24.5t-43 66.5q-13 -17 -25 -45.5t-21 -56.5zM221 24
q35 0 55.5 19.5t20.5 49.5q0 32 -19.5 49.5t-54.5 17.5q-28 0 -51.5 -11t-39.5 -30q3 -40 25.5 -67.5t63.5 -27.5z" />
    <glyph glyph-name="uni0237" unicode="&#x237;" horiz-adv-x="217" 
d="M13 -240q-20 0 -36 3t-28 7v36q15 -7 30.5 -9t31.5 -2q78 0 78 96v639h39v-642q0 -64 -32.5 -96t-82.5 -32z" />
    <glyph glyph-name="uni0238" unicode="&#x238;" horiz-adv-x="964" 
d="M282 -10q-79 0 -128 35t-72.5 97t-23.5 141q0 134 57.5 205.5t165.5 71.5q75 0 119.5 -36t62.5 -86h3q-1 22 -2 56t-1 61v225h38v-225q0 -26 -0.5 -60.5t-1.5 -56.5h2q17 50 62 86t120 36q108 0 165.5 -71t57.5 -206q0 -79 -23.5 -140.5t-73 -97t-127.5 -35.5
q-160 0 -200 155q-41 -155 -200 -155zM282 25q93 0 137 61.5t44 178.5t-43 179t-137 62q-93 0 -139 -63t-46 -180q0 -116 46 -177t138 -61zM682 25q93 0 138.5 61.5t45.5 176.5q0 119 -46.5 180.5t-139.5 61.5q-92 0 -135.5 -61.5t-43.5 -178.5q0 -240 181 -240z" />
    <glyph glyph-name="uni0239" unicode="&#x239;" horiz-adv-x="964" 
d="M682 540q79 0 128 -35t72.5 -96.5t23.5 -141.5q0 -134 -57.5 -205.5t-165.5 -71.5q-75 0 -119.5 36t-62.5 86h-2q0 -22 1 -56t1 -60v-229h-38v228q0 26 0.5 60.5t1.5 56.5h-2q-17 -49 -62 -85.5t-120 -36.5q-108 0 -165.5 71.5t-57.5 205.5q0 79 23.5 141t73 97t127.5 35
q160 0 200 -155q41 155 200 155zM282 506q-93 0 -138.5 -61.5t-45.5 -177.5q0 -119 46.5 -180.5t139.5 -61.5t136 61.5t43 179.5q0 240 -181 240zM682 506q-93 0 -137 -61.5t-44 -178.5t43 -179t137 -62q93 0 139 62.5t46 180.5q0 115 -46 176.5t-138 61.5z" />
    <glyph glyph-name="uni023A" unicode="&#x23a;" horiz-adv-x="590" 
d="M548 0l-100 261h-136l-117 -336h-34l117 336h-135l-102 -261h-41l281 716h37l61 -162l72 206h34l-88 -254l192 -506h-41zM330 578q-5 17 -14 41.5t-18 50.5q-7 -24 -16 -48.5t-17 -43.5l-108 -281h133l70 201zM434 297l-56 153l-53 -153h109z" />
    <glyph glyph-name="uni023B" unicode="&#x23b;" horiz-adv-x="618" 
d="M537 760l-17 -50q35 -9 67 -24l-16 -35q-30 15 -63 24l-220 -634q46 -15 101 -15q56 0 100.5 8t81.5 21v-34q-35 -14 -80 -22.5t-104 -8.5q-61 0 -111 16l-29 -81h-34l32 92q-90 39 -136 128.5t-46 214.5q0 104 40.5 186.5t117 130t184.5 47.5q43 0 83 -7l15 43h34z
M405 688q-96 0 -163.5 -42t-103 -116.5t-35.5 -170.5q0 -110 39 -190t116 -116l218 629q-18 3 -35.5 4.5t-35.5 1.5z" />
    <glyph glyph-name="uni023C" unicode="&#x23c;" horiz-adv-x="474" 
d="M302 -10q-49 0 -89 13l-57 -163h-35l61 175q-62 31 -93 95.5t-31 151.5q0 84 31.5 146.5t89.5 97t137 34.5q25 0 49 -4l57 166h35l-60 -172q24 -6 46 -15l-9 -35q-24 10 -49 16l-160 -458q34 -13 76 -13q38 0 73 7.5t64 19.5v-35q-25 -12 -59.5 -19.5t-76.5 -7.5zM98 262
q0 -71 23.5 -126.5t73.5 -84.5l157 451q-18 2 -36 2q-68 0 -117 -30t-75 -84.5t-26 -127.5z" />
    <glyph glyph-name="uni023D" unicode="&#x23d;" horiz-adv-x="510" 
d="M102 0v330h-94v35h94v349h39v-349h192v-35h-192v-294h348v-36h-387z" />
    <glyph glyph-name="uni023E" unicode="&#x23e;" horiz-adv-x="515" 
d="M277 0h-39v274l-182 -349h-37l219 419v334h-234v36h427l24 46h36l-24 -46h45v-36h-63l-172 -329v-349zM277 678v-259l135 259h-135z" />
    <glyph glyph-name="uni023F" unicode="&#x23f;" horiz-adv-x="462" 
d="M338 -240q-47 0 -73.5 16t-41 48.5t-26.5 81.5q-9 42 -27 63.5t-57 31.5q-19 4 -39 11t-32 13v39q38 -19 82 -29.5t91 -10.5q86 0 124 30t38 81q0 35 -19.5 57t-54.5 37t-80 29q-48 16 -86 31.5t-60 42t-22 74.5q0 63 50.5 98.5t135.5 35.5q47 0 88 -9t74 -23l-15 -34
q-29 14 -69 22.5t-79 8.5q-69 0 -107.5 -24.5t-38.5 -73.5q0 -37 19 -57t52 -32.5t76 -27.5q46 -15 85.5 -31.5t64.5 -44.5t25 -77q0 -78 -60 -113t-159 -34q15 -11 23 -31t14 -44q10 -43 21 -69.5t31 -38.5t58 -12q21 0 40.5 4t31.5 10v-35q-11 -5 -31 -9.5t-47 -4.5z" />
    <glyph glyph-name="uni0240" unicode="&#x240;" horiz-adv-x="459" 
d="M361 -240q-52 0 -83 16.5t-51 49t-37 80.5q-19 54 -50.5 74t-87.5 20h-11v25l326 471h-301v34h351v-26l-330 -474q52 -4 85.5 -29t54.5 -86q15 -43 31 -69.5t41 -38.5t66 -12q25 0 45.5 4t34.5 9v-34q-13 -5 -33.5 -9.5t-50.5 -4.5z" />
    <glyph glyph-name="Glottalstopcased" unicode="&#x241;" horiz-adv-x="407" 
d="M181 723q94 0 147 -51.5t53 -142.5q0 -72 -28.5 -119t-73 -77.5t-92.5 -51.5v-281h-39v304q50 19 94 46t71 69t27 108q0 77 -42 118.5t-118 41.5q-50 0 -89.5 -13t-68.5 -29l-14 33q34 19 75.5 32t97.5 13z" />
    <glyph glyph-name="glottalstopcased" unicode="&#x242;" horiz-adv-x="400" 
d="M181 538q94 0 145.5 -51t51.5 -137q0 -65 -27.5 -110t-71.5 -75.5t-92 -50.5v-114h-39v136q50 18 93.5 44t70.5 66.5t27 101.5q0 74 -42 114.5t-117 40.5q-50 0 -88.5 -13t-67.5 -29l-14 32q34 19 74.5 32t96.5 13z" />
    <glyph glyph-name="uni0243" unicode="&#x243;" horiz-adv-x="621" 
d="M102 0v183h-85v36h85v495h193q132 0 191.5 -42t59.5 -131q0 -61 -36 -106.5t-104 -57.5v-2q84 -13 121.5 -57t37.5 -115q0 -72 -32.5 -116.5t-89.5 -65.5t-131 -21h-210zM306 392q103 0 151 37t48 109q0 75 -50 107.5t-161 32.5h-153v-286h165zM315 35q101 0 155 41.5
t54 127.5q0 85 -57 119t-162 34h-164v-138h153v-36h-153v-148h174z" />
    <glyph glyph-name="uni0244" unicode="&#x244;" horiz-adv-x="716" 
d="M12 380v35h82v299h39v-299h451v299h38v-299h81v-35h-81v-128q0 -129 -72 -195.5t-194 -66.5q-125 0 -193.5 68t-68.5 196v126h-82zM133 255q0 -113 58.5 -171t166.5 -58q105 0 165.5 56t60.5 164v134h-451v-125z" />
    <glyph glyph-name="uni0245" unicode="&#x245;" horiz-adv-x="568" 
d="M0 0l270 716h37l260 -716h-41l-208 578q-6 17 -14 41.5t-17 50.5q-7 -24 -15.5 -49t-15.5 -45l-215 -576h-41z" />
    <glyph glyph-name="uni0246" unicode="&#x246;" horiz-adv-x="551" 
d="M490 0h-274l-25 -75h-34l25 75h-80v714h314l15 46h34l-15 -46h40v-36h-52l-93 -284h125v-36h-137l-105 -322h262v-36zM141 394h170l94 284h-264v-284zM141 36h53l105 322h-158v-322z" />
    <glyph glyph-name="uni0247" unicode="&#x247;" horiz-adv-x="545" 
d="M288 540q34 0 63 -9l56 162h35l-61 -175q53 -28 79 -87.5t26 -136.5v-31h-194l-77 -223q37 -15 85 -15q49 0 84.5 7.5t80.5 28.5v-38q-39 -17 -77.5 -25t-88.5 -8q-53 0 -96 16l-61 -175h-34l65 188q-58 32 -86.5 95t-28.5 146q0 77 26 140.5t77 101.5t127 38zM288 505
q-80 0 -130 -53.5t-59 -154.5h171l69 200q-23 8 -51 8zM446 297q0 65 -19 113.5t-58 73.5l-65 -187h142zM98 263q-1 -151 88 -208l72 208h-160z" />
    <glyph glyph-name="uni0248" unicode="&#x248;" horiz-adv-x="240" 
d="M-18 -177q-24 0 -43 3.5t-32 9.5v36q14 -6 33 -9t41 -3q66 0 94 34.5t28 98.5v335h-93v36h93v350h39v-350h94v-36h-94v-331q0 -87 -38.5 -130.5t-121.5 -43.5z" />
    <glyph glyph-name="uni0249" unicode="&#x249;" horiz-adv-x="217" 
d="M98 663q-12 6 -13 16t4 21q4 9 11 14t19 -1q14 -6 14.5 -16.5t-3.5 -19.5q-4 -10 -11 -14.5t-21 0.5zM13 -240q-20 0 -36 3t-28 7v36q15 -7 30.5 -9t31.5 -2q78 0 78 96v359h-81v35h81v245h39v-245h84v-35h-84v-362q0 -64 -32.5 -96t-82.5 -32z" />
    <glyph glyph-name="uni024A" unicode="&#x24a;" horiz-adv-x="740" 
d="M369 722q97 0 160 -46t86 -113h2l4 151h34v-824q0 -51 19 -73.5t57 -22.5q16 0 28 2.5t24 7.5v-36q-11 -5 -24.5 -7.5t-31.5 -2.5q-111 0 -111 126v165q0 23 0.5 52.5t1.5 52.5h-3q-24 -69 -85.5 -116.5t-163.5 -47.5t-169 47t-100 130.5t-33 192.5q0 108 34 189.5
t102 127t169 45.5zM368 687q-90 0 -148.5 -42t-86.5 -116t-28 -170q0 -98 27.5 -173t86 -117.5t149.5 -42.5q111 0 179.5 67.5t68.5 204.5v123q0 92 -32 150.5t-87.5 87t-128.5 28.5z" />
    <glyph glyph-name="uni024B" unicode="&#x24b;" horiz-adv-x="590" 
d="M283 540q70 0 113.5 -31.5t62.5 -76.5h2l6 98h32v-639q0 -53 18 -76t56 -23q16 0 28.5 3t23.5 7v-33q-10 -5 -24.5 -8t-33.5 -3q-51 0 -79 31t-28 97v114q0 23 1 56t2 56h-3q-18 -53 -67.5 -88t-122.5 -35q-104 0 -159 70t-55 204q0 79 24.5 141.5t75 99t127.5 36.5z
M286 505q-94 0 -142 -63.5t-48 -178.5q0 -118 44 -178.5t133 -60.5q98 0 142.5 62.5t45.5 175.5v11q0 114 -42.5 173t-132.5 59z" />
    <glyph glyph-name="uni024C" unicode="&#x24c;" horiz-adv-x="586" 
d="M269 714q125 0 190 -41.5t65 -150.5q0 -81 -43 -128.5t-115 -67.5l196 -326h-47l-188 315h-186v-315h-39v315h-92v35h92v364h167zM264 678h-123v-328h151q87 0 139 44.5t52 126.5q0 90 -54 123.5t-165 33.5z" />
    <glyph glyph-name="uni024D" unicode="&#x24d;" horiz-adv-x="383" 
d="M269 295v-34h-141v-261h-38v261h-76v34h76v235h34l3 -101h3q16 46 56.5 77.5t103.5 31.5q22 0 41 -2.5t36 -7.5l-7 -36q-18 5 -34.5 7.5t-37.5 2.5q-79 0 -119.5 -56t-40.5 -151h141z" />
    <glyph glyph-name="uni024E" unicode="&#x24e;" horiz-adv-x="517" 
d="M505 582v-36h-79l-147 -271v-275h-39v271l-149 275h-81v36h62l-72 132h44l71 -132h288l71 132h43l-71 -132h59zM259 314l125 232h-250z" />
    <glyph glyph-name="uni024F" unicode="&#x24f;" horiz-adv-x="445" 
d="M0 530h41l71 -186h223l70 186h41l-71 -186h66v-34h-80l-160 -417q-26 -67 -58.5 -101t-87.5 -34q-30 0 -58 9v35q14 -4 26.5 -7t28.5 -3q40 0 65.5 26t48.5 86l38 100l-118 306h-84v34h70zM223 47h2q7 22 19 56t29 78l49 129h-197l49 -126q17 -46 29 -80t20 -57z" />
    <glyph glyph-name="uni0250" unicode="&#x250;" horiz-adv-x="521" 
d="M252 -9q-85 0 -127 44.5t-42 141.5v353h30l7 -98h2q24 46 67.5 77t122.5 31q78 0 120 -38.5t42 -104.5q0 -79 -66 -120t-187 -47l-100 -5v-41q0 -85 33 -122t99 -37q77 0 157 41l13 -35q-39 -18 -82 -29t-89 -11zM218 262q101 5 158 37t57 98q0 51 -33 79.5t-92 28.5
q-94 0 -140 -53t-47 -141v-54z" />
    <glyph glyph-name="uni0251" unicode="&#x251;" horiz-adv-x="590" 
d="M274 -10q-104 0 -160 69.5t-56 200.5q0 137 58 208.5t165 71.5q73 0 118 -34t62 -84h3l4 108h33v-411q0 -54 12.5 -74t36.5 -20q20 0 36 5v-32q-17 -8 -42 -8q-43 0 -60.5 27t-19.5 91h-3q-19 -50 -63.5 -84t-123.5 -34zM277 25q99 0 142 61.5t43 173.5v6
q0 116 -43.5 177.5t-135.5 61.5q-90 0 -137.5 -61.5t-47.5 -184.5q0 -114 45.5 -174t133.5 -60z" />
    <glyph glyph-name="uni0252" unicode="&#x252;" horiz-adv-x="590" 
d="M315 540q105 0 160.5 -69.5t55.5 -200.5q0 -138 -58 -209t-164 -71q-74 0 -118.5 34t-62.5 84h-2l-4 -108h-34v411q0 54 -12 74t-37 20q-19 0 -35 -6v32q17 9 41 9q44 0 61.5 -27t19.5 -91h2q20 49 64.5 83.5t122.5 34.5zM312 505q-98 0 -141.5 -61.5t-43.5 -174.5v-5
q0 -116 44 -177.5t135 -61.5q90 0 137.5 61t47.5 184q0 115 -45 175t-134 60z" />
    <glyph glyph-name="uni0253" unicode="&#x253;" horiz-adv-x="590" 
d="M224 765q15 0 28.5 -2t25.5 -5v-35q-10 3 -23 5t-29 2q-49 0 -74 -27.5t-25 -86.5v-90q0 -26 -1 -55.5t-2 -52.5h3q18 53 67.5 87.5t122.5 34.5q104 0 159 -69.5t55 -204.5q0 -79 -24.5 -141.5t-75 -98.5t-127.5 -36q-70 0 -113.5 30.5t-62.5 76.5h-3l-6 -97h-31v617
q0 70 34.5 109t101.5 39zM314 505q-97 0 -142 -63t-45 -177q0 -121 41.5 -180.5t132.5 -59.5q94 0 142 63t48 179q0 238 -177 238z" />
    <glyph glyph-name="uni0254" unicode="&#x254;" horiz-adv-x="474" 
d="M179 540q120 0 178.5 -71t58.5 -196q0 -82 -27 -146t-82 -100.5t-140 -36.5q-42 0 -76 7t-59 18v37q29 -12 64 -19.5t73 -7.5q74 0 120 33.5t66.5 89.5t20.5 124q0 108 -48.5 170t-152.5 62q-28 0 -66 -7t-67 -20l-9 34q27 12 67.5 20.5t78.5 8.5z" />
    <glyph glyph-name="uni0255" unicode="&#x255;" horiz-adv-x="502" 
d="M318 540q37 0 68 -6.5t58 -18.5l-9 -35q-29 12 -59 18t-59 6q-68 0 -116.5 -30t-74.5 -84.5t-26 -127.5q0 -42 8 -79t26 -67q32 42 81.5 69t111.5 27t98.5 -29.5t36.5 -75.5q0 -54 -42 -85.5t-116 -31.5q-56 0 -98.5 16.5t-72.5 45.5q-12 -20 -20.5 -43.5t-15.5 -48.5
l-34 11q15 59 45 110q-48 70 -48 181q0 84 31.5 146.5t89.5 97t137 34.5zM324 177q-52 0 -96 -24.5t-75 -66.5q25 -29 63 -45t88 -16q60 0 90 23.5t30 56.5q0 31 -25.5 51.5t-74.5 20.5z" />
    <glyph glyph-name="uni0256" unicode="&#x256;" horiz-adv-x="590" 
d="M588 -238q-59 0 -93 35t-34 110v93q0 23 1 56t2 55h-3q-18 -48 -64.5 -84.5t-125.5 -36.5q-104 0 -159 68.5t-55 202.5t59 206.5t163 72.5q76 0 120 -34t62 -83h3q-2 30 -2.5 61t-0.5 60v216h39v-847q0 -65 25 -90.5t68 -25.5q20 0 35 3t24 7v-33q-10 -5 -27 -8.5
t-37 -3.5zM274 25q94 0 140.5 61.5t46.5 173.5v6q0 122 -46.5 180.5t-132.5 58.5q-88 0 -136.5 -62.5t-48.5 -182.5q0 -235 177 -235z" />
    <glyph glyph-name="uni0257" unicode="&#x257;" horiz-adv-x="590" 
d="M281 -10q-111 0 -167 68t-56 199q0 137 60 210t170 73q70 0 113.5 -33.5t61.5 -81.5h3q-2 29 -2.5 59.5t-0.5 59.5v96q0 63 30.5 93.5t77.5 30.5q19 0 34.5 -3t27.5 -7v-36q-13 6 -28.5 8.5t-30.5 2.5q-36 0 -54.5 -23.5t-18.5 -67.5v-638h-32l-4 105h-2
q-19 -47 -62.5 -81t-119.5 -34zM284 25q97 0 138 61.5t41 173.5v6q0 116 -41.5 177.5t-131.5 61.5q-93 0 -142.5 -63t-49.5 -186q0 -115 46 -173t140 -58z" />
    <glyph glyph-name="uni0258" unicode="&#x258;" horiz-adv-x="545" 
d="M257 540q76 0 127 -38t77 -101.5t26 -140.5q0 -80 -26.5 -141t-80 -95t-135.5 -34q-49 0 -87.5 8t-77.5 25v38q45 -21 80.5 -28.5t84.5 -7.5q98 0 150 61.5t52 176.5h-388v31q0 70 21 125.5t65 88t112 32.5zM257 505q-80 0 -119 -57.5t-39 -150.5h346q-8 101 -58 154.5
t-130 53.5z" />
    <glyph glyph-name="uni0259" unicode="&#x259;" horiz-adv-x="545" 
d="M245 540q82 0 135.5 -34.5t80 -95t26.5 -140.5q0 -78 -26 -141.5t-77 -101t-127 -37.5q-68 0 -112 32t-65 88t-21 126v31h388q0 114 -52 175.5t-150 61.5q-49 0 -84.5 -7.5t-80.5 -27.5v37q39 18 77.5 26t87.5 8zM99 233q0 -93 39 -150.5t119 -57.5t130 53t58 155h-346z
" />
    <glyph glyph-name="uni025A" unicode="&#x25a;" horiz-adv-x="751" 
d="M254 -10q-100 0 -148.5 62t-48.5 170l384 100q-5 48 -27 89.5t-64 67t-109 25.5q-43 0 -83.5 -9t-77.5 -24v36q37 14 77 23.5t88 9.5q105 0 163 -57.5t72 -150.5l95 25l13 -48q13 -51 31 -72.5t51 -21.5q21 0 37 4.5t30 10.5l14 -35q-20 -7 -40.5 -12.5t-41.5 -5.5
q-38 0 -61.5 17.5t-37.5 48.5t-24 72l-62 -18q0 -89 -21.5 -158.5t-72 -109t-136.5 -39.5zM255 25q103 0 146 69t43 193l-346 -89q1 -43 15.5 -83t48.5 -65t93 -25z" />
    <glyph glyph-name="uni025B" unicode="&#x25b;" horiz-adv-x="445" 
d="M324 298v-34h-63q-84 0 -129.5 -29.5t-45.5 -93.5q0 -52 39.5 -84t119.5 -32q47 0 86.5 8.5t75.5 23.5v-36q-27 -12 -68.5 -21.5t-94.5 -9.5q-101 0 -149.5 41.5t-48.5 108.5q0 110 118 140v3q-55 16 -77.5 46t-22.5 73q0 49 25.5 79t67 44.5t90.5 14.5q51 0 87 -8.5
t73 -23.5l-14 -33q-30 13 -67 21.5t-78 8.5q-71 0 -108 -27t-37 -78q0 -102 167 -102h54z" />
    <glyph glyph-name="uni025C" unicode="&#x25c;" horiz-adv-x="441" 
d="M205 540q80 0 122.5 -35.5t42.5 -100.5q0 -45 -24 -75.5t-67 -43.5v-2q58 -13 84.5 -48t26.5 -85q0 -76 -54 -118t-142 -42q-53 0 -94.5 10t-68.5 25v40q74 -40 162 -40q69 0 113.5 32t44.5 94q0 61 -41 87t-119 26h-71v34h69q65 0 104 25.5t39 79.5q0 49 -33 75.5
t-95 26.5q-43 0 -77.5 -10.5t-69.5 -26.5l-14 33q36 17 74.5 28t87.5 11z" />
    <glyph glyph-name="uni025D" unicode="&#x25d;" horiz-adv-x="615" 
d="M205 540q124 0 156 -82l78 23l13 -48q14 -51 32 -72.5t51 -21.5q21 0 36.5 4.5t29.5 10.5l14 -34q-19 -8 -39.5 -13.5t-41.5 -5.5q-39 0 -62 17.5t-37 48.5t-24 72l-42 -13q1 -10 1 -22q0 -45 -24 -75.5t-67 -43.5v-2q58 -13 84.5 -48t26.5 -85q0 -76 -54 -118t-142 -42
q-53 0 -94.5 10t-68.5 25v40q74 -40 162 -40q69 0 113.5 32t44.5 94q0 61 -41 87t-119 26h-71v34h69q65 0 104 25.5t39 79.5q0 49 -33 75.5t-95 26.5q-43 0 -77.5 -10.5t-69.5 -26.5l-14 33q36 17 74.5 28t87.5 11z" />
    <glyph glyph-name="uni025E" unicode="&#x25e;" horiz-adv-x="539" 
d="M303 540q79 0 125.5 -36.5t46.5 -100.5q0 -96 -100 -119v-3q57 -13 87.5 -44.5t30.5 -87.5q0 -69 -51 -114t-155 -45q-118 0 -173.5 73t-55.5 198q0 83 27 146t81.5 98t136.5 35zM302 505q-105 0 -154.5 -67t-49.5 -177q0 -114 46.5 -175t145.5 -61q82 0 123 35.5
t41 89.5q0 61 -46 87t-130 26h-41v34h33q83 0 124.5 24.5t41.5 80.5q0 46 -34.5 74.5t-99.5 28.5z" />
    <glyph glyph-name="uni025F" unicode="&#x25f;" horiz-adv-x="217" 
d="M13 -240q-20 0 -36 3t-28 7v36q15 -7 30.5 -9t31.5 -2q78 0 78 96v359h-81v35h81v245h39v-245h84v-35h-84v-362q0 -64 -32.5 -96t-82.5 -32z" />
    <glyph glyph-name="uni0260" unicode="&#x260;" horiz-adv-x="590" 
d="M570 764q18 0 34 -3t27 -7v-36q-13 6 -28 8.5t-31 2.5q-36 0 -54 -23.5t-18 -67.5v-660q0 -99 -51.5 -158.5t-172.5 -59.5q-60 0 -105.5 10.5t-81.5 25.5v41q36 -18 84 -30t104 -12q99 0 141.5 49.5t42.5 132.5v38q0 49 2 93h-2q-20 -58 -67.5 -88t-117.5 -30
q-103 0 -160.5 68.5t-57.5 199.5q0 130 58 206t171 76q68 0 109.5 -28.5t63.5 -71.5h3q-1 21 -1.5 42.5t-0.5 46.5v111q0 63 31 93.5t78 30.5zM289 505q-97 0 -144 -65.5t-47 -181.5q0 -114 46.5 -173.5t133.5 -59.5q74 0 113.5 31.5t54.5 82t15 107.5v43q0 64 -16 112.5
t-53.5 76t-102.5 27.5z" />
    <glyph glyph-name="uni0261" unicode="&#x261;" horiz-adv-x="590" 
d="M287 540q69 0 109 -27t63 -70h3l6 87h32v-552q0 -99 -51.5 -158.5t-172.5 -59.5q-60 0 -105.5 10.5t-81.5 25.5v41q36 -18 84 -30t104 -12q99 0 141.5 49.5t42.5 132.5v38q0 25 0.5 46.5t2.5 46.5h-3q-20 -58 -67.5 -88t-117.5 -30q-102 0 -160 68.5t-58 199.5
q0 130 58 206t171 76zM289 505q-97 0 -144 -65.5t-47 -181.5q0 -114 46.5 -173.5t134.5 -59.5q73 0 112.5 31.5t55 82t15.5 107.5v43q0 64 -16.5 112.5t-54 76t-102.5 27.5z" />
    <glyph glyph-name="uni0262" unicode="&#x262;" horiz-adv-x="573" 
d="M334 541q48 0 87.5 -9.5t71.5 -25.5l-14 -36q-32 16 -68 26t-78 10q-74 0 -128 -30t-83.5 -84t-29.5 -126q0 -112 59.5 -175.5t172.5 -63.5q40 0 74.5 7t60.5 17v182h-156v34h195v-240q-40 -16 -83 -25.5t-96 -9.5q-123 0 -195 72.5t-72 200.5q0 81 34.5 143.5t98 97.5
t149.5 35z" />
    <glyph glyph-name="uni0263" unicode="&#x263;" horiz-adv-x="446" 
d="M227 -240q-44 0 -69.5 29.5t-25.5 76.5q0 50 21.5 101t51.5 109l-205 454h43l133 -300q15 -33 29.5 -66t22.5 -54h2q8 21 21.5 53.5t29.5 67.5l132 299h43l-204 -453q30 -61 50.5 -110t20.5 -101q0 -46 -25.5 -76t-70.5 -30zM228 -205q58 0 58 73q0 42 -17.5 85t-39.5 90
q-24 -47 -42 -91t-18 -84q0 -37 16 -55t43 -18z" />
    <glyph glyph-name="uni0264" unicode="&#x264;" horiz-adv-x="506" 
d="M465 538q16 0 27 -3t18 -7v-35q-17 10 -43 10q-25 0 -42.5 -16.5t-38.5 -50.5l-109 -177q29 -45 47.5 -83.5t18.5 -84.5t-24 -73t-68 -27q-43 0 -66.5 26.5t-23.5 71.5q0 47 20 86.5t50 83.5l-111 180q-20 33 -37 48.5t-42 15.5q-16 1 -27.5 -3.5t-16.5 -8.5v35
q7 4 20.5 8t29.5 4q34 0 55.5 -17t47.5 -60l69 -114q11 -19 19.5 -32.5t14.5 -27.5h2q6 13 14 26.5t21 34.5l71 114q25 41 47.5 58.5t56.5 17.5zM254 229q-26 -37 -41 -69.5t-15 -67.5t15 -50.5t38 -15.5q22 0 38 15.5t16 49.5q0 36 -14 68t-37 70z" />
    <glyph glyph-name="uni0265" unicode="&#x265;" horiz-adv-x="582" 
d="M455 25q0 22 0.5 40t1.5 38h-3q-17 -46 -63.5 -79.5t-123.5 -33.5q-88 0 -136 47t-48 146v347h39v-345q0 -83 38 -121.5t109 -38.5q87 0 136.5 51.5t49.5 156.5v297h38v-760h-38v255z" />
    <glyph glyph-name="uni0266" unicode="&#x266;" horiz-adv-x="582" 
d="M89 640q0 63 31 93.5t77 30.5q19 0 35 -3t27 -7v-36q-13 6 -28.5 8.5t-30.5 2.5q-36 0 -54 -23.5t-18 -67.5v-134q0 -22 -1 -39.5t-2 -38.5h3q18 46 64 79.5t124 33.5q87 0 135 -46.5t48 -145.5v-347h-39v345q0 83 -38 121.5t-109 38.5q-87 0 -136 -51.5t-49 -156.5v-297
h-39v640z" />
    <glyph glyph-name="uni0267" unicode="&#x267;" horiz-adv-x="595" 
d="M197 764q19 0 35 -3t27 -7v-36q-13 6 -28.5 8.5t-30.5 2.5q-36 0 -54 -23.5t-18 -67.5v-134q0 -22 -1 -39.5t-2 -38.5h3q18 46 64 79.5t124 33.5q87 0 135 -46.5t48 -145.5v-463q0 -62 -31 -93t-77 -31q-19 0 -35 3t-27 8v35q13 -6 28.5 -8.5t30.5 -2.5q36 0 54 24t18 67
v459q0 83 -38 121.5t-109 38.5q-87 0 -136 -51.5t-49 -156.5v-297h-39v640q0 63 31 93.5t77 30.5z" />
    <glyph glyph-name="uni0268" unicode="&#x268;" horiz-adv-x="217" 
d="M108 724q19 0 25.5 -10t6.5 -26t-6.5 -26t-25.5 -10q-16 0 -23 10t-7 26t7 26t23 10zM207 300v-34h-79v-266h-39v266h-79v34h79v230h39v-230h79z" />
    <glyph glyph-name="uni0269" unicode="&#x269;" horiz-adv-x="286" 
d="M195 -10q-50 0 -82.5 32t-32.5 96v412h39v-409q0 -96 78 -96q16 0 31.5 2t30.5 9v-36q-12 -4 -28 -7t-36 -3z" />
    <glyph glyph-name="iotaserifed" unicode="&#x26a;" horiz-adv-x="299" 
d="M241 530v-27l-72 -7v-463l72 -6v-27h-183v27l72 6v463l-72 7v27h183z" />
    <glyph glyph-name="uni026B" unicode="&#x26b;" horiz-adv-x="242" 
d="M102 385q-13 10 -26.5 18.5t-30.5 8.5q-21 0 -38.5 -14.5t-22.5 -56.5h-30q4 51 28.5 77.5t64.5 26.5q17 0 30 -6t25 -14v335h39v-361q12 -10 25 -17.5t29 -7.5q22 0 40 14.5t23 56.5h30q-4 -51 -29.5 -78t-65.5 -27q-16 0 -28.5 5t-23.5 13v-358h-39v385z" />
    <glyph glyph-name="uni026C" unicode="&#x26c;" horiz-adv-x="277" 
d="M139 0v314h-55q-45 0 -71 20.5t-26 61.5q0 33 22 55.5t63 22.5q45 0 67 -37v323h39v-412h89v-34h-89v-314h-39zM88 348h51v8q-1 32 -15 58t-50 26q-26 0 -38 -12t-12 -31q0 -25 17 -37t47 -12z" />
    <glyph glyph-name="uni026D" unicode="&#x26d;" horiz-adv-x="217" 
d="M212 -240q-59 0 -90.5 32t-31.5 102v866h38v-858q0 -59 22 -83t66 -24q14 0 28.5 2.5t23.5 5.5v-34q-9 -3 -23 -6t-33 -3z" />
    <glyph glyph-name="uni026E" unicode="&#x26e;" horiz-adv-x="577" 
d="M312 -240q-52 0 -93 8.5t-75 24.5v40q35 -17 77.5 -27.5t91.5 -10.5q91 0 142 53t51 141q0 91 -60 135t-186 44h-42v29l257 298h-347v-495h-38v760h38v-230h400v-29l-261 -299q147 -2 213 -56.5t66 -156.5q0 -68 -28 -119.5t-80.5 -80.5t-125.5 -29z" />
    <glyph glyph-name="uni026F" unicode="&#x26f;" horiz-adv-x="869" 
d="M243 -10q-72 0 -116.5 44t-44.5 137v359h38v-357q0 -77 35.5 -112.5t90.5 -35.5q76 0 121 44t45 142v319h38v-357q0 -77 35.5 -112.5t90.5 -35.5q72 0 118.5 45t46.5 144v316h39v-530h-31l-6 91h-3q-11 -25 -32.5 -48t-54.5 -38t-80 -15q-56 0 -95.5 26.5t-54.5 78.5h-3
q-20 -48 -65 -76.5t-112 -28.5z" />
    <glyph glyph-name="uni0270" unicode="&#x270;" horiz-adv-x="869" 
d="M741 6q0 20 0.5 42t1.5 41h-4q-17 -38 -56.5 -68.5t-109.5 -30.5q-55 0 -94.5 26.5t-57.5 77.5h-2q-21 -50 -66.5 -77t-109.5 -27q-72 0 -116.5 44t-44.5 137v359h38v-357q0 -77 35.5 -112.5t90.5 -35.5q76 0 121 44t45 142v319h38v-357q0 -77 35.5 -112.5t90.5 -35.5
q72 0 118.5 45t46.5 144v316h39v-770h-39v246z" />
    <glyph glyph-name="uni0271" unicode="&#x271;" horiz-adv-x="869" 
d="M626 540q72 0 116.5 -44t44.5 -137v-475q0 -62 -31 -93t-77 -31q-19 0 -34.5 3t-27.5 8v35q13 -6 28.5 -8.5t30.5 -2.5q36 0 54.5 24t18.5 67v471q0 77 -35.5 112.5t-90.5 35.5q-76 0 -121 -44t-45 -142v-319h-38v357q0 77 -35.5 112.5t-90.5 35.5q-72 0 -118.5 -45
t-46.5 -145v-315h-39v530h31l6 -92h3q11 26 32.5 49t54.5 38t80 15q54 0 93 -26t56 -78h5q22 49 67 76.5t109 27.5z" />
    <glyph glyph-name="uni0272" unicode="&#x272;" horiz-adv-x="582" 
d="M316 540q88 0 135.5 -47t47.5 -146v-347h-39v345q0 83 -38 121.5t-109 38.5q-87 0 -136 -51.5t-49 -156.5v-407q0 -69 -33 -99.5t-78 -30.5q-19 0 -35 3t-28 8v35q14 -7 29.5 -9t29.5 -2q76 0 76 98v637h31l6 -104h3q19 45 64.5 79.5t122.5 34.5z" />
    <glyph glyph-name="uni0273" unicode="&#x273;" horiz-adv-x="582" 
d="M499 -87q0 -65 25 -90.5t68 -25.5q19 0 34.5 3t24.5 7v-33q-10 -5 -27 -8.5t-36 -3.5q-59 0 -93.5 35t-34.5 110v438q0 83 -38 121.5t-109 38.5q-87 0 -136 -51.5t-49 -156.5v-297h-39v530h31l6 -104h3q19 45 64.5 79.5t122.5 34.5q88 0 135.5 -47t47.5 -146v-434z" />
    <glyph glyph-name="uni0274" unicode="&#x274;" horiz-adv-x="576" 
d="M83 0v536h41l343 -477q-1 30 -1.5 58t-0.5 53v366h37v-536h-39l-344 478q1 -25 1.5 -53t0.5 -49v-376h-38z" />
    <glyph glyph-name="uni0275" unicode="&#x275;" horiz-adv-x="581" 
d="M522 265q0 -80 -25.5 -142t-77.5 -97.5t-130 -35.5q-75 0 -126.5 35t-78 97t-26.5 143q0 127 62.5 201t173.5 74q79 0 129 -36t74.5 -98t24.5 -141zM294 505q-91 0 -141 -57t-55 -160h384q-3 63 -23 111.5t-60.5 77t-104.5 28.5zM289 25q98 0 144.5 63.5t48.5 164.5h-384
q2 -103 49.5 -165.5t141.5 -62.5z" />
    <glyph glyph-name="uni0276" unicode="&#x276;" horiz-adv-x="853" 
d="M291 546q73 0 123 -34.5t76 -95.5v120h316v-35h-278v-201h263v-35h-263v-230h278v-35h-316v127q-26 -62 -76.5 -98.5t-122.5 -36.5q-74 0 -127.5 35.5t-82.5 98.5t-29 145q0 81 28.5 143t82.5 97t128 35zM291 511q-63 0 -107.5 -30.5t-68.5 -85t-24 -124.5
q0 -71 23 -126.5t67.5 -87t109.5 -31.5q64 0 108.5 31.5t67 86.5t22.5 127q0 111 -51.5 175.5t-146.5 64.5z" />
    <glyph glyph-name="uni0277" unicode="&#x277;" horiz-adv-x="721" 
d="M360 540q141 0 222 -79.5t81 -225.5q0 -63 -16.5 -119t-54 -91t-101.5 -35q-54 0 -86 27t-44 73h-2q-12 -46 -46 -73t-85 -27q-80 0 -125 63.5t-45 181.5q0 147 79.5 226t222.5 79zM360 504q-124 0 -193.5 -65.5t-69.5 -203.5q0 -103 34.5 -156.5t99.5 -53.5q55 0 83 39
t28 111v160h38v-160q0 -73 27 -111.5t82 -38.5q68 0 101.5 56t33.5 154q0 137 -70.5 203t-193.5 66z" />
    <glyph glyph-name="uni0278" unicode="&#x278;" horiz-adv-x="655" 
d="M346 538q119 -7 185 -78.5t66 -193.5q0 -77 -29.5 -137t-85.5 -96t-136 -41v-232h-38v232q-119 5 -185 78t-66 196q0 121 66 193t185 79v222h38v-222zM308 503q-103 -5 -157 -68.5t-54 -168.5q0 -110 54.5 -172.5t156.5 -66.5v476zM346 27q101 5 156 70.5t55 168.5
q0 107 -53.5 169t-157.5 68v-476z" />
    <glyph glyph-name="uni0279" unicode="&#x279;" horiz-adv-x="383" 
d="M93 -8q-22 0 -41 2.5t-36 7.5l7 35q17 -5 34 -7t37 -2q79 0 119.5 56t40.5 151v295h39v-530h-34l-3 100h-3q-16 -45 -57 -76.5t-103 -31.5z" />
    <glyph glyph-name="uni027A" unicode="&#x27a;" horiz-adv-x="383" 
d="M93 -8q-22 0 -41 2.5t-36 7.5l7 35q17 -5 34 -7t37 -2q79 0 119.5 56t40.5 151v525h39v-760h-34l-3 100h-3q-16 -45 -57 -76.5t-103 -31.5z" />
    <glyph glyph-name="uni027B" unicode="&#x27b;" horiz-adv-x="383" 
d="M381 -238q-59 0 -93 35t-34 110v120q0 17 0.5 36.5t1.5 36.5h-3q-16 -45 -57 -76.5t-103 -31.5q-22 0 -41 2.5t-36 7.5l7 35q17 -5 34 -7t37 -2q79 0 119.5 56t40.5 151v295h39v-617q0 -65 25 -90.5t68 -25.5q20 0 35 3t24 7v-33q-10 -5 -27 -8.5t-37 -3.5z" />
    <glyph glyph-name="uni027C" unicode="&#x27c;" horiz-adv-x="383" 
d="M290 538q22 0 41 -2.5t36 -7.5l-7 -36q-18 5 -34.5 7.5t-37.5 2.5q-79 0 -119.5 -56t-40.5 -151v-535h-38v770h34l3 -101h3q16 46 56.5 77.5t103.5 31.5z" />
    <glyph glyph-name="uni027D" unicode="&#x27d;" horiz-adv-x="383" 
d="M290 538q22 0 41 -2.5t36 -7.5l-7 -36q-18 5 -34.5 7.5t-37.5 2.5q-79 0 -119.5 -56t-40.5 -151v-382q0 -62 26 -89t71 -27q20 0 35 3t25 7v-33q-10 -5 -26.5 -8.5t-36.5 -3.5q-62 0 -97 35t-35 110v623h34l3 -101h3q16 46 56.5 77.5t103.5 31.5z" />
    <glyph glyph-name="uni027E" unicode="&#x27e;" horiz-adv-x="331" 
d="M236 540q27 0 49 -6t33 -10l-6 -36q-13 6 -32.5 11t-43.5 5q-55 0 -84.5 -33t-29.5 -106v-365h-38v371q0 84 40 126.5t112 42.5z" />
    <glyph glyph-name="uni027F" unicode="&#x27f;" horiz-adv-x="331" 
d="M102 540q147 0 147 -169v-611h-39v605q0 72 -26 105.5t-87 33.5q-24 0 -44.5 -4.5t-33.5 -11.5l-6 36q12 4 35 10t54 6z" />
    <glyph glyph-name="uni0280" unicode="&#x280;" horiz-adv-x="483" 
d="M83 0v536h157q99 0 146.5 -38.5t47.5 -109.5q0 -44 -17.5 -75.5t-46 -50t-60.5 -25.5l156 -237h-47l-149 232h-148v-232h-39zM258 267q67 0 102.5 33.5t35.5 86.5q0 58 -38 86t-123 28h-113v-234h136z" />
    <glyph glyph-name="uni0281" unicode="&#x281;" horiz-adv-x="483" 
d="M83 536h39v-232h148l149 232h47l-156 -237q32 -7 60.5 -25.5t46 -50t17.5 -75.5q0 -71 -47.5 -109.5t-146.5 -38.5h-157v536zM258 269h-136v-234h113q85 0 123 28t38 86q0 53 -35.5 86.5t-102.5 33.5z" />
    <glyph glyph-name="uni0282" unicode="&#x282;" horiz-adv-x="462" 
d="M416 137q0 -69 -51.5 -108t-150.5 -39q-39 0 -73.5 6t-60.5 14v-78q0 -42 15 -57.5t43 -15.5q15 0 29.5 3t25.5 8v-34q-11 -4 -25 -7.5t-34 -3.5q-42 0 -67 22t-25 78v139q38 -19 82 -29.5t91 -10.5q86 0 124 30t38 81q0 35 -19.5 57t-54.5 37t-80 29q-48 16 -86 31.5
t-60 42t-22 74.5q0 63 50.5 98.5t135.5 35.5q47 0 88 -9t74 -23l-15 -34q-29 14 -69 22.5t-79 8.5q-69 0 -107.5 -24.5t-38.5 -73.5q0 -37 19 -57t52 -32.5t76 -27.5q46 -15 85.5 -31.5t64.5 -44.5t25 -77z" />
    <glyph glyph-name="uni0283" unicode="&#x283;" horiz-adv-x="213" 
d="M210 763q13 0 25.5 -1.5t19.5 -4.5v-34q-8 2 -18.5 4t-23.5 2q-44 0 -67 -26.5t-23 -86.5v-707q0 -74 -31 -111.5t-90 -37.5q-39 0 -62 10v35q12 -5 26.5 -7.5t31.5 -2.5q44 0 65 28t21 88v708q0 72 33.5 108t92.5 36z" />
    <glyph glyph-name="uni0284" unicode="&#x284;" horiz-adv-x="213" 
d="M2 -240q-39 0 -62 10v35q12 -5 26.5 -7.5t31.5 -2.5q44 0 65 28t21 88v365h-88v34h88v309q0 72 33.5 108t92.5 36q13 0 25.5 -1.5t19.5 -4.5v-34q-8 2 -18.5 4t-23.5 2q-44 0 -67 -26.5t-23 -86.5v-306h93v-34h-93v-367q0 -74 -31 -111.5t-90 -37.5z" />
    </font>
</defs>
</svg>
