<?xml version="1.0" standalone="no"?>
<!DOCTYPE svg PUBLIC "-//W3C//DTD SVG 1.1//EN" "http://www.w3.org/Graphics/SVG/1.1/DTD/svg11.dtd" >
<svg xmlns="http://www.w3.org/2000/svg" xmlns:xlink="http://www.w3.org/1999/xlink" version="1.1">
<metadata>
Created by FontForge 20170731 at Mon Feb  7 20:28:37 2022
 By Aleksey,,,
Copyright 2015-2021 Google LLC. All Rights Reserved.
</metadata>
<defs>
<font id="NotoSans-Light" horiz-adv-x="0" >
  <font-face 
    font-family="Noto Sans Light"
    font-weight="300"
    font-stretch="normal"
    units-per-em="1000"
    panose-1="2 11 4 2 4 5 4 2 2 4"
    ascent="800"
    descent="-200"
    x-height="532"
    cap-height="714"
    bbox="-619 -394 2800 1347"
    underline-thickness="50"
    underline-position="-175"
    unicode-range="U+000D-FFFD"
  />
<missing-glyph horiz-adv-x="600" 
d="M94 0v714h411v-714h-411zM145 51h309v612h-309v-612z" />
    <glyph glyph-name="f_f" unicode="ff" horiz-adv-x="618" 
d="M295 486h-127v-486h-57v486h-98v31l98 17v53q0 178 159 178q28 0 51 -4.5t42 -10.5l-13 -47q-18 6 -38.5 10t-40.5 4q-54 0 -78.5 -31t-24.5 -99v-55h127v-46zM604 486h-127v-486h-57v486h-98v31l98 17v53q0 178 159 178q28 0 51 -4.5t42 -10.5l-13 -47q-18 6 -38.5 10
t-40.5 4q-54 0 -78.5 -31t-24.5 -99v-55h127v-46z" />
    <glyph glyph-name="fi" unicode="fi" horiz-adv-x="542" 
d="M295 486h-127v-486h-57v486h-98v31l98 17v53q0 178 159 178q28 0 51 -4.5t42 -10.5l-13 -47q-18 6 -38.5 10t-40.5 4q-54 0 -78.5 -31t-24.5 -99v-55h127v-46zM426 729q39 0 39 -43q0 -44 -39 -44t-39 44q0 43 39 43zM454 532v-532h-57v532h57z" />
    <glyph glyph-name="fl" unicode="fl" horiz-adv-x="542" 
d="M295 486h-127v-486h-57v486h-98v31l98 17v53q0 178 159 178q28 0 51 -4.5t42 -10.5l-13 -47q-18 6 -38.5 10t-40.5 4q-54 0 -78.5 -31t-24.5 -99v-55h127v-46zM454 0h-57v760h57v-760z" />
    <glyph glyph-name="f_f_i" unicode="ffi" horiz-adv-x="851" 
d="M295 486h-127v-486h-57v486h-98v31l98 17v53q0 178 159 178q28 0 51 -4.5t42 -10.5l-13 -47q-18 6 -38.5 10t-40.5 4q-54 0 -78.5 -31t-24.5 -99v-55h127v-46zM604 486h-127v-486h-57v486h-98v31l98 17v53q0 178 159 178q28 0 51 -4.5t42 -10.5l-13 -47q-18 6 -38.5 10
t-40.5 4q-54 0 -78.5 -31t-24.5 -99v-55h127v-46zM735 729q39 0 39 -43q0 -44 -39 -44t-39 44q0 43 39 43zM763 532v-532h-57v532h57z" />
    <glyph glyph-name="f_f_l" unicode="ffl" horiz-adv-x="851" 
d="M295 486h-127v-486h-57v486h-98v31l98 17v53q0 178 159 178q28 0 51 -4.5t42 -10.5l-13 -47q-18 6 -38.5 10t-40.5 4q-54 0 -78.5 -31t-24.5 -99v-55h127v-46zM604 486h-127v-486h-57v486h-98v31l98 17v53q0 178 159 178q28 0 51 -4.5t42 -10.5l-13 -47q-18 6 -38.5 10
t-40.5 4q-54 0 -78.5 -31t-24.5 -99v-55h127v-46zM763 0h-57v760h57v-760z" />
    <glyph glyph-name=".notdef" horiz-adv-x="600" 
d="M94 0v714h411v-714h-411zM145 51h309v612h-309v-612z" />
    <glyph glyph-name=".null" 
 />
    <glyph glyph-name="nonmarkingreturn" horiz-adv-x="333" 
 />
    <glyph glyph-name="NULL" 
 />
    <glyph glyph-name="NULL" 
 />
    <glyph glyph-name="CR" unicode="&#xd;" horiz-adv-x="260" 
 />
    <glyph glyph-name="space" unicode=" " horiz-adv-x="260" 
 />
    <glyph glyph-name="exclam" unicode="!" horiz-adv-x="246" 
d="M144 188h-41l-13 526h68zM79 39q0 49 43 49q45 0 45 -49q0 -50 -45 -50q-43 0 -43 50z" />
    <glyph glyph-name="quotedbl" unicode="&#x22;" horiz-adv-x="364" 
d="M131 714l-12 -258h-38l-12 258h62zM295 714l-12 -258h-37l-12 258h61z" />
    <glyph glyph-name="numbersign" unicode="#" horiz-adv-x="646" 
d="M474 449l-36 -185h145v-46h-154l-42 -218h-48l42 218h-171l-41 -218h-48l41 218h-135v46h144l36 185h-142v45h150l42 220h49l-42 -220h171l42 220h47l-42 -220h137v-45h-145zM219 264h171l36 185h-171z" />
    <glyph glyph-name="dollar" unicode="$" horiz-adv-x="571" 
d="M253 30q-59 0 -108 9t-80 22v57q34 -15 84.5 -26t103.5 -11v260q-59 18 -101.5 41t-65.5 56t-23 84q0 76 53 118.5t137 47.5v71h44v-71q47 -1 89 -10.5t80 -26.5l-19 -48q-37 15 -75.5 24t-74.5 11v-255q61 -20 105 -42t67.5 -54t23.5 -84q0 -77 -53.5 -120.5
t-142.5 -50.5v-90h-44v88zM253 637q-61 -4 -97 -31.5t-36 -78.5q0 -55 35.5 -82t97.5 -47v239zM297 83q65 5 102 34t37 84q0 50 -34 75.5t-105 48.5v-242z" />
    <glyph glyph-name="percent" unicode="%" horiz-adv-x="812" 
d="M196 724q71 0 107 -58t36 -165q0 -109 -36.5 -167t-107.5 -58q-69 0 -105 58.5t-36 166.5t36 165.5t106 57.5zM631 714l-396 -714h-53l396 714h53zM196 681q-92 0 -92 -180q0 -181 91 -181q94 0 94 181q0 88 -22.5 134t-70.5 46zM615 438q71 0 107 -58t36 -165
q0 -109 -36.5 -167t-107.5 -58q-69 0 -105 58.5t-36 166.5t36 165.5t106 57.5zM615 394q-92 0 -92 -179q0 -181 91 -181q94 0 94 181q0 88 -22.5 133.5t-70.5 45.5z" />
    <glyph glyph-name="ampersand" unicode="&#x26;" horiz-adv-x="717" 
d="M304 725q74 0 119.5 -39.5t45.5 -109.5q0 -66 -44 -109.5t-113 -80.5l218 -216q28 33 48 77t32 96h58q-31 -127 -101 -211l132 -132h-77l-93 95q-47 -47 -105 -76t-144 -29q-100 0 -161 50t-61 143q0 53 20 90.5t58 66t91 56.5q-43 44 -70 83.5t-27 93.5q0 70 47.5 111
t126.5 41zM303 677q-54 0 -85.5 -28t-31.5 -76q0 -41 23 -75t66 -77q67 33 102 68.5t35 86.5q0 46 -30 73.5t-79 27.5zM262 359q-46 -24 -78.5 -47.5t-49 -53.5t-16.5 -74q0 -67 44.5 -104.5t118.5 -37.5q73 0 122.5 24.5t88.5 64.5z" />
    <glyph glyph-name="quotesingle" unicode="'" horiz-adv-x="199" 
d="M131 714l-12 -258h-38l-12 258h62z" />
    <glyph glyph-name="parenleft" unicode="(" horiz-adv-x="278" 
d="M41 274q0 128 37 241t109 199h58q-73 -91 -109.5 -204t-36.5 -235q0 -120 36.5 -230.5t109.5 -202.5h-58q-72 86 -109 196t-37 236z" />
    <glyph glyph-name="parenright" unicode=")" horiz-adv-x="278" 
d="M237 278q0 -127 -37 -239.5t-109 -196.5h-57q73 91 109 203t36 233q0 122 -36.5 233.5t-109.5 202.5h58q72 -87 109 -198t37 -238z" />
    <glyph glyph-name="asterisk" unicode="*" horiz-adv-x="551" 
d="M305 759l-13 -199l193 62l11 -60l-190 -36l122 -160l-55 -32l-100 172l-96 -172l-56 32l121 160l-190 36l11 60l192 -62l-13 199h63z" />
    <glyph glyph-name="plus" unicode="+" horiz-adv-x="571" 
d="M309 377h209v-48h-209v-212h-48v212h-208v48h208v212h48v-212z" />
    <glyph glyph-name="comma" unicode="," horiz-adv-x="226" 
d="M159 105q-13 -55 -33 -118t-43 -116h-43q36 133 53 245h61z" />
    <glyph glyph-name="hyphen" unicode="-" horiz-adv-x="322" 
d="M40 244v52h242v-52h-242z" />
    <glyph glyph-name="period" unicode="." horiz-adv-x="244" 
d="M79 39q0 49 43 49q45 0 45 -49q0 -50 -45 -50q-43 0 -43 50z" />
    <glyph glyph-name="slash" unicode="/" horiz-adv-x="347" 
d="M336 714l-267 -714h-57l267 714h57z" />
    <glyph glyph-name="slash" unicode="&#x2215;" horiz-adv-x="347" 
d="M336 714l-267 -714h-57l267 714h57z" />
    <glyph glyph-name="zero" unicode="0" horiz-adv-x="571" 
d="M515 359q0 -178 -55 -273.5t-175 -95.5q-113 0 -171 94t-58 275q0 110 22 192t73 128t135 46q82 0 132.5 -45t73.5 -127t23 -194zM113 359q0 -162 41.5 -240.5t130.5 -78.5q92 0 132 79t40 240q0 100 -15.5 170.5t-53 108t-102.5 37.5t-102.5 -38t-54 -109t-16.5 -169z
" />
    <glyph glyph-name="one" unicode="1" horiz-adv-x="571" 
d="M338 0h-56v531q0 43 0.5 70.5t1.5 52.5q-14 -14 -26.5 -24t-31.5 -25l-99 -77l-31 40l194 146h48v-714z" />
    <glyph glyph-name="two" unicode="2" horiz-adv-x="571" 
d="M506 0h-452v48l205 213q51 53 86 95t53 84t18 94q0 67 -39 103.5t-105 36.5q-48 0 -90 -17t-83 -49l-31 40q44 36 96 56t108 20q92 0 147.5 -51t55.5 -136q0 -58 -21 -106t-59 -94t-89 -98l-179 -184v-2h379v-53z" />
    <glyph glyph-name="three" unicode="3" horiz-adv-x="571" 
d="M482 549q0 -71 -42 -116t-108 -57v-3q172 -23 172 -174q0 -92 -64.5 -150.5t-195.5 -58.5q-114 0 -198 41v55q41 -21 94 -33.5t105 -12.5q102 0 150.5 43t48.5 117q0 78 -58 111.5t-155 33.5h-76v50h77q83 0 137 38.5t54 112.5q0 63 -41 96t-109 33q-57 0 -102.5 -17.5
t-89.5 -47.5l-29 40q41 32 96.5 53t124.5 21q99 0 154 -47.5t55 -127.5z" />
    <glyph glyph-name="four" unicode="4" horiz-adv-x="571" 
d="M556 178h-119v-178h-55v178h-359v47l355 493h59v-488h119v-52zM382 495v66t1 48.5t2 45.5h-3q-13 -23 -25 -43t-29 -43l-244 -339h298v265z" />
    <glyph glyph-name="five" unicode="5" horiz-adv-x="571" 
d="M275 432q108 0 171.5 -54.5t63.5 -154.5q0 -109 -70 -171t-189 -62q-57 0 -103.5 11t-78.5 30v56q34 -21 82.5 -34t99.5 -13q90 0 145.5 45.5t55.5 132.5q0 78 -47.5 121.5t-144.5 43.5q-37 0 -73.5 -6t-65.5 -13l-32 21l29 329h346v-52h-297l-21 -245q21 4 53 9.5
t76 5.5z" />
    <glyph glyph-name="six" unicode="6" horiz-adv-x="571" 
d="M62 304q0 128 32 222.5t101.5 146.5t179.5 52q54 0 93 -11v-51q-39 14 -92 14q-129 0 -191 -87t-67 -247h4q21 38 67.5 69t121.5 31q96 0 152 -57.5t56 -157.5q0 -108 -58.5 -173t-161.5 -65q-77 0 -130 40.5t-80 111t-27 162.5zM298 40q77 0 120.5 48t43.5 140
q0 78 -40 123t-120 45q-55 0 -95.5 -22.5t-62.5 -55.5t-22 -65t9 -68.5t29.5 -69.5t54.5 -54t83 -21z" />
    <glyph glyph-name="seven" unicode="7" horiz-adv-x="571" 
d="M160 0l295 662h-404v52h466v-42l-294 -672h-63z" />
    <glyph glyph-name="eight" unicode="8" horiz-adv-x="571" 
d="M284 724q92 0 148.5 -43.5t56.5 -123.5q0 -65 -42.5 -106.5t-107.5 -70.5q77 -31 125.5 -76.5t48.5 -120.5q0 -61 -29.5 -104t-81.5 -66t-118 -23q-105 0 -166 51t-61 138q0 77 47.5 123.5t119.5 74.5q-40 19 -73 42.5t-52 57t-19 80.5q0 52 26 89.5t72.5 57.5t105.5 20z
M284 676q-65 0 -106.5 -31.5t-41.5 -89.5q0 -60 42.5 -93.5t109.5 -58.5q67 28 105.5 62t38.5 91q0 59 -40 89.5t-108 30.5zM113 178q0 -63 44.5 -101.5t125.5 -38.5q79 0 126 38t47 107q0 58 -41.5 96t-116.5 66l-22 8q-73 -28 -118 -67.5t-45 -107.5z" />
    <glyph glyph-name="nine" unicode="9" horiz-adv-x="571" 
d="M510 411q0 -128 -32.5 -222.5t-101.5 -147t-179 -52.5q-25 0 -53 3t-46 9v51q18 -6 44.5 -10t53.5 -4q128 0 190.5 87t66.5 247h-4q-21 -39 -68 -70t-122 -31q-96 0 -151 57.5t-55 158.5q0 108 59 172.5t162 64.5q77 0 129.5 -40t79.5 -110.5t27 -162.5zM274 675
q-77 0 -120.5 -48.5t-43.5 -138.5q0 -79 39 -124.5t120 -45.5q56 0 96.5 22.5t62.5 56t22 66.5q0 30 -9.5 66.5t-29.5 69.5t-54 54.5t-83 21.5z" />
    <glyph glyph-name="colon" unicode=":" horiz-adv-x="244" 
d="M79 492q0 49 43 49q45 0 45 -49q0 -50 -45 -50q-43 0 -43 50zM79 39q0 49 43 49q45 0 45 -49q0 -50 -45 -50q-43 0 -43 50z" />
    <glyph glyph-name="semicolon" unicode=";" horiz-adv-x="244" 
d="M78 492q0 49 43 49q45 0 45 -49q0 -50 -45 -50q-43 0 -43 50zM154 105q-12 -54 -32.5 -117.5t-42.5 -116.5h-44q18 65 31.5 127.5t21.5 117.5h61z" />
    <glyph glyph-name="less" unicode="&#x3c;" horiz-adv-x="571" 
d="M518 127l-465 211v34l465 225v-52l-400 -188l400 -178v-52z" />
    <glyph glyph-name="equal" unicode="=" horiz-adv-x="571" 
d="M56 430v47h459v-47h-459zM56 228v48h459v-48h-459z" />
    <glyph glyph-name="greater" unicode="&#x3e;" horiz-adv-x="571" 
d="M53 179l400 178l-400 188v52l465 -225v-34l-465 -211v52z" />
    <glyph glyph-name="question" unicode="?" horiz-adv-x="424" 
d="M142 207q0 44 7 73.5t25.5 54t52.5 50.5q37 29 61 52t36 49.5t12 64.5q0 61 -38 91.5t-102 30.5q-44 0 -79.5 -10.5t-70.5 -27.5l-21 48q42 20 82.5 30.5t91.5 10.5q89 0 140.5 -44.5t51.5 -127.5q0 -48 -15.5 -81.5t-43.5 -60.5t-66 -56q-30 -23 -46.5 -44t-23 -46
t-6.5 -62v-14h-48v19zM125 39q0 49 44 49t44 -49q0 -50 -44 -50t-44 50z" />
    <glyph glyph-name="at" unicode="@" horiz-adv-x="889" 
d="M834 354q0 -65 -18.5 -121t-54.5 -90.5t-92 -34.5q-45 0 -73 26.5t-31 69.5h-3q-21 -46 -59 -71t-89 -25q-75 0 -115.5 48t-40.5 134q0 64 26.5 114.5t74 79.5t111.5 29q40 0 77 -6.5t64 -15.5l-9 -174q-1 -18 -1.5 -34.5t-0.5 -30.5q0 -54 18.5 -77t53.5 -23
q38 0 63 26.5t37.5 72.5t12.5 104q0 95 -38 164.5t-107.5 107.5t-164.5 38q-114 0 -197 -47t-128 -132.5t-45 -201.5q0 -158 83 -245.5t236 -87.5q55 0 109 12t99 30v-48q-43 -18 -95.5 -28.5t-112.5 -10.5q-115 0 -198 45t-127 129.5t-44 201.5q0 130 52 226.5t146 149
t222 52.5q107 0 188 -43.5t126 -123t45 -189.5zM311 289q0 -137 110 -137q62 0 94 43t37 124l7 138q-18 5 -40.5 8.5t-47.5 3.5q-52 0 -88 -24t-54 -65t-18 -91z" />
    <glyph glyph-name="A" unicode="A" horiz-adv-x="608" 
d="M547 0l-95 246h-296l-96 -246h-60l281 717h53l274 -717h-61zM339 556q-6 14 -16 44t-17 53q-8 -27 -17 -53t-15 -45l-99 -256h259z" />
    <glyph glyph-name="B" unicode="B" horiz-adv-x="632" 
d="M298 714q132 0 195 -41.5t63 -132.5q0 -62 -35.5 -106t-103.5 -56v-3q78 -13 119 -55t41 -117q0 -69 -32 -114t-88.5 -67t-130.5 -22h-226v714h198zM311 399q99 0 142 34t43 101q0 69 -47 99t-151 30h-140v-264h153zM158 349v-298h163q98 0 146 39.5t48 115.5
q0 74 -50 108.5t-153 34.5h-154z" />
    <glyph glyph-name="C" unicode="C" horiz-adv-x="623" 
d="M404 672q-88 0 -151 -39.5t-96.5 -110t-33.5 -163.5q0 -96 30 -167.5t90.5 -110.5t150.5 -39q52 0 95.5 8t82.5 21v-51q-37 -14 -81 -22t-103 -8q-108 0 -180.5 46t-109 129t-36.5 194q0 106 40.5 188.5t117 129.5t185.5 47q104 0 187 -39l-23 -51q-77 38 -165 38z" />
    <glyph glyph-name="D" unicode="D" horiz-adv-x="711" 
d="M649 364q0 -180 -95.5 -272t-276.5 -92h-177v714h199q169 0 259.5 -89.5t90.5 -260.5zM588 362q0 301 -301 301h-129v-612h114q316 0 316 311z" />
    <glyph glyph-name="E" unicode="E" horiz-adv-x="553" 
d="M492 0h-392v714h392v-52h-334v-261h315v-52h-315v-297h334v-52z" />
    <glyph glyph-name="F" unicode="F" horiz-adv-x="506" 
d="M158 0h-58v714h393v-52h-335v-294h316v-52h-316v-316z" />
    <glyph glyph-name="G" unicode="G" horiz-adv-x="724" 
d="M387 364h260v-332q-105 -42 -237 -42q-170 0 -259 97t-89 269q0 109 43.5 192t125.5 130t197 47q116 0 210 -43l-23 -51q-45 20 -93 31t-97 11q-95 0 -162.5 -40t-103.5 -111t-36 -165q0 -155 76 -235t223 -80q52 0 93 7t74 19v243h-202v53z" />
    <glyph glyph-name="H" unicode="H" horiz-adv-x="724" 
d="M623 0h-58v348h-407v-348h-58v714h58v-314h407v314h58v-714z" />
    <glyph glyph-name="I" unicode="I" horiz-adv-x="311" 
d="M261 0h-210v36l76 11v619l-76 12v36h210v-36l-76 -12v-619l76 -11v-36z" />
    <glyph glyph-name="J" unicode="J" horiz-adv-x="252" 
d="M-11 -182q-26 0 -45 3.5t-32 9.5v52q15 -6 34.5 -9t41.5 -3q111 0 111 134v709h58v-707q0 -89 -42 -139t-126 -50z" />
    <glyph glyph-name="K" unicode="K" horiz-adv-x="589" 
d="M589 0h-70l-272 370l-89 -85v-285h-58v714h58v-371q21 23 42.5 46.5t44.5 47.5l264 277h71l-290 -304z" />
    <glyph glyph-name="L" unicode="L" horiz-adv-x="515" 
d="M100 0v714h58v-661h335v-53h-393z" />
    <glyph glyph-name="M" unicode="M" horiz-adv-x="872" 
d="M410 0l-256 653h-3q1 -28 2.5 -63.5t1.5 -74.5v-515h-55v714h88l246 -625h3l249 625h86v-714h-58v521q0 33 1.5 67.5t2.5 63.5h-3l-258 -652h-47z" />
    <glyph glyph-name="N" unicode="N" horiz-adv-x="729" 
d="M629 0h-62l-414 624h-3q2 -39 3.5 -82.5t1.5 -90.5v-451h-55v714h62l413 -622h3q-2 31 -3 79t-1 90v453h55v-714z" />
    <glyph glyph-name="O" unicode="O" horiz-adv-x="768" 
d="M705 358q0 -109 -36 -192t-107.5 -129.5t-177.5 -46.5q-108 0 -179.5 46.5t-107 130t-35.5 192.5t36.5 191t109 128.5t179.5 46.5q103 0 174 -44.5t107.5 -126.5t36.5 -196zM123 359q0 -95 28 -166.5t86 -111t147 -39.5q90 0 147.5 39t85 110.5t27.5 166.5
q0 149 -64.5 232t-192.5 83q-89 0 -148 -39.5t-87.5 -110t-28.5 -164.5z" />
    <glyph glyph-name="P" unicode="P" horiz-adv-x="589" 
d="M278 714q257 0 257 -202q0 -103 -66.5 -161.5t-205.5 -58.5h-105v-292h-58v714h178zM272 663h-114v-320h99q103 0 160.5 36t57.5 130q0 80 -49.5 117t-153.5 37z" />
    <glyph glyph-name="Q" unicode="Q" horiz-adv-x="768" 
d="M705 358q0 -91 -25.5 -165t-76 -123.5t-125.5 -67.5l156 -172h-82l-137 162q-8 -1 -16 -1.5t-15 -0.5q-108 0 -179.5 46.5t-107 130t-35.5 192.5t36.5 191t109 128.5t179.5 46.5q103 0 174 -44.5t107.5 -126.5t36.5 -196zM123 359q0 -95 28 -166.5t86 -111t147 -39.5
q90 0 147.5 39t85 110.5t27.5 166.5q0 149 -64.5 232t-192.5 83q-89 0 -148 -39.5t-87.5 -110t-28.5 -164.5z" />
    <glyph glyph-name="R" unicode="R" horiz-adv-x="600" 
d="M278 714q128 0 192.5 -44.5t64.5 -151.5q0 -82 -43.5 -128.5t-108.5 -65.5l196 -324h-69l-182 308h-170v-308h-58v714h178zM273 663h-115v-305h135q87 0 134.5 40.5t47.5 117.5q0 82 -50 114.5t-152 32.5z" />
    <glyph glyph-name="S" unicode="S" horiz-adv-x="546" 
d="M496 186q0 -64 -32 -108t-88 -66t-127 -22q-65 0 -113 9t-82 23v57q37 -15 88 -26t110 -11q82 0 133.5 35t51.5 105q0 42 -19.5 69.5t-60 48t-103.5 41.5q-60 20 -103 45t-66 62.5t-23 94.5q0 58 29.5 98.5t81 61.5t117.5 21q52 0 99 -10t89 -28l-19 -50q-86 36 -171 36
q-74 0 -120.5 -32.5t-46.5 -95.5q0 -46 20 -73.5t58 -46.5t93 -38q63 -22 108.5 -46t70.5 -60.5t25 -93.5z" />
    <glyph glyph-name="T" unicode="T" horiz-adv-x="531" 
d="M294 0h-58v662h-230v52h518v-52h-230v-662z" />
    <glyph glyph-name="U" unicode="U" horiz-adv-x="722" 
d="M629 252q0 -122 -70.5 -192t-199.5 -70t-197.5 70t-68.5 194v460h58v-460q0 -104 54 -158t157 -54q101 0 155.5 54.5t54.5 151.5v466h57v-462z" />
    <glyph glyph-name="V" unicode="V" horiz-adv-x="582" 
d="M582 714l-262 -714h-58l-262 714h61l189 -514q26 -74 41 -131q13 54 42 132l187 513h62z" />
    <glyph glyph-name="W" unicode="W" horiz-adv-x="900" 
d="M878 714l-194 -714h-57l-150 525q-11 36 -19 66.5t-12 50.5q-3 -19 -9.5 -47.5t-15.5 -59.5l-149 -535h-57l-192 714h60l130 -490q10 -42 18.5 -76.5t14.5 -67.5q6 34 14 70t20 77l138 487h59l142 -490q12 -43 20.5 -78.5t14.5 -67.5q5 33 12.5 67.5t19.5 78.5l132 490
h60z" />
    <glyph glyph-name="X" unicode="X" horiz-adv-x="548" 
d="M547 0h-66l-207 330l-210 -330h-63l239 371l-219 343h65l190 -302l191 302h63l-221 -342z" />
    <glyph glyph-name="Y" unicode="Y" horiz-adv-x="536" 
d="M268 332l204 382h64l-238 -438v-276h-58v272l-240 442h64z" />
    <glyph glyph-name="Z" unicode="Z" horiz-adv-x="575" 
d="M536 0h-499v43l415 619h-395v52h468v-43l-415 -618h426v-53z" />
    <glyph glyph-name="bracketleft" unicode="[" horiz-adv-x="321" 
d="M296 -158h-212v872h212v-48h-156v-775h156v-49z" />
    <glyph glyph-name="backslash" unicode="\" horiz-adv-x="347" 
d="M69 714l267 -714h-57l-267 714h57z" />
    <glyph glyph-name="bracketright" unicode="]" horiz-adv-x="321" 
d="M25 -109h157v775h-157v48h212v-872h-212v49z" />
    <glyph glyph-name="asciicircum" unicode="^" horiz-adv-x="571" 
d="M42 273l224 446h37l226 -446h-53l-192 383l-188 -383h-54z" />
    <glyph glyph-name="underscore" unicode="_" horiz-adv-x="418" 
d="M420 -135h-422v45h422v-45z" />
    <glyph glyph-name="grave" unicode="`" horiz-adv-x="265" 
d="M108 766q12 -22 32.5 -50t43 -55t41.5 -46v-9h-40q-25 20 -53 47.5t-52.5 55.5t-39.5 49v8h68z" />
    <glyph glyph-name="a" unicode="a" horiz-adv-x="536" 
d="M276 541q90 0 134 -44t44 -139v-358h-43l-10 90h-3q-29 -45 -70.5 -72.5t-115.5 -27.5q-77 0 -121 38.5t-44 110.5q0 80 65 121.5t189 46.5l97 5v37q0 78 -31.5 111t-92.5 33q-41 0 -79 -11t-76 -29l-18 46q38 18 82.5 30t92.5 12zM308 265q-102 -5 -151.5 -35.5
t-49.5 -90.5q0 -50 30.5 -75.5t84.5 -25.5q83 0 129 47.5t47 131.5v52z" />
    <glyph glyph-name="b" unicode="b" horiz-adv-x="599" 
d="M144 550q0 -29 -1 -61.5t-2 -52.5h3q20 45 66 75.5t115 30.5q102 0 159.5 -69.5t57.5 -205.5q0 -126 -57.5 -201.5t-167.5 -75.5q-67 0 -109.5 27.5t-62.5 68.5h-4l-11 -86h-43v760h57v-210zM318 493q-93 0 -133.5 -58t-40.5 -168v-7q0 -108 38.5 -164.5t128.5 -56.5
q85 0 128.5 59.5t43.5 169.5q0 225 -165 225z" />
    <glyph glyph-name="c" unicode="c" horiz-adv-x="476" 
d="M301 -10q-117 0 -180.5 72t-63.5 201q0 90 32 152t89.5 94.5t134.5 32.5q38 0 72 -7t60 -19l-16 -49q-27 11 -58 17.5t-59 6.5q-95 0 -145.5 -61t-50.5 -166q0 -100 45 -161.5t140 -61.5q39 0 74 8t63 20v-51q-26 -13 -59.5 -20.5t-77.5 -7.5z" />
    <glyph glyph-name="d" unicode="d" horiz-adv-x="599" 
d="M279 -10q-107 0 -164.5 68.5t-57.5 202.5q0 137 60 209t167 72q67 0 108.5 -29.5t62.5 -71.5h4q-1 23 -2.5 51.5t-1.5 52.5v215h57v-760h-46l-8 93h-3q-21 -43 -63 -73t-113 -30zM286 39q92 0 131 56t39 162v9q0 110 -38.5 168.5t-127.5 58.5q-86 0 -130 -60.5
t-44 -172.5q0 -108 42 -164.5t128 -56.5z" />
    <glyph glyph-name="e" unicode="e" horiz-adv-x="552" 
d="M290 542q68 0 113.5 -31.5t69 -86.5t23.5 -126v-39h-380q0 -106 49.5 -162.5t141.5 -56.5q49 0 86 8.5t81 27.5v-52q-40 -18 -79 -26t-90 -8q-120 0 -184 73t-64 199q0 81 27.5 144t79.5 99.5t126 36.5zM289 494q-73 0 -118.5 -49t-52.5 -139h319q0 84 -36.5 136
t-111.5 52z" />
    <glyph glyph-name="f" unicode="f" horiz-adv-x="309" 
d="M295 486h-127v-486h-57v486h-98v31l98 17v53q0 178 159 178q28 0 51 -4.5t42 -10.5l-13 -47q-18 6 -38.5 10t-40.5 4q-54 0 -78.5 -31t-24.5 -99v-55h127v-46z" />
    <glyph glyph-name="g" unicode="g" horiz-adv-x="599" 
d="M283 542q62 0 103.5 -24.5t66.5 -66.5h4l8 81h46v-549q0 -105 -54 -164t-175 -59q-60 0 -106.5 9.5t-83.5 26.5v55q37 -19 86 -30.5t106 -11.5q87 0 129 46t42 125v31q0 21 0.5 42.5t1.5 40.5h-3q-46 -104 -178 -104q-103 0 -161 70t-58 202q0 129 58 204.5t168 75.5z
M289 493q-87 0 -130 -61t-43 -171q0 -108 43 -165t124 -57q66 0 103.5 26.5t53 73.5t15.5 107v35q0 101 -37.5 156.5t-128.5 55.5z" />
    <glyph glyph-name="h" unicode="h" horiz-adv-x="596" 
d="M145 517q0 -21 -1 -40t-3 -37h4q21 44 66.5 73t113.5 29q92 0 140 -47t48 -147v-348h-56v344q0 76 -35 112.5t-102 36.5q-175 0 -175 -203v-290h-57v760h57v-243z" />
    <glyph glyph-name="i" unicode="i" horiz-adv-x="233" 
d="M117 729q39 0 39 -43q0 -44 -39 -44t-39 44q0 43 39 43zM145 532v-532h-57v532h57z" />
    <glyph glyph-name="j" unicode="j" horiz-adv-x="233" 
d="M78 686q0 43 39 43t39 -43q0 -44 -39 -44t-39 44zM17 -240q-23 0 -40 3t-29 8v49q28 -11 63 -11q36 0 56.5 22t20.5 70v631h57v-632q0 -68 -34 -104t-94 -36z" />
    <glyph glyph-name="k" unicode="k" horiz-adv-x="494" 
d="M144 374q0 -32 -1 -66.5t-1 -67.5h1q13 15 29.5 35t31.5 37l202 220h69l-211 -228l228 -304h-68l-199 267l-81 -82v-185h-56v760h56v-386z" />
    <glyph glyph-name="l" unicode="l" horiz-adv-x="233" 
d="M145 0h-57v760h57v-760z" />
    <glyph glyph-name="m" unicode="m" horiz-adv-x="894" 
d="M644 542q79 0 123.5 -45t44.5 -142v-355h-56v353q0 71 -32.5 105.5t-87.5 34.5q-76 0 -117 -44.5t-41 -137.5v-311h-56v353q0 71 -32.5 105.5t-87.5 34.5q-76 0 -116.5 -47t-40.5 -144v-302h-57v532h46l8 -84h4q20 39 60.5 66.5t103.5 27.5q58 0 98 -25t57 -74h3
q23 47 68.5 73t107.5 26z" />
    <glyph glyph-name="n" unicode="n" horiz-adv-x="596" 
d="M326 542q91 0 139 -47t48 -147v-348h-56v344q0 76 -35 112.5t-102 36.5q-175 0 -175 -203v-290h-57v532h46l8 -92h4q21 44 67 73t113 29z" />
    <glyph glyph-name="o" unicode="o" horiz-adv-x="590" 
d="M533 267q0 -84 -27.5 -146t-81 -96.5t-130.5 -34.5q-74 0 -127 34t-81.5 96.5t-28.5 146.5q0 129 64 202t177 73q76 0 128.5 -34.5t79.5 -96.5t27 -144zM116 267q0 -103 43.5 -165.5t135.5 -62.5q93 0 136 63t43 165q0 66 -18 117t-57 80t-102 29q-90 0 -135.5 -60
t-45.5 -166z" />
    <glyph glyph-name="p" unicode="p" horiz-adv-x="599" 
d="M327 542q102 0 159 -69t57 -204t-59.5 -207t-162.5 -72q-70 0 -113 30t-63 72h-4q2 -25 3 -54.5t1 -54.5v-219h-57v768h47l7 -99h3q20 43 64 76t118 33zM319 493q-89 0 -131 -56t-43 -161v-10q0 -114 41.5 -170.5t128.5 -56.5q82 0 125.5 61.5t43.5 169.5
q0 107 -41.5 165t-123.5 58z" />
    <glyph glyph-name="q" unicode="q" horiz-adv-x="599" 
d="M454 -4q0 21 0.5 50.5t2.5 50.5h-4q-20 -46 -66 -76.5t-116 -30.5q-101 0 -158 69.5t-57 205.5q0 126 57.5 201.5t167.5 75.5q67 0 109 -29t63 -69h3l9 88h46v-768h-57v232zM280 39q91 0 132 56t42 162v14q0 109 -39.5 165.5t-127.5 56.5q-86 0 -129 -61t-43 -168
q0 -110 40.5 -167.5t124.5 -57.5z" />
    <glyph glyph-name="r" unicode="r" horiz-adv-x="394" 
d="M307 541q39 0 72 -8l-9 -53q-32 9 -66 9q-73 0 -116 -54t-43 -143v-292h-57v532h48l6 -99h3q20 45 61 76.5t101 31.5z" />
    <glyph glyph-name="s" unicode="s" horiz-adv-x="469" 
d="M423 141q0 -72 -54 -111.5t-152 -39.5q-56 0 -99 9.5t-72 24.5v55q35 -18 80 -29.5t92 -11.5q78 0 113.5 26.5t35.5 72.5q0 44 -37 67.5t-109 48.5q-50 17 -87.5 34.5t-58.5 44.5t-21 74q0 64 52 100t139 36q48 0 89.5 -9t76.5 -24l-21 -47q-31 13 -70 22.5t-78 9.5
q-63 0 -98 -22t-35 -64q0 -32 17 -50.5t49 -31.5t78 -29q48 -17 86 -35t61 -46t23 -75z" />
    <glyph glyph-name="t" unicode="t" horiz-adv-x="340" 
d="M238 39q22 0 42 3t35 9v-46q-15 -6 -37 -10.5t-47 -4.5q-67 0 -103 37t-36 121v338h-79v32l79 19l20 122h37v-127h163v-46h-163v-335q0 -112 89 -112z" />
    <glyph glyph-name="u" unicode="u" horiz-adv-x="596" 
d="M507 532v-532h-46l-9 91h-3q-22 -44 -67.5 -72.5t-113.5 -28.5q-187 0 -187 194v348h57v-343q0 -77 34.5 -113.5t102.5 -36.5q175 0 175 203v290h57z" />
    <glyph glyph-name="v" unicode="v" horiz-adv-x="469" 
d="M204 0l-204 532h61l132 -353q12 -33 22.5 -65t17.5 -57h3q7 25 18 57.5t23 64.5l132 353h60l-204 -532h-61z" />
    <glyph glyph-name="w" unicode="w" horiz-adv-x="736" 
d="M406 346q-11 33 -19 63t-14 55h-3q-6 -25 -14 -55.5t-19 -63.5l-112 -345h-61l-150 532h60l89 -328q12 -45 20 -78.5t13 -59.5h3q5 24 13.5 57t21.5 73l110 336h58l106 -336q11 -36 20.5 -70t14.5 -59h3q3 24 11 58t20 79l87 328h58l-145 -532h-62z" />
    <glyph glyph-name="x" unicode="x" horiz-adv-x="504" 
d="M216 273l-185 259h66l154 -220l153 220h65l-184 -259l195 -273h-66l-163 234l-164 -234h-65z" />
    <glyph glyph-name="y" unicode="y" horiz-adv-x="469" 
d="M1 532h60l127 -330q16 -45 28 -79.5t19 -61.5h3q15 50 47 139l124 332h61l-240 -626q-27 -71 -64 -109t-100 -38q-19 0 -34.5 2t-28.5 7v48q12 -4 26 -6.5t30 -2.5q42 0 68.5 26t47.5 80l34 89z" />
    <glyph glyph-name="z" unicode="z" horiz-adv-x="463" 
d="M422 0h-382v38l312 448h-290v46h358v-40l-311 -445h313v-47z" />
    <glyph glyph-name="braceleft" unicode="{" horiz-adv-x="359" 
d="M324 -158q-87 0 -134 37t-47 110v159q0 57 -28 81.5t-88 24.5v49q60 0 88 24t28 81v160q0 72 48 109t133 37v-48q-61 -1 -92.5 -26t-31.5 -79v-157q0 -51 -22 -82.5t-72 -40.5v-4q50 -9 72 -41t22 -83v-159q0 -54 31 -78.5t93 -24.5v-49z" />
    <glyph glyph-name="bar" unicode="|" horiz-adv-x="543" 
d="M246 762h49v-1008h-49v1008z" />
    <glyph glyph-name="braceright" unicode="}" horiz-adv-x="359" 
d="M34 -109q62 0 93 24.5t31 78.5v159q0 51 22.5 82.5t71.5 40.5v4q-50 9 -72 41t-22 83v157q0 55 -31 79.5t-93 25.5v48q87 0 134 -37t47 -110v-158q0 -58 28 -82t88 -24v-49q-60 0 -88 -24.5t-28 -80.5v-160q0 -73 -48 -110t-133 -37v49z" />
    <glyph glyph-name="asciitilde" unicode="~" horiz-adv-x="571" 
d="M276 331q-32 14 -55.5 21.5t-51.5 7.5q-61 0 -116 -57v54q49 51 119 51q35 0 62 -8t65 -25q31 -15 54.5 -22t49.5 -7q28 0 58 14t57 43v-53q-22 -24 -51.5 -38t-65.5 -14q-33 0 -60.5 7.5t-64.5 25.5z" />
    <glyph glyph-name="uni00A0" unicode="&#xa0;" horiz-adv-x="260" 
 />
    <glyph glyph-name="exclamdown" unicode="&#xa1;" horiz-adv-x="246" 
d="M167 492q0 -49 -44 -49t-44 49t44 49t44 -49zM101 342h41l14 -526h-68z" />
    <glyph glyph-name="cent" unicode="&#xa2;" horiz-adv-x="571" 
d="M346 641q38 -1 70.5 -7.5t60.5 -18.5l-16 -49q-28 11 -59.5 18t-58.5 7q-95 0 -145.5 -61t-50.5 -168q0 -103 45 -162.5t140 -59.5q40 0 74 7.5t64 20.5v-51q-25 -12 -55.5 -19.5t-69.5 -8.5v-99h-46v100q-103 9 -157 78.5t-54 193.5t57 194t154 82v86h47v-83z" />
    <glyph glyph-name="sterling" unicode="&#xa3;" horiz-adv-x="571" 
d="M339 723q51 0 90.5 -10t71.5 -25l-20 -47q-31 13 -65.5 23t-75.5 10q-67 0 -101 -37.5t-34 -117.5v-146h202v-45h-202v-126q0 -65 -22 -99t-52 -50h396v-53h-490v49q52 10 81.5 46t29.5 106v127h-101v45h101v152q0 96 50.5 147t140.5 51z" />
    <glyph glyph-name="currency" unicode="&#xa4;" horiz-adv-x="571" 
d="M87 354q0 67 43 122l-72 73l32 31l72 -71q53 43 123 43q69 0 123 -43l72 71l31 -32l-70 -72q20 -26 31.5 -57.5t11.5 -64.5q0 -71 -43 -123l70 -72l-31 -32l-72 71q-54 -42 -123 -42q-71 0 -123 43l-72 -71l-31 31l71 72q-43 54 -43 123zM132 354q0 -44 20.5 -79
t55.5 -55t77 -20q43 0 78 20.5t56 56t21 77.5q0 43 -21 78t-56 56t-77 21q-43 0 -78 -21t-55.5 -56t-20.5 -78z" />
    <glyph glyph-name="yen" unicode="&#xa5;" horiz-adv-x="571" 
d="M286 351l203 363h62l-220 -383h146v-44h-163v-97h163v-44h-163v-146h-56v146h-164v44h164v97h-164v44h145l-219 383h62z" />
    <glyph glyph-name="brokenbar" unicode="&#xa6;" horiz-adv-x="543" 
d="M246 762h49v-375h-49v375zM246 129h49v-375h-49v375z" />
    <glyph glyph-name="section" unicode="&#xa7;" horiz-adv-x="516" 
d="M75 395q0 49 27 80t66 47q-40 17 -64.5 42.5t-24.5 70.5q0 59 49 93t137 34q51 0 89.5 -9t73.5 -22l-19 -46q-31 14 -67.5 22.5t-79.5 8.5q-129 0 -129 -80q0 -40 35.5 -59t102.5 -42q47 -16 85 -34.5t60 -46.5t22 -72q0 -49 -24.5 -83t-58.5 -52q36 -17 58 -43t22 -67
q0 -65 -52.5 -102.5t-151.5 -37.5q-54 0 -96.5 9.5t-72.5 23.5v52q35 -17 79.5 -28t91.5 -11q80 0 113.5 25.5t33.5 64.5q0 40 -34.5 61.5t-107.5 46.5q-48 17 -85 35t-57.5 46t-20.5 73zM125 400q0 -48 37 -71.5t106 -47.5l41 -14q33 15 55.5 42.5t22.5 66.5q0 46 -39.5 73
t-127.5 52q-39 -10 -67 -35t-28 -66z" />
    <glyph glyph-name="dieresis" unicode="&#xa8;" horiz-adv-x="578" 
d="M160 680q0 40 35 40q36 0 36 -40q0 -41 -36 -41q-35 0 -35 41zM346 680q0 40 35 40q36 0 36 -40q0 -41 -36 -41q-35 0 -35 41z" />
    <glyph glyph-name="copyright" unicode="&#xa9;" horiz-adv-x="832" 
d="M416 -9q-80 0 -147 28t-116 77.5t-76 116.5t-27 144q0 79 27.5 146t78 116t117 76.5t143.5 27.5q78 0 144.5 -28.5t116.5 -79t78 -117t28 -141.5q0 -78 -28 -144.5t-78 -116t-116.5 -77.5t-144.5 -28zM416 30q69 0 128 25t103 70t69 104.5t25 127.5q0 67 -24 126
t-68 104.5t-103 71t-130 25.5q-70 0 -129 -24.5t-103.5 -69t-68.5 -104t-24 -129.5q0 -67 23.5 -126t67 -104.5t103 -71t131.5 -25.5zM433 138q-96 0 -148.5 57t-52.5 162q0 65 25 114.5t71 77t109 27.5q37 0 67.5 -7.5t57.5 -20.5l-20 -42q-24 12 -49.5 18.5t-54.5 6.5
q-70 0 -111.5 -47t-41.5 -127q0 -86 39.5 -130t110.5 -44q29 0 56 5.5t54 16.5v-44q-25 -11 -51 -17t-61 -6z" />
    <glyph glyph-name="ordfeminine" unicode="&#xaa;" horiz-adv-x="340" 
d="M173 722q115 0 115 -106v-220h-35l-8 44q-16 -21 -42.5 -35t-63.5 -14q-47 0 -74.5 23t-27.5 70q0 49 38 74t119 28l50 2v27q0 37 -20 53t-52 16q-27 0 -51 -7t-47 -19l-16 37q24 12 54 19.5t61 7.5zM197 551q-63 -3 -89 -18.5t-26 -48.5q0 -28 17 -41.5t48 -13.5
q50 0 73.5 25.5t23.5 69.5v29z" />
    <glyph glyph-name="guillemotleft" unicode="&#xab;" horiz-adv-x="449" 
d="M33 278l160 194l40 -24l-139 -176l139 -176l-40 -24l-160 193v13zM217 278l161 194l39 -24l-139 -176l139 -176l-39 -24l-161 193v13z" />
    <glyph glyph-name="logicalnot" unicode="&#xac;" horiz-adv-x="571" 
d="M509 377v-247h-47v199h-409v48h456z" />
    <glyph glyph-name="uni00AD" unicode="&#xad;" horiz-adv-x="322" 
d="M40 244v52h242v-52h-242z" />
    <glyph glyph-name="registered" unicode="&#xae;" horiz-adv-x="832" 
d="M416 -9q-80 0 -147 28t-116 77.5t-76 116.5t-27 144q0 79 27.5 146t78 116t117 76.5t143.5 27.5q78 0 144.5 -28.5t116.5 -79t78 -117t28 -141.5q0 -78 -28 -144.5t-78 -116t-116.5 -77.5t-144.5 -28zM416 30q69 0 128 25t103 70t69 104.5t25 127.5q0 67 -24 126
t-68 104.5t-103 71t-130 25.5q-70 0 -129 -24.5t-103.5 -69t-68.5 -104t-24 -129.5q0 -67 23.5 -126t67 -104.5t103 -71t131.5 -25.5zM289 141v431h123q71 0 110 -30.5t39 -93.5q0 -48 -25.5 -76.5t-60.5 -40.5l115 -190h-59l-104 177h-88v-177h-50zM409 360q44 0 72.5 22
t28.5 65t-26.5 62t-74.5 19h-70v-168h70z" />
    <glyph glyph-name="overscore" unicode="&#xaf;" horiz-adv-x="500" 
d="M503 760h-506v46h506v-46z" />
    <glyph glyph-name="degree" unicode="&#xb0;" horiz-adv-x="428" 
d="M214 429q-66 0 -108.5 40.5t-42.5 107.5q0 66 42 106.5t109 40.5q66 0 108.5 -41t42.5 -106q0 -67 -42.5 -107.5t-108.5 -40.5zM214 471q50 0 77.5 29.5t27.5 76.5q0 48 -28.5 77t-76.5 29q-51 0 -78 -29t-27 -77q0 -47 27 -76.5t78 -29.5z" />
    <glyph glyph-name="plusminus" unicode="&#xb1;" horiz-adv-x="571" 
d="M309 378h209v-47h-209v-212h-48v212h-208v47h208v213h48v-213zM53 0v48h465v-48h-465z" />
    <glyph glyph-name="uni00B2" unicode="&#xb2;" horiz-adv-x="339" 
d="M307 416h-281v38l119 119q38 38 61.5 64.5t34.5 49.5t11 49q0 35 -22 56t-61 21q-31 0 -56.5 -11t-52.5 -31l-24 33q28 23 61.5 36.5t72.5 13.5q61 0 96 -32t35 -84q0 -34 -14.5 -62.5t-41.5 -58t-65 -66.5l-92 -91h219v-44z" />
    <glyph glyph-name="uni00B3" unicode="&#xb3;" horiz-adv-x="339" 
d="M168 852q63 0 98 -29t35 -78q0 -41 -21.5 -67.5t-52.5 -34.5v-3q40 -8 63 -33.5t23 -67.5q0 -59 -41.5 -94t-121.5 -35q-72 0 -128 27v45q31 -15 63.5 -23t64.5 -8q57 0 85 23.5t28 65.5q0 79 -115 79h-62v40h62q51 0 77.5 22t26.5 60q0 34 -23 52t-61 18
q-34 0 -62 -10.5t-56 -27.5l-23 34q29 21 63 33t78 12z" />
    <glyph glyph-name="acute" unicode="&#xb4;" horiz-adv-x="265" 
d="M225 758q-15 -21 -39.5 -49t-52.5 -55.5t-53 -47.5h-40v9q19 19 41 46t42.5 55t33.5 50h68v-8z" />
    <glyph glyph-name="uni00B5" unicode="&#xb5;" horiz-adv-x="602" 
d="M514 532v-532h-47l-9 83h-3q-23 -41 -61.5 -67t-108.5 -26q-53 0 -87.5 17.5t-52.5 45.5h-3q1 -19 1.5 -45.5t0.5 -58.5v-189h-56v772h56v-344q0 -149 144 -149q94 0 131.5 53t37.5 150v290h57z" />
    <glyph glyph-name="paragraph" unicode="&#xb6;" horiz-adv-x="655" 
d="M533 -127h-42v847h-118v-847h-42v441q-31 -9 -71 -9q-88 0 -136.5 57.5t-48.5 170.5q0 120 52.5 173.5t147.5 53.5h258v-887z" />
    <glyph glyph-name="periodcentered" unicode="&#xb7;" horiz-adv-x="244" 
d="M79 334q0 49 43 49q45 0 45 -49q0 -50 -45 -50q-43 0 -43 50z" />
    <glyph glyph-name="cedilla" unicode="&#xb8;" horiz-adv-x="209" 
d="M196 -142q0 -46 -34.5 -72t-95.5 -26q-34 0 -54 6v39q20 -5 55 -5q37 0 59 13.5t22 43.5q0 28 -25.5 41.5t-71.5 16.5l44 85h41l-29 -59q39 -5 64 -25.5t25 -57.5z" />
    <glyph glyph-name="uni00B9" unicode="&#xb9;" horiz-adv-x="339" 
d="M217 844v-428h-49v278q0 27 0.5 53.5t2.5 50.5q-14 -10 -28 -19.5t-32 -20.5l-51 -32l-23 36l133 82h47z" />
    <glyph glyph-name="ordmasculine" unicode="&#xba;" horiz-adv-x="364" 
d="M332 557q0 -76 -39.5 -122t-110.5 -46q-68 0 -107.5 45.5t-39.5 122.5q0 78 40 122.5t110 44.5q71 0 109 -46t38 -121zM80 557q0 -60 25 -94.5t78 -34.5t78 34.5t25 94.5q0 58 -24 93t-78 35q-52 0 -78 -33t-26 -95z" />
    <glyph glyph-name="guillemotright" unicode="&#xbb;" horiz-adv-x="449" 
d="M416 266l-161 -194l-39 24l139 176l-139 176l39 24l161 -193v-13zM232 266l-160 -194l-39 24l138 176l-138 176l39 24l160 -193v-13z" />
    <glyph glyph-name="onequarter" unicode="&#xbc;" horiz-adv-x="722" 
d="M137 0l404 714h51l-404 -714h-51zM156 564q0 27 0.5 53.5t2.5 50.5q-14 -10 -28 -19.5t-32 -20.5l-51 -32l-23 36l133 82h47v-428h-49v278zM595 0v114h-199v35l199 282h50v-275h68v-42h-68v-114h-50zM447 156h148v128q0 23 0.5 46.5t1.5 45.5q-7 -14 -18.5 -31.5
t-22.5 -32.5z" />
    <glyph glyph-name="onehalf" unicode="&#xbd;" horiz-adv-x="758" 
d="M122 0l404 714h51l-404 -714h-51zM150 564q0 27 0.5 53.5t2.5 50.5q-14 -10 -28 -19.5t-32 -20.5l-51 -32l-23 36l133 82h47v-428h-49v278zM444 0v38l119 119q38 38 62 64.5t35 49.5t11 49q0 35 -22 56t-61 21q-31 0 -57 -11t-52 -31l-24 33q28 23 61 36.5t72 13.5
q62 0 97 -32t35 -84q0 -34 -14.5 -62.5t-42 -58t-65.5 -66.5l-92 -91h219v-44h-281z" />
    <glyph glyph-name="threequarters" unicode="&#xbe;" horiz-adv-x="770" 
d="M149 280q-72 0 -128 27v45q31 -15 63.5 -23t64.5 -8q57 0 85 23.5t28 65.5q0 79 -115 79h-62v40h62q51 0 77.5 22t26.5 60q0 34 -23 52t-61 18q-34 0 -62 -10.5t-56 -27.5l-23 34q29 21 63 33t78 12q63 0 98 -29t35 -78q0 -41 -21.5 -67.5t-52.5 -34.5v-3q40 -8 63 -33.5
t23 -67.5q0 -59 -41.5 -94t-121.5 -35zM189 0l404 714h51l-404 -714h-51zM643 0v114h-199v35l199 282h50v-275h68v-42h-68v-114h-50zM495 156h148v128q0 23 0.5 46.5t1.5 45.5q-7 -14 -18.5 -31.5t-22.5 -32.5z" />
    <glyph glyph-name="questiondown" unicode="&#xbf;" horiz-adv-x="424" 
d="M299 494q0 -49 -43 -49q-44 0 -44 49t44 49q43 0 43 -49zM282 325q0 -43 -7 -73t-25.5 -54t-51.5 -50q-38 -30 -62 -53t-35.5 -49.5t-11.5 -63.5q0 -62 37.5 -92.5t102.5 -30.5q43 0 78.5 10.5t71.5 27.5l20 -48q-42 -19 -82.5 -30t-90.5 -11q-90 0 -141.5 44.5
t-51.5 128.5q0 47 15.5 80.5t43.5 60.5t66 56q30 23 46.5 44t23.5 46t7 62v15h47v-20z" />
    <glyph glyph-name="Agrave" unicode="&#xc0;" horiz-adv-x="608" 
d="M547 0l-95 246h-296l-96 -246h-60l281 717h53l274 -717h-61zM339 556q-6 14 -16 44t-17 53q-8 -27 -17 -53t-15 -45l-99 -256h259zM265 948q12 -22 32.5 -50t43 -55t41.5 -46v-9h-40q-25 20 -53 47.5t-52.5 55.5t-39.5 49v8h68z" />
    <glyph glyph-name="Aacute" unicode="&#xc1;" horiz-adv-x="608" 
d="M547 0l-95 246h-296l-96 -246h-60l281 717h53l274 -717h-61zM339 556q-6 14 -16 44t-17 53q-8 -27 -17 -53t-15 -45l-99 -256h259zM440 940q-15 -21 -39.5 -49t-52.5 -55.5t-53 -47.5h-40v9q19 19 41 46t42.5 55t33.5 50h68v-8z" />
    <glyph glyph-name="Acircumflex" unicode="&#xc2;" horiz-adv-x="608" 
d="M547 0l-95 246h-296l-96 -246h-60l281 717h53l274 -717h-61zM339 556q-6 14 -16 44t-17 53q-8 -27 -17 -53t-15 -45l-99 -256h259zM332 947q12 -22 33 -49.5t44 -54.5t42 -46v-9h-41q-27 22 -55 51t-52 57q-24 -28 -51.5 -57t-54.5 -51h-41v9q19 20 42 46.5t44 54
t34 49.5h56z" />
    <glyph glyph-name="Atilde" unicode="&#xc3;" horiz-adv-x="608" 
d="M547 0l-95 246h-296l-96 -246h-60l281 717h53l274 -717h-61zM339 556q-6 14 -16 44t-17 53q-8 -27 -17 -53t-15 -45l-99 -256h259zM131 794q5 54 31 83.5t69 29.5q23 0 42.5 -10t37 -23t34.5 -23t35 -10q22 0 38 14.5t22 52.5h37q-5 -54 -31.5 -84t-68.5 -30
q-23 0 -42.5 10t-36.5 23t-34 23t-36 10q-23 0 -38 -14.5t-21 -51.5h-38z" />
    <glyph glyph-name="Adieresis" unicode="&#xc4;" horiz-adv-x="608" 
d="M547 0l-95 246h-296l-96 -246h-60l281 717h53l274 -717h-61zM339 556q-6 14 -16 44t-17 53q-8 -27 -17 -53t-15 -45l-99 -256h259zM176 862q0 40 35 40q36 0 36 -40q0 -41 -36 -41q-35 0 -35 41zM362 862q0 40 35 40q36 0 36 -40q0 -41 -36 -41q-35 0 -35 41z" />
    <glyph glyph-name="Aring" unicode="&#xc5;" horiz-adv-x="608" 
d="M547 0l-95 246h-296l-96 -246h-60l281 717h53l274 -717h-61zM339 556q-6 14 -16 44t-17 53q-8 -27 -17 -53t-15 -45l-99 -256h259zM305 682q-45 0 -75 27.5t-30 75.5q0 46 30 74t75 28q44 0 75 -28.5t31 -73.5q0 -48 -30.5 -75.5t-75.5 -27.5zM305 719q29 0 47.5 18.5
t18.5 47.5q0 28 -19.5 47t-46.5 19q-28 0 -47 -19t-19 -47q0 -29 18 -47.5t48 -18.5z" />
    <glyph glyph-name="AE" unicode="&#xc6;" horiz-adv-x="822" 
d="M786 0h-379v246h-235l-111 -246h-62l323 714h464v-52h-321v-261h301v-52h-301v-297h321v-52zM195 298h212v364h-50z" />
    <glyph glyph-name="Ccedilla" unicode="&#xc7;" horiz-adv-x="623" 
d="M404 672q-88 0 -151 -39.5t-96.5 -110t-33.5 -163.5q0 -96 30 -167.5t90.5 -110.5t150.5 -39q52 0 95.5 8t82.5 21v-51q-37 -14 -81 -22t-103 -8q-108 0 -180.5 46t-109 129t-36.5 194q0 106 40.5 188.5t117 129.5t185.5 47q104 0 187 -39l-23 -51q-77 38 -165 38z
M456 -142q0 -46 -34.5 -72t-95.5 -26q-34 0 -54 6v39q20 -5 55 -5q37 0 59 13.5t22 43.5q0 28 -25.5 41.5t-71.5 16.5l44 85h41l-29 -59q39 -5 64 -25.5t25 -57.5z" />
    <glyph glyph-name="Egrave" unicode="&#xc8;" horiz-adv-x="553" 
d="M492 0h-392v714h392v-52h-334v-261h315v-52h-315v-297h334v-52zM266 948q12 -22 32.5 -50t43 -55t41.5 -46v-9h-40q-25 20 -53 47.5t-52.5 55.5t-39.5 49v8h68z" />
    <glyph glyph-name="Eacute" unicode="&#xc9;" horiz-adv-x="553" 
d="M492 0h-392v714h392v-52h-334v-261h315v-52h-315v-297h334v-52zM442 940q-15 -21 -39.5 -49t-52.5 -55.5t-53 -47.5h-40v9q19 19 41 46t42.5 55t33.5 50h68v-8z" />
    <glyph glyph-name="Ecircumflex" unicode="&#xca;" horiz-adv-x="553" 
d="M492 0h-392v714h392v-52h-334v-261h315v-52h-315v-297h334v-52zM334 947q12 -22 33 -49.5t44 -54.5t42 -46v-9h-41q-27 22 -55 51t-52 57q-24 -28 -51.5 -57t-54.5 -51h-41v9q19 20 42 46.5t44 54t34 49.5h56z" />
    <glyph glyph-name="Edieresis" unicode="&#xcb;" horiz-adv-x="553" 
d="M492 0h-392v714h392v-52h-334v-261h315v-52h-315v-297h334v-52zM178 862q0 40 35 40q36 0 36 -40q0 -41 -36 -41q-35 0 -35 41zM364 862q0 40 35 40q36 0 36 -40q0 -41 -36 -41q-35 0 -35 41z" />
    <glyph glyph-name="Igrave" unicode="&#xcc;" horiz-adv-x="311" 
d="M261 0h-210v36l76 11v619l-76 12v36h210v-36l-76 -12v-619l76 -11v-36zM117 948q12 -22 32.5 -50t43 -55t41.5 -46v-9h-40q-25 20 -53 47.5t-52.5 55.5t-39.5 49v8h68z" />
    <glyph glyph-name="Iacute" unicode="&#xcd;" horiz-adv-x="311" 
d="M261 0h-210v36l76 11v619l-76 12v36h210v-36l-76 -12v-619l76 -11v-36zM293 940q-15 -21 -39.5 -49t-52.5 -55.5t-53 -47.5h-40v9q19 19 41 46t42.5 55t33.5 50h68v-8z" />
    <glyph glyph-name="Icircumflex" unicode="&#xce;" horiz-adv-x="311" 
d="M261 0h-210v36l76 11v619l-76 12v36h210v-36l-76 -12v-619l76 -11v-36zM185 947q12 -22 33 -49.5t44 -54.5t42 -46v-9h-41q-27 22 -55 51t-52 57q-24 -28 -51.5 -57t-54.5 -51h-41v9q19 20 42 46.5t44 54t34 49.5h56z" />
    <glyph glyph-name="Idieresis" unicode="&#xcf;" horiz-adv-x="311" 
d="M261 0h-210v36l76 11v619l-76 12v36h210v-36l-76 -12v-619l76 -11v-36zM29 862q0 40 35 40q36 0 36 -40q0 -41 -36 -41q-35 0 -35 41zM215 862q0 40 35 40q36 0 36 -40q0 -41 -36 -41q-35 0 -35 41z" />
    <glyph glyph-name="Eth" unicode="&#xd0;" horiz-adv-x="711" 
d="M299 714q168 0 259 -89.5t91 -260.5q0 -180 -95.5 -272t-277.5 -92h-172v329h-80v51h80v334h195zM287 663h-125v-283h192v-51h-192v-278h110q316 0 316 311q0 301 -301 301z" />
    <glyph glyph-name="Ntilde" unicode="&#xd1;" horiz-adv-x="729" 
d="M629 0h-62l-414 624h-3q2 -39 3.5 -82.5t1.5 -90.5v-451h-55v714h62l413 -622h3q-2 31 -3 79t-1 90v453h55v-714zM192 794q5 54 31 83.5t69 29.5q23 0 42.5 -10t37 -23t34.5 -23t35 -10q22 0 38 14.5t22 52.5h37q-5 -54 -31.5 -84t-68.5 -30q-23 0 -42.5 10t-36.5 23
t-34 23t-36 10q-23 0 -38 -14.5t-21 -51.5h-38z" />
    <glyph glyph-name="Ograve" unicode="&#xd2;" horiz-adv-x="768" 
d="M705 358q0 -109 -36 -192t-107.5 -129.5t-177.5 -46.5q-108 0 -179.5 46.5t-107 130t-35.5 192.5t36.5 191t109 128.5t179.5 46.5q103 0 174 -44.5t107.5 -126.5t36.5 -196zM123 359q0 -95 28 -166.5t86 -111t147 -39.5q90 0 147.5 39t85 110.5t27.5 166.5
q0 149 -64.5 232t-192.5 83q-89 0 -148 -39.5t-87.5 -110t-28.5 -164.5zM345 948q12 -22 32.5 -50t43 -55t41.5 -46v-9h-40q-25 20 -53 47.5t-52.5 55.5t-39.5 49v8h68z" />
    <glyph glyph-name="Oacute" unicode="&#xd3;" horiz-adv-x="768" 
d="M705 358q0 -109 -36 -192t-107.5 -129.5t-177.5 -46.5q-108 0 -179.5 46.5t-107 130t-35.5 192.5t36.5 191t109 128.5t179.5 46.5q103 0 174 -44.5t107.5 -126.5t36.5 -196zM123 359q0 -95 28 -166.5t86 -111t147 -39.5q90 0 147.5 39t85 110.5t27.5 166.5
q0 149 -64.5 232t-192.5 83q-89 0 -148 -39.5t-87.5 -110t-28.5 -164.5zM521 940q-15 -21 -39.5 -49t-52.5 -55.5t-53 -47.5h-40v9q19 19 41 46t42.5 55t33.5 50h68v-8z" />
    <glyph glyph-name="Ocircumflex" unicode="&#xd4;" horiz-adv-x="768" 
d="M705 358q0 -109 -36 -192t-107.5 -129.5t-177.5 -46.5q-108 0 -179.5 46.5t-107 130t-35.5 192.5t36.5 191t109 128.5t179.5 46.5q103 0 174 -44.5t107.5 -126.5t36.5 -196zM123 359q0 -95 28 -166.5t86 -111t147 -39.5q90 0 147.5 39t85 110.5t27.5 166.5
q0 149 -64.5 232t-192.5 83q-89 0 -148 -39.5t-87.5 -110t-28.5 -164.5zM413 947q12 -22 33 -49.5t44 -54.5t42 -46v-9h-41q-27 22 -55 51t-52 57q-24 -28 -51.5 -57t-54.5 -51h-41v9q19 20 42 46.5t44 54t34 49.5h56z" />
    <glyph glyph-name="Otilde" unicode="&#xd5;" horiz-adv-x="768" 
d="M705 358q0 -109 -36 -192t-107.5 -129.5t-177.5 -46.5q-108 0 -179.5 46.5t-107 130t-35.5 192.5t36.5 191t109 128.5t179.5 46.5q103 0 174 -44.5t107.5 -126.5t36.5 -196zM123 359q0 -95 28 -166.5t86 -111t147 -39.5q90 0 147.5 39t85 110.5t27.5 166.5
q0 149 -64.5 232t-192.5 83q-89 0 -148 -39.5t-87.5 -110t-28.5 -164.5zM212 794q5 54 31 83.5t69 29.5q23 0 42.5 -10t37 -23t34.5 -23t35 -10q22 0 38 14.5t22 52.5h37q-5 -54 -31.5 -84t-68.5 -30q-23 0 -42.5 10t-36.5 23t-34 23t-36 10q-23 0 -38 -14.5t-21 -51.5h-38z
" />
    <glyph glyph-name="Odieresis" unicode="&#xd6;" horiz-adv-x="768" 
d="M705 358q0 -109 -36 -192t-107.5 -129.5t-177.5 -46.5q-108 0 -179.5 46.5t-107 130t-35.5 192.5t36.5 191t109 128.5t179.5 46.5q103 0 174 -44.5t107.5 -126.5t36.5 -196zM123 359q0 -95 28 -166.5t86 -111t147 -39.5q90 0 147.5 39t85 110.5t27.5 166.5
q0 149 -64.5 232t-192.5 83q-89 0 -148 -39.5t-87.5 -110t-28.5 -164.5zM257 862q0 40 35 40q36 0 36 -40q0 -41 -36 -41q-35 0 -35 41zM443 862q0 40 35 40q36 0 36 -40q0 -41 -36 -41q-35 0 -35 41z" />
    <glyph glyph-name="multiply" unicode="&#xd7;" horiz-adv-x="571" 
d="M469 571l34 -34l-184 -184l183 -183l-33 -34l-184 183l-182 -183l-35 34l183 183l-183 183l34 35l183 -184z" />
    <glyph glyph-name="Oslash" unicode="&#xd8;" horiz-adv-x="768" 
d="M705 358q0 -109 -36 -192t-107.5 -129.5t-177.5 -46.5q-120 0 -195 60l-57 -78l-41 27l60 83q-44 49 -66.5 119.5t-22.5 157.5q0 109 36.5 191t109 128.5t179.5 46.5q56 0 103 -14.5t85 -40.5l53 73l40 -28l-56 -77q45 -48 69 -119t24 -161zM123 359q0 -71 15.5 -128.5
t47.5 -99.5l357 494q-62 48 -156 48q-89 0 -148 -39.5t-87.5 -110t-28.5 -164.5zM644 358q0 151 -66 232l-358 -495q30 -25 71.5 -39t92.5 -14q90 0 147.5 39t85 110.5t27.5 166.5z" />
    <glyph glyph-name="Ugrave" unicode="&#xd9;" horiz-adv-x="722" 
d="M629 252q0 -122 -70.5 -192t-199.5 -70t-197.5 70t-68.5 194v460h58v-460q0 -104 54 -158t157 -54q101 0 155.5 54.5t54.5 151.5v466h57v-462zM322 948q12 -22 32.5 -50t43 -55t41.5 -46v-9h-40q-25 20 -53 47.5t-52.5 55.5t-39.5 49v8h68z" />
    <glyph glyph-name="Uacute" unicode="&#xda;" horiz-adv-x="722" 
d="M629 252q0 -122 -70.5 -192t-199.5 -70t-197.5 70t-68.5 194v460h58v-460q0 -104 54 -158t157 -54q101 0 155.5 54.5t54.5 151.5v466h57v-462zM498 940q-15 -21 -39.5 -49t-52.5 -55.5t-53 -47.5h-40v9q19 19 41 46t42.5 55t33.5 50h68v-8z" />
    <glyph glyph-name="Ucircumflex" unicode="&#xdb;" horiz-adv-x="722" 
d="M629 252q0 -122 -70.5 -192t-199.5 -70t-197.5 70t-68.5 194v460h58v-460q0 -104 54 -158t157 -54q101 0 155.5 54.5t54.5 151.5v466h57v-462zM390 947q12 -22 33 -49.5t44 -54.5t42 -46v-9h-41q-27 22 -55 51t-52 57q-24 -28 -51.5 -57t-54.5 -51h-41v9q19 20 42 46.5
t44 54t34 49.5h56z" />
    <glyph glyph-name="Udieresis" unicode="&#xdc;" horiz-adv-x="722" 
d="M629 252q0 -122 -70.5 -192t-199.5 -70t-197.5 70t-68.5 194v460h58v-460q0 -104 54 -158t157 -54q101 0 155.5 54.5t54.5 151.5v466h57v-462zM234 862q0 40 35 40q36 0 36 -40q0 -41 -36 -41q-35 0 -35 41zM420 862q0 40 35 40q36 0 36 -40q0 -41 -36 -41q-35 0 -35 41z
" />
    <glyph glyph-name="Yacute" unicode="&#xdd;" horiz-adv-x="536" 
d="M268 332l204 382h64l-238 -438v-276h-58v272l-240 442h64zM405 940q-15 -21 -39.5 -49t-52.5 -55.5t-53 -47.5h-40v9q19 19 41 46t42.5 55t33.5 50h68v-8z" />
    <glyph glyph-name="Thorn" unicode="&#xde;" horiz-adv-x="589" 
d="M536 382q0 -100 -65.5 -159t-208.5 -59h-104v-164h-58v714h58v-128h124q131 0 192.5 -51t61.5 -153zM256 215q106 0 163 36.5t57 128.5q0 81 -48 118t-153 37h-117v-320h98z" />
    <glyph glyph-name="germandbls" unicode="&#xdf;" horiz-adv-x="593" 
d="M481 627q0 -36 -14 -60.5t-35 -42t-41.5 -33t-34.5 -33t-14 -42.5q0 -30 21 -50t70 -53q32 -22 57.5 -44.5t40 -52t14.5 -72.5q0 -72 -46.5 -113t-129.5 -41q-48 0 -81 8.5t-59 22.5v53q29 -15 64 -25.5t74 -10.5q62 0 91.5 28t29.5 75q0 46 -23.5 74t-70.5 60
q-53 35 -80.5 64t-27.5 75q0 33 14 55t34 38t40.5 31.5t34.5 35.5t14 50q0 45 -34.5 68.5t-94.5 23.5q-69 0 -109.5 -34t-40.5 -108v-574h-57v574q0 98 56.5 144.5t150.5 46.5q87 0 137 -36t50 -102z" />
    <glyph glyph-name="agrave" unicode="&#xe0;" horiz-adv-x="536" 
d="M276 541q90 0 134 -44t44 -139v-358h-43l-10 90h-3q-29 -45 -70.5 -72.5t-115.5 -27.5q-77 0 -121 38.5t-44 110.5q0 80 65 121.5t189 46.5l97 5v37q0 78 -31.5 111t-92.5 33q-41 0 -79 -11t-76 -29l-18 46q38 18 82.5 30t92.5 12zM308 265q-102 -5 -151.5 -35.5
t-49.5 -90.5q0 -50 30.5 -75.5t84.5 -25.5q83 0 129 47.5t47 131.5v52zM230 766q12 -22 32.5 -50t43 -55t41.5 -46v-9h-40q-25 20 -53 47.5t-52.5 55.5t-39.5 49v8h68z" />
    <glyph glyph-name="aacute" unicode="&#xe1;" horiz-adv-x="536" 
d="M276 541q90 0 134 -44t44 -139v-358h-43l-10 90h-3q-29 -45 -70.5 -72.5t-115.5 -27.5q-77 0 -121 38.5t-44 110.5q0 80 65 121.5t189 46.5l97 5v37q0 78 -31.5 111t-92.5 33q-41 0 -79 -11t-76 -29l-18 46q38 18 82.5 30t92.5 12zM308 265q-102 -5 -151.5 -35.5
t-49.5 -90.5q0 -50 30.5 -75.5t84.5 -25.5q83 0 129 47.5t47 131.5v52zM405 758q-15 -21 -39.5 -49t-52.5 -55.5t-53 -47.5h-40v9q19 19 41 46t42.5 55t33.5 50h68v-8z" />
    <glyph glyph-name="acircumflex" unicode="&#xe2;" horiz-adv-x="536" 
d="M276 541q90 0 134 -44t44 -139v-358h-43l-10 90h-3q-29 -45 -70.5 -72.5t-115.5 -27.5q-77 0 -121 38.5t-44 110.5q0 80 65 121.5t189 46.5l97 5v37q0 78 -31.5 111t-92.5 33q-41 0 -79 -11t-76 -29l-18 46q38 18 82.5 30t92.5 12zM308 265q-102 -5 -151.5 -35.5
t-49.5 -90.5q0 -50 30.5 -75.5t84.5 -25.5q83 0 129 47.5t47 131.5v52zM297 765q12 -22 33 -49.5t44 -54.5t42 -46v-9h-41q-27 22 -55 51t-52 57q-24 -28 -51.5 -57t-54.5 -51h-41v9q19 20 42 46.5t44 54t34 49.5h56z" />
    <glyph glyph-name="atilde" unicode="&#xe3;" horiz-adv-x="536" 
d="M276 541q90 0 134 -44t44 -139v-358h-43l-10 90h-3q-29 -45 -70.5 -72.5t-115.5 -27.5q-77 0 -121 38.5t-44 110.5q0 80 65 121.5t189 46.5l97 5v37q0 78 -31.5 111t-92.5 33q-41 0 -79 -11t-76 -29l-18 46q38 18 82.5 30t92.5 12zM308 265q-102 -5 -151.5 -35.5
t-49.5 -90.5q0 -50 30.5 -75.5t84.5 -25.5q83 0 129 47.5t47 131.5v52zM96 612q5 54 31 83.5t69 29.5q23 0 42.5 -10t37 -23t34.5 -23t35 -10q22 0 38 14.5t22 52.5h37q-5 -54 -31.5 -84t-68.5 -30q-23 0 -42.5 10t-36.5 23t-34 23t-36 10q-23 0 -38 -14.5t-21 -51.5h-38z
" />
    <glyph glyph-name="adieresis" unicode="&#xe4;" horiz-adv-x="536" 
d="M276 541q90 0 134 -44t44 -139v-358h-43l-10 90h-3q-29 -45 -70.5 -72.5t-115.5 -27.5q-77 0 -121 38.5t-44 110.5q0 80 65 121.5t189 46.5l97 5v37q0 78 -31.5 111t-92.5 33q-41 0 -79 -11t-76 -29l-18 46q38 18 82.5 30t92.5 12zM308 265q-102 -5 -151.5 -35.5
t-49.5 -90.5q0 -50 30.5 -75.5t84.5 -25.5q83 0 129 47.5t47 131.5v52zM141 680q0 40 35 40q36 0 36 -40q0 -41 -36 -41q-35 0 -35 41zM327 680q0 40 35 40q36 0 36 -40q0 -41 -36 -41q-35 0 -35 41z" />
    <glyph glyph-name="aring" unicode="&#xe5;" horiz-adv-x="536" 
d="M276 541q90 0 134 -44t44 -139v-358h-43l-10 90h-3q-29 -45 -70.5 -72.5t-115.5 -27.5q-77 0 -121 38.5t-44 110.5q0 80 65 121.5t189 46.5l97 5v37q0 78 -31.5 111t-92.5 33q-41 0 -79 -11t-76 -29l-18 46q38 18 82.5 30t92.5 12zM308 265q-102 -5 -151.5 -35.5
t-49.5 -90.5q0 -50 30.5 -75.5t84.5 -25.5q83 0 129 47.5t47 131.5v52zM268 609q-45 0 -75 27.5t-30 75.5q0 46 30 74t75 28q44 0 75 -28.5t31 -73.5q0 -48 -30.5 -75.5t-75.5 -27.5zM268 646q29 0 47.5 18.5t18.5 47.5q0 28 -19.5 47t-46.5 19q-28 0 -47 -19t-19 -47
q0 -29 18 -47.5t48 -18.5z" />
    <glyph glyph-name="ae" unicode="&#xe6;" horiz-adv-x="857" 
d="M604 542q64 0 108.5 -31.5t67.5 -86.5t21 -125v-40h-357q0 -108 46 -163.5t129 -55.5q46 0 82 8.5t78 27.5v-52q-39 -18 -77 -26t-84 -8q-77 0 -128.5 36t-75.5 98q-27 -61 -73.5 -97.5t-127.5 -36.5q-77 0 -121.5 38.5t-44.5 110.5q0 80 63 121t183 47l93 5v38
q0 78 -32 110.5t-89 32.5q-39 0 -77 -10.5t-76 -29.5l-18 46q38 18 83 30t91 12q66 0 105.5 -28.5t53.5 -90.5q24 54 68.5 87t108.5 33zM603 494q-65 0 -107.5 -48t-49.5 -140h295q0 84 -34 136t-104 52zM301 265q-97 -5 -145.5 -35.5t-48.5 -90.5q0 -50 29.5 -75.5
t83.5 -25.5q78 0 121 47.5t44 131.5v52z" />
    <glyph glyph-name="ccedilla" unicode="&#xe7;" horiz-adv-x="476" 
d="M301 -10q-117 0 -180.5 72t-63.5 201q0 90 32 152t89.5 94.5t134.5 32.5q38 0 72 -7t60 -19l-16 -49q-27 11 -58 17.5t-59 6.5q-95 0 -145.5 -61t-50.5 -166q0 -100 45 -161.5t140 -61.5q39 0 74 8t63 20v-51q-26 -13 -59.5 -20.5t-77.5 -7.5zM370 -142q0 -46 -34.5 -72
t-95.5 -26q-34 0 -54 6v39q20 -5 55 -5q37 0 59 13.5t22 43.5q0 28 -25.5 41.5t-71.5 16.5l44 85h41l-29 -59q39 -5 64 -25.5t25 -57.5z" />
    <glyph glyph-name="egrave" unicode="&#xe8;" horiz-adv-x="552" 
d="M290 542q68 0 113.5 -31.5t69 -86.5t23.5 -126v-39h-380q0 -106 49.5 -162.5t141.5 -56.5q49 0 86 8.5t81 27.5v-52q-40 -18 -79 -26t-90 -8q-120 0 -184 73t-64 199q0 81 27.5 144t79.5 99.5t126 36.5zM289 494q-73 0 -118.5 -49t-52.5 -139h319q0 84 -36.5 136
t-111.5 52zM239 766q12 -22 32.5 -50t43 -55t41.5 -46v-9h-40q-25 20 -53 47.5t-52.5 55.5t-39.5 49v8h68z" />
    <glyph glyph-name="eacute" unicode="&#xe9;" horiz-adv-x="552" 
d="M290 542q68 0 113.5 -31.5t69 -86.5t23.5 -126v-39h-380q0 -106 49.5 -162.5t141.5 -56.5q49 0 86 8.5t81 27.5v-52q-40 -18 -79 -26t-90 -8q-120 0 -184 73t-64 199q0 81 27.5 144t79.5 99.5t126 36.5zM289 494q-73 0 -118.5 -49t-52.5 -139h319q0 84 -36.5 136
t-111.5 52zM414 758q-15 -21 -39.5 -49t-52.5 -55.5t-53 -47.5h-40v9q19 19 41 46t42.5 55t33.5 50h68v-8z" />
    <glyph glyph-name="ecircumflex" unicode="&#xea;" horiz-adv-x="552" 
d="M290 542q68 0 113.5 -31.5t69 -86.5t23.5 -126v-39h-380q0 -106 49.5 -162.5t141.5 -56.5q49 0 86 8.5t81 27.5v-52q-40 -18 -79 -26t-90 -8q-120 0 -184 73t-64 199q0 81 27.5 144t79.5 99.5t126 36.5zM289 494q-73 0 -118.5 -49t-52.5 -139h319q0 84 -36.5 136
t-111.5 52zM306 765q12 -22 33 -49.5t44 -54.5t42 -46v-9h-41q-27 22 -55 51t-52 57q-24 -28 -51.5 -57t-54.5 -51h-41v9q19 20 42 46.5t44 54t34 49.5h56z" />
    <glyph glyph-name="edieresis" unicode="&#xeb;" horiz-adv-x="552" 
d="M290 542q68 0 113.5 -31.5t69 -86.5t23.5 -126v-39h-380q0 -106 49.5 -162.5t141.5 -56.5q49 0 86 8.5t81 27.5v-52q-40 -18 -79 -26t-90 -8q-120 0 -184 73t-64 199q0 81 27.5 144t79.5 99.5t126 36.5zM289 494q-73 0 -118.5 -49t-52.5 -139h319q0 84 -36.5 136
t-111.5 52zM150 680q0 40 35 40q36 0 36 -40q0 -41 -36 -41q-35 0 -35 41zM336 680q0 40 35 40q36 0 36 -40q0 -41 -36 -41q-35 0 -35 41z" />
    <glyph glyph-name="igrave" unicode="&#xec;" horiz-adv-x="233" 
d="M145 0h-57v532h57v-532zM78 766q12 -22 32.5 -50t43 -55t41.5 -46v-9h-40q-25 20 -53 47.5t-52.5 55.5t-39.5 49v8h68z" />
    <glyph glyph-name="iacute" unicode="&#xed;" horiz-adv-x="233" 
d="M145 0h-57v532h57v-532zM253 758q-15 -21 -39.5 -49t-52.5 -55.5t-53 -47.5h-40v9q19 19 41 46t42.5 55t33.5 50h68v-8z" />
    <glyph glyph-name="icircumflex" unicode="&#xee;" horiz-adv-x="233" 
d="M145 0h-57v532h57v-532zM145 765q12 -22 33 -49.5t44 -54.5t42 -46v-9h-41q-27 22 -55 51t-52 57q-24 -28 -51.5 -57t-54.5 -51h-41v9q19 20 42 46.5t44 54t34 49.5h56z" />
    <glyph glyph-name="idieresis" unicode="&#xef;" horiz-adv-x="233" 
d="M145 0h-57v532h57v-532zM-11 680q0 40 35 40q36 0 36 -40q0 -41 -36 -41q-35 0 -35 41zM175 680q0 40 35 40q36 0 36 -40q0 -41 -36 -41q-35 0 -35 41z" />
    <glyph glyph-name="eth" unicode="&#xf0;" horiz-adv-x="580" 
d="M210 761q71 -33 122 -72l112 67l25 -37l-101 -60q73 -72 114 -169.5t41 -215.5q0 -130 -60.5 -207t-174.5 -77q-71 0 -123 29.5t-80.5 83t-28.5 125.5q0 75 29 129t80.5 83t119.5 29q61 0 101 -17.5t65 -48.5l3 1q-15 65 -49.5 124t-82.5 104l-130 -76l-25 37l117 69
q-45 33 -98 59zM291 421q-83 0 -130 -50.5t-47 -143.5q0 -87 45 -137.5t130 -50.5q86 0 131 58.5t45 170.5q0 35 -16.5 70.5t-54 59t-103.5 23.5z" />
    <glyph glyph-name="ntilde" unicode="&#xf1;" horiz-adv-x="596" 
d="M326 542q91 0 139 -47t48 -147v-348h-56v344q0 76 -35 112.5t-102 36.5q-175 0 -175 -203v-290h-57v532h46l8 -92h4q21 44 67 73t113 29zM126 612q5 54 31 83.5t69 29.5q23 0 42.5 -10t37 -23t34.5 -23t35 -10q22 0 38 14.5t22 52.5h37q-5 -54 -31.5 -84t-68.5 -30
q-23 0 -42.5 10t-36.5 23t-34 23t-36 10q-23 0 -38 -14.5t-21 -51.5h-38z" />
    <glyph glyph-name="ograve" unicode="&#xf2;" horiz-adv-x="590" 
d="M533 267q0 -84 -27.5 -146t-81 -96.5t-130.5 -34.5q-74 0 -127 34t-81.5 96.5t-28.5 146.5q0 129 64 202t177 73q76 0 128.5 -34.5t79.5 -96.5t27 -144zM116 267q0 -103 43.5 -165.5t135.5 -62.5q93 0 136 63t43 165q0 66 -18 117t-57 80t-102 29q-90 0 -135.5 -60
t-45.5 -166zM257 766q12 -22 32.5 -50t43 -55t41.5 -46v-9h-40q-25 20 -53 47.5t-52.5 55.5t-39.5 49v8h68z" />
    <glyph glyph-name="oacute" unicode="&#xf3;" horiz-adv-x="590" 
d="M533 267q0 -84 -27.5 -146t-81 -96.5t-130.5 -34.5q-74 0 -127 34t-81.5 96.5t-28.5 146.5q0 129 64 202t177 73q76 0 128.5 -34.5t79.5 -96.5t27 -144zM116 267q0 -103 43.5 -165.5t135.5 -62.5q93 0 136 63t43 165q0 66 -18 117t-57 80t-102 29q-90 0 -135.5 -60
t-45.5 -166zM432 758q-15 -21 -39.5 -49t-52.5 -55.5t-53 -47.5h-40v9q19 19 41 46t42.5 55t33.5 50h68v-8z" />
    <glyph glyph-name="ocircumflex" unicode="&#xf4;" horiz-adv-x="590" 
d="M533 267q0 -84 -27.5 -146t-81 -96.5t-130.5 -34.5q-74 0 -127 34t-81.5 96.5t-28.5 146.5q0 129 64 202t177 73q76 0 128.5 -34.5t79.5 -96.5t27 -144zM116 267q0 -103 43.5 -165.5t135.5 -62.5q93 0 136 63t43 165q0 66 -18 117t-57 80t-102 29q-90 0 -135.5 -60
t-45.5 -166zM324 765q12 -22 33 -49.5t44 -54.5t42 -46v-9h-41q-27 22 -55 51t-52 57q-24 -28 -51.5 -57t-54.5 -51h-41v9q19 20 42 46.5t44 54t34 49.5h56z" />
    <glyph glyph-name="otilde" unicode="&#xf5;" horiz-adv-x="590" 
d="M533 267q0 -84 -27.5 -146t-81 -96.5t-130.5 -34.5q-74 0 -127 34t-81.5 96.5t-28.5 146.5q0 129 64 202t177 73q76 0 128.5 -34.5t79.5 -96.5t27 -144zM116 267q0 -103 43.5 -165.5t135.5 -62.5q93 0 136 63t43 165q0 66 -18 117t-57 80t-102 29q-90 0 -135.5 -60
t-45.5 -166zM123 612q5 54 31 83.5t69 29.5q23 0 42.5 -10t37 -23t34.5 -23t35 -10q22 0 38 14.5t22 52.5h37q-5 -54 -31.5 -84t-68.5 -30q-23 0 -42.5 10t-36.5 23t-34 23t-36 10q-23 0 -38 -14.5t-21 -51.5h-38z" />
    <glyph glyph-name="odieresis" unicode="&#xf6;" horiz-adv-x="590" 
d="M533 267q0 -84 -27.5 -146t-81 -96.5t-130.5 -34.5q-74 0 -127 34t-81.5 96.5t-28.5 146.5q0 129 64 202t177 73q76 0 128.5 -34.5t79.5 -96.5t27 -144zM116 267q0 -103 43.5 -165.5t135.5 -62.5q93 0 136 63t43 165q0 66 -18 117t-57 80t-102 29q-90 0 -135.5 -60
t-45.5 -166zM168 680q0 40 35 40q36 0 36 -40q0 -41 -36 -41q-35 0 -35 41zM354 680q0 40 35 40q36 0 36 -40q0 -41 -36 -41q-35 0 -35 41z" />
    <glyph glyph-name="divide" unicode="&#xf7;" horiz-adv-x="571" 
d="M285 481q-41 0 -41 46t41 46t41 -46t-41 -46zM53 329v48h465v-48h-465zM285 133q-41 0 -41 46q0 45 41 45t41 -45q0 -46 -41 -46z" />
    <glyph glyph-name="oslash" unicode="&#xf8;" horiz-adv-x="590" 
d="M533 267q0 -84 -27.5 -146t-81 -96.5t-130.5 -34.5q-45 0 -80.5 12.5t-63.5 36.5l-53 -69l-38 28l57 73q-59 75 -59 196q0 129 64 202t177 73q43 0 78 -12t62 -33l49 64l39 -27l-53 -69q60 -75 60 -198zM116 267q0 -45 8 -82.5t25 -66.5l258 337q-20 18 -47.5 28
t-62.5 10q-90 0 -135.5 -60t-45.5 -166zM474 267q0 45 -8.5 83.5t-26.5 67.5l-258 -338q20 -19 49 -30t65 -11q93 0 136 63t43 165z" />
    <glyph glyph-name="ugrave" unicode="&#xf9;" horiz-adv-x="596" 
d="M507 532v-532h-46l-9 91h-3q-22 -44 -67.5 -72.5t-113.5 -28.5q-187 0 -187 194v348h57v-343q0 -77 34.5 -113.5t102.5 -36.5q175 0 175 203v290h57zM259 766q12 -22 32.5 -50t43 -55t41.5 -46v-9h-40q-25 20 -53 47.5t-52.5 55.5t-39.5 49v8h68z" />
    <glyph glyph-name="uacute" unicode="&#xfa;" horiz-adv-x="596" 
d="M507 532v-532h-46l-9 91h-3q-22 -44 -67.5 -72.5t-113.5 -28.5q-187 0 -187 194v348h57v-343q0 -77 34.5 -113.5t102.5 -36.5q175 0 175 203v290h57zM435 758q-15 -21 -39.5 -49t-52.5 -55.5t-53 -47.5h-40v9q19 19 41 46t42.5 55t33.5 50h68v-8z" />
    <glyph glyph-name="ucircumflex" unicode="&#xfb;" horiz-adv-x="596" 
d="M507 532v-532h-46l-9 91h-3q-22 -44 -67.5 -72.5t-113.5 -28.5q-187 0 -187 194v348h57v-343q0 -77 34.5 -113.5t102.5 -36.5q175 0 175 203v290h57zM327 765q12 -22 33 -49.5t44 -54.5t42 -46v-9h-41q-27 22 -55 51t-52 57q-24 -28 -51.5 -57t-54.5 -51h-41v9
q19 20 42 46.5t44 54t34 49.5h56z" />
    <glyph glyph-name="udieresis" unicode="&#xfc;" horiz-adv-x="596" 
d="M507 532v-532h-46l-9 91h-3q-22 -44 -67.5 -72.5t-113.5 -28.5q-187 0 -187 194v348h57v-343q0 -77 34.5 -113.5t102.5 -36.5q175 0 175 203v290h57zM171 680q0 40 35 40q36 0 36 -40q0 -41 -36 -41q-35 0 -35 41zM357 680q0 40 35 40q36 0 36 -40q0 -41 -36 -41
q-35 0 -35 41z" />
    <glyph glyph-name="yacute" unicode="&#xfd;" horiz-adv-x="469" 
d="M1 532h60l127 -330q16 -45 28 -79.5t19 -61.5h3q15 50 47 139l124 332h61l-240 -626q-27 -71 -64 -109t-100 -38q-19 0 -34.5 2t-28.5 7v48q12 -4 26 -6.5t30 -2.5q42 0 68.5 26t47.5 80l34 89zM371 758q-15 -21 -39.5 -49t-52.5 -55.5t-53 -47.5h-40v9q19 19 41 46
t42.5 55t33.5 50h68v-8z" />
    <glyph glyph-name="thorn" unicode="&#xfe;" horiz-adv-x="599" 
d="M543 269q0 -135 -59.5 -207t-161.5 -72q-71 0 -114 30t-63 72h-4q2 -22 3 -53t1 -54v-221h-57v996h57v-229q0 -20 -1 -48.5t-1 -47.5h3q20 43 63.5 75t117.5 32q102 0 159 -69.5t57 -203.5zM484 270q0 223 -165 223q-89 0 -131 -56t-42 -160v-11q0 -114 41 -170.5
t128 -56.5q82 0 125.5 59t43.5 172z" />
    <glyph glyph-name="ydieresis" unicode="&#xff;" horiz-adv-x="469" 
d="M1 532h60l127 -330q16 -45 28 -79.5t19 -61.5h3q15 50 47 139l124 332h61l-240 -626q-27 -71 -64 -109t-100 -38q-19 0 -34.5 2t-28.5 7v48q12 -4 26 -6.5t30 -2.5q42 0 68.5 26t47.5 80l34 89zM107 680q0 40 35 40q36 0 36 -40q0 -41 -36 -41q-35 0 -35 41zM293 680
q0 40 35 40q36 0 36 -40q0 -41 -36 -41q-35 0 -35 41z" />
    <glyph glyph-name="Amacron" unicode="&#x100;" horiz-adv-x="608" 
d="M547 0l-95 246h-296l-96 -246h-60l281 717h53l274 -717h-61zM339 556q-6 14 -16 44t-17 53q-8 -27 -17 -53t-15 -45l-99 -256h259zM442 840v-48h-276v48h276z" />
    <glyph glyph-name="amacron" unicode="&#x101;" horiz-adv-x="536" 
d="M276 541q90 0 134 -44t44 -139v-358h-43l-10 90h-3q-29 -45 -70.5 -72.5t-115.5 -27.5q-77 0 -121 38.5t-44 110.5q0 80 65 121.5t189 46.5l97 5v37q0 78 -31.5 111t-92.5 33q-41 0 -79 -11t-76 -29l-18 46q38 18 82.5 30t92.5 12zM308 265q-102 -5 -151.5 -35.5
t-49.5 -90.5q0 -50 30.5 -75.5t84.5 -25.5q83 0 129 47.5t47 131.5v52zM407 658v-48h-276v48h276z" />
    <glyph glyph-name="Abreve" unicode="&#x102;" horiz-adv-x="608" 
d="M547 0l-95 246h-296l-96 -246h-60l281 717h53l274 -717h-61zM339 556q-6 14 -16 44t-17 53q-8 -27 -17 -53t-15 -45l-99 -256h259zM443 911q-6 -57 -41.5 -90t-98.5 -33q-65 0 -99.5 32.5t-38.5 90.5h40q4 -40 28.5 -57.5t70.5 -17.5q43 0 68.5 18t30.5 57h40z" />
    <glyph glyph-name="abreve" unicode="&#x103;" horiz-adv-x="536" 
d="M276 541q90 0 134 -44t44 -139v-358h-43l-10 90h-3q-29 -45 -70.5 -72.5t-115.5 -27.5q-77 0 -121 38.5t-44 110.5q0 80 65 121.5t189 46.5l97 5v37q0 78 -31.5 111t-92.5 33q-41 0 -79 -11t-76 -29l-18 46q38 18 82.5 30t92.5 12zM308 265q-102 -5 -151.5 -35.5
t-49.5 -90.5q0 -50 30.5 -75.5t84.5 -25.5q83 0 129 47.5t47 131.5v52zM408 729q-6 -57 -41.5 -90t-98.5 -33q-65 0 -99.5 32.5t-38.5 90.5h40q4 -40 28.5 -57.5t70.5 -17.5q43 0 68.5 18t30.5 57h40z" />
    <glyph glyph-name="Aogonek" unicode="&#x104;" horiz-adv-x="608" 
d="M547 0l-95 246h-296l-96 -246h-60l281 717h53l274 -717h-61zM339 556q-6 14 -16 44t-17 53q-8 -27 -17 -53t-15 -45l-99 -256h259zM508 -123q0 -53 52 -53q15 0 27 2t21 4v-40q-12 -3 -25.5 -5.5t-30.5 -2.5q-44 0 -68.5 22.5t-24.5 65.5q0 39 27.5 76t68.5 67l33 -13
q-34 -30 -57 -59.5t-23 -63.5z" />
    <glyph glyph-name="aogonek" unicode="&#x105;" horiz-adv-x="536" 
d="M276 541q90 0 134 -44t44 -139v-358h-43l-10 90h-3q-29 -45 -70.5 -72.5t-115.5 -27.5q-77 0 -121 38.5t-44 110.5q0 80 65 121.5t189 46.5l97 5v37q0 78 -31.5 111t-92.5 33q-41 0 -79 -11t-76 -29l-18 46q38 18 82.5 30t92.5 12zM308 265q-102 -5 -151.5 -35.5
t-49.5 -90.5q0 -50 30.5 -75.5t84.5 -25.5q83 0 129 47.5t47 131.5v52zM378 -123q0 -53 52 -53q15 0 27 2t21 4v-40q-12 -3 -25.5 -5.5t-30.5 -2.5q-44 0 -68.5 22.5t-24.5 65.5q0 39 27.5 76t68.5 67l33 -13q-34 -30 -57 -59.5t-23 -63.5z" />
    <glyph glyph-name="Cacute" unicode="&#x106;" horiz-adv-x="623" 
d="M404 672q-88 0 -151 -39.5t-96.5 -110t-33.5 -163.5q0 -96 30 -167.5t90.5 -110.5t150.5 -39q52 0 95.5 8t82.5 21v-51q-37 -14 -81 -22t-103 -8q-108 0 -180.5 46t-109 129t-36.5 194q0 106 40.5 188.5t117 129.5t185.5 47q104 0 187 -39l-23 -51q-77 38 -165 38z
M520 940q-15 -21 -39.5 -49t-52.5 -55.5t-53 -47.5h-40v9q19 19 41 46t42.5 55t33.5 50h68v-8z" />
    <glyph glyph-name="cacute" unicode="&#x107;" horiz-adv-x="476" 
d="M301 -10q-117 0 -180.5 72t-63.5 201q0 90 32 152t89.5 94.5t134.5 32.5q38 0 72 -7t60 -19l-16 -49q-27 11 -58 17.5t-59 6.5q-95 0 -145.5 -61t-50.5 -166q0 -100 45 -161.5t140 -61.5q39 0 74 8t63 20v-51q-26 -13 -59.5 -20.5t-77.5 -7.5zM432 758q-15 -21 -39.5 -49
t-52.5 -55.5t-53 -47.5h-40v9q19 19 41 46t42.5 55t33.5 50h68v-8z" />
    <glyph glyph-name="Ccircumflex" unicode="&#x108;" horiz-adv-x="623" 
d="M404 672q-88 0 -151 -39.5t-96.5 -110t-33.5 -163.5q0 -96 30 -167.5t90.5 -110.5t150.5 -39q52 0 95.5 8t82.5 21v-51q-37 -14 -81 -22t-103 -8q-108 0 -180.5 46t-109 129t-36.5 194q0 106 40.5 188.5t117 129.5t185.5 47q104 0 187 -39l-23 -51q-77 38 -165 38z
M412 947q12 -22 33 -49.5t44 -54.5t42 -46v-9h-41q-27 22 -55 51t-52 57q-24 -28 -51.5 -57t-54.5 -51h-41v9q19 20 42 46.5t44 54t34 49.5h56z" />
    <glyph glyph-name="ccircumflex" unicode="&#x109;" horiz-adv-x="476" 
d="M301 -10q-117 0 -180.5 72t-63.5 201q0 90 32 152t89.5 94.5t134.5 32.5q38 0 72 -7t60 -19l-16 -49q-27 11 -58 17.5t-59 6.5q-95 0 -145.5 -61t-50.5 -166q0 -100 45 -161.5t140 -61.5q39 0 74 8t63 20v-51q-26 -13 -59.5 -20.5t-77.5 -7.5zM324 765q12 -22 33 -49.5
t44 -54.5t42 -46v-9h-41q-27 22 -55 51t-52 57q-24 -28 -51.5 -57t-54.5 -51h-41v9q19 20 42 46.5t44 54t34 49.5h56z" />
    <glyph glyph-name="Cdotaccent" unicode="&#x10a;" horiz-adv-x="623" 
d="M404 672q-88 0 -151 -39.5t-96.5 -110t-33.5 -163.5q0 -96 30 -167.5t90.5 -110.5t150.5 -39q52 0 95.5 8t82.5 21v-51q-37 -14 -81 -22t-103 -8q-108 0 -180.5 46t-109 129t-36.5 194q0 106 40.5 188.5t117 129.5t185.5 47q104 0 187 -39l-23 -51q-77 38 -165 38z
M384 911q39 0 39 -43q0 -44 -39 -44t-39 44q0 43 39 43z" />
    <glyph glyph-name="cdotaccent" unicode="&#x10b;" horiz-adv-x="476" 
d="M301 -10q-117 0 -180.5 72t-63.5 201q0 90 32 152t89.5 94.5t134.5 32.5q38 0 72 -7t60 -19l-16 -49q-27 11 -58 17.5t-59 6.5q-95 0 -145.5 -61t-50.5 -166q0 -100 45 -161.5t140 -61.5q39 0 74 8t63 20v-51q-26 -13 -59.5 -20.5t-77.5 -7.5zM296 729q39 0 39 -43
q0 -44 -39 -44t-39 44q0 43 39 43z" />
    <glyph glyph-name="Ccaron" unicode="&#x10c;" horiz-adv-x="623" 
d="M404 672q-88 0 -151 -39.5t-96.5 -110t-33.5 -163.5q0 -96 30 -167.5t90.5 -110.5t150.5 -39q52 0 95.5 8t82.5 21v-51q-37 -14 -81 -22t-103 -8q-108 0 -180.5 46t-109 129t-36.5 194q0 106 40.5 188.5t117 129.5t185.5 47q104 0 187 -39l-23 -51q-77 38 -165 38z
M355 788q-13 22 -34 49t-44 53.5t-41 46.5v10h41q27 -23 54.5 -52t50.5 -57q24 28 52.5 57t55.5 52h41v-10q-19 -20 -42.5 -46.5t-44.5 -53.5t-33 -49h-56z" />
    <glyph glyph-name="ccaron" unicode="&#x10d;" horiz-adv-x="476" 
d="M301 -10q-117 0 -180.5 72t-63.5 201q0 90 32 152t89.5 94.5t134.5 32.5q38 0 72 -7t60 -19l-16 -49q-27 11 -58 17.5t-59 6.5q-95 0 -145.5 -61t-50.5 -166q0 -100 45 -161.5t140 -61.5q39 0 74 8t63 20v-51q-26 -13 -59.5 -20.5t-77.5 -7.5zM267 606q-13 22 -34 49
t-44 53.5t-41 46.5v10h41q27 -23 54.5 -52t50.5 -57q24 28 52.5 57t55.5 52h41v-10q-19 -20 -42.5 -46.5t-44.5 -53.5t-33 -49h-56z" />
    <glyph glyph-name="Dcaron" unicode="&#x10e;" horiz-adv-x="711" 
d="M649 364q0 -180 -95.5 -272t-276.5 -92h-177v714h199q169 0 259.5 -89.5t90.5 -260.5zM588 362q0 301 -301 301h-129v-612h114q316 0 316 311zM325 788q-13 22 -34 49t-44 53.5t-41 46.5v10h41q27 -23 54.5 -52t50.5 -57q24 28 52.5 57t55.5 52h41v-10
q-19 -20 -42.5 -46.5t-44.5 -53.5t-33 -49h-56z" />
    <glyph glyph-name="dcaron" unicode="&#x10f;" horiz-adv-x="599" 
d="M650 753q-8 -33 -26 -76t-40 -77h-32v9q7 17 15 44.5t15 56.5t10 50h58v-7zM279 -10q-107 0 -164.5 68.5t-57.5 202.5q0 137 60 209t167 72q67 0 108.5 -29.5t62.5 -71.5h4q-1 23 -2.5 51.5t-1.5 52.5v215h57v-760h-46l-8 93h-3q-21 -43 -63 -73t-113 -30zM286 39
q92 0 131 56t39 162v9q0 110 -38.5 168.5t-127.5 58.5q-86 0 -130 -60.5t-44 -172.5q0 -108 42 -164.5t128 -56.5z" />
    <glyph glyph-name="Dcroat" unicode="&#x110;" horiz-adv-x="711" 
d="M299 714q168 0 259 -89.5t91 -260.5q0 -180 -95.5 -272t-277.5 -92h-172v329h-80v51h80v334h195zM287 663h-125v-283h192v-51h-192v-278h110q316 0 316 311q0 301 -301 301z" />
    <glyph glyph-name="dcroat" unicode="&#x111;" horiz-adv-x="600" 
d="M279 -10q-107 0 -164.5 68.5t-57.5 201.5q0 138 60 209.5t166 71.5q68 0 109.5 -29.5t62.5 -72.5h4q-2 23 -3 52t-1 53v74h-227v45h227v97h57v-97h75v-45h-75v-618h-47l-7 93h-3q-21 -43 -63 -73t-113 -30zM287 39q91 0 129.5 56t38.5 161v10q0 110 -38 168t-127 58
q-86 0 -129.5 -60t-43.5 -173q0 -108 41.5 -164t128.5 -56z" />
    <glyph glyph-name="Emacron" unicode="&#x112;" horiz-adv-x="553" 
d="M492 0h-392v714h392v-52h-334v-261h315v-52h-315v-297h334v-52zM443 840v-48h-276v48h276z" />
    <glyph glyph-name="emacron" unicode="&#x113;" horiz-adv-x="552" 
d="M290 542q68 0 113.5 -31.5t69 -86.5t23.5 -126v-39h-380q0 -106 49.5 -162.5t141.5 -56.5q49 0 86 8.5t81 27.5v-52q-40 -18 -79 -26t-90 -8q-120 0 -184 73t-64 199q0 81 27.5 144t79.5 99.5t126 36.5zM289 494q-73 0 -118.5 -49t-52.5 -139h319q0 84 -36.5 136
t-111.5 52zM416 658v-48h-276v48h276z" />
    <glyph glyph-name="Ebreve" unicode="&#x114;" horiz-adv-x="553" 
d="M492 0h-392v714h392v-52h-334v-261h315v-52h-315v-297h334v-52zM444 911q-6 -57 -41.5 -90t-98.5 -33q-65 0 -99.5 32.5t-38.5 90.5h40q4 -40 28.5 -57.5t70.5 -17.5q43 0 68.5 18t30.5 57h40z" />
    <glyph glyph-name="ebreve" unicode="&#x115;" horiz-adv-x="552" 
d="M290 542q68 0 113.5 -31.5t69 -86.5t23.5 -126v-39h-380q0 -106 49.5 -162.5t141.5 -56.5q49 0 86 8.5t81 27.5v-52q-40 -18 -79 -26t-90 -8q-120 0 -184 73t-64 199q0 81 27.5 144t79.5 99.5t126 36.5zM289 494q-73 0 -118.5 -49t-52.5 -139h319q0 84 -36.5 136
t-111.5 52zM417 729q-6 -57 -41.5 -90t-98.5 -33q-65 0 -99.5 32.5t-38.5 90.5h40q4 -40 28.5 -57.5t70.5 -17.5q43 0 68.5 18t30.5 57h40z" />
    <glyph glyph-name="Edotaccent" unicode="&#x116;" horiz-adv-x="553" 
d="M492 0h-392v714h392v-52h-334v-261h315v-52h-315v-297h334v-52zM306 911q39 0 39 -43q0 -44 -39 -44t-39 44q0 43 39 43z" />
    <glyph glyph-name="edotaccent" unicode="&#x117;" horiz-adv-x="552" 
d="M290 542q68 0 113.5 -31.5t69 -86.5t23.5 -126v-39h-380q0 -106 49.5 -162.5t141.5 -56.5q49 0 86 8.5t81 27.5v-52q-40 -18 -79 -26t-90 -8q-120 0 -184 73t-64 199q0 81 27.5 144t79.5 99.5t126 36.5zM289 494q-73 0 -118.5 -49t-52.5 -139h319q0 84 -36.5 136
t-111.5 52zM278 729q39 0 39 -43q0 -44 -39 -44t-39 44q0 43 39 43z" />
    <glyph glyph-name="Eogonek" unicode="&#x118;" horiz-adv-x="553" 
d="M492 0h-392v714h392v-52h-334v-261h315v-52h-315v-297h334v-52zM387 -123q0 -53 52 -53q15 0 27 2t21 4v-40q-12 -3 -25.5 -5.5t-30.5 -2.5q-44 0 -68.5 22.5t-24.5 65.5q0 39 27.5 76t68.5 67l33 -13q-34 -30 -57 -59.5t-23 -63.5z" />
    <glyph glyph-name="eogonek" unicode="&#x119;" horiz-adv-x="552" 
d="M370 -123q0 -53 51 -53q15 0 27.5 2t20.5 4v-40q-11 -3 -24.5 -5.5t-31.5 -2.5q-44 0 -68 22.5t-24 65.5q0 33 19.5 65.5t51.5 62.5q-39 -8 -87 -8q-120 0 -184 73t-64 199q0 81 27.5 144t79.5 99.5t126 36.5q68 0 113.5 -31.5t69 -86.5t23.5 -126v-39h-380
q0 -106 49.5 -162.5t141.5 -56.5q49 0 86 8.5t81 27.5v-52q-4 -2 -7 -3q-51 -43 -74 -76.5t-23 -67.5zM289 494q-73 0 -118.5 -49t-52.5 -139h319q0 84 -36.5 136t-111.5 52z" />
    <glyph glyph-name="Ecaron" unicode="&#x11a;" horiz-adv-x="553" 
d="M492 0h-392v714h392v-52h-334v-261h315v-52h-315v-297h334v-52zM277 788q-13 22 -34 49t-44 53.5t-41 46.5v10h41q27 -23 54.5 -52t50.5 -57q24 28 52.5 57t55.5 52h41v-10q-19 -20 -42.5 -46.5t-44.5 -53.5t-33 -49h-56z" />
    <glyph glyph-name="ecaron" unicode="&#x11b;" horiz-adv-x="552" 
d="M290 542q68 0 113.5 -31.5t69 -86.5t23.5 -126v-39h-380q0 -106 49.5 -162.5t141.5 -56.5q49 0 86 8.5t81 27.5v-52q-40 -18 -79 -26t-90 -8q-120 0 -184 73t-64 199q0 81 27.5 144t79.5 99.5t126 36.5zM289 494q-73 0 -118.5 -49t-52.5 -139h319q0 84 -36.5 136
t-111.5 52zM249 606q-13 22 -34 49t-44 53.5t-41 46.5v10h41q27 -23 54.5 -52t50.5 -57q24 28 52.5 57t55.5 52h41v-10q-19 -20 -42.5 -46.5t-44.5 -53.5t-33 -49h-56z" />
    <glyph glyph-name="Gcircumflex" unicode="&#x11c;" horiz-adv-x="724" 
d="M387 364h260v-332q-105 -42 -237 -42q-170 0 -259 97t-89 269q0 109 43.5 192t125.5 130t197 47q116 0 210 -43l-23 -51q-45 20 -93 31t-97 11q-95 0 -162.5 -40t-103.5 -111t-36 -165q0 -155 76 -235t223 -80q52 0 93 7t74 19v243h-202v53zM436 947q12 -22 33 -49.5
t44 -54.5t42 -46v-9h-41q-27 22 -55 51t-52 57q-24 -28 -51.5 -57t-54.5 -51h-41v9q19 20 42 46.5t44 54t34 49.5h56z" />
    <glyph glyph-name="gcircumflex" unicode="&#x11d;" horiz-adv-x="599" 
d="M283 542q62 0 103.5 -24.5t66.5 -66.5h4l8 81h46v-549q0 -105 -54 -164t-175 -59q-60 0 -106.5 9.5t-83.5 26.5v55q37 -19 86 -30.5t106 -11.5q87 0 129 46t42 125v31q0 21 0.5 42.5t1.5 40.5h-3q-46 -104 -178 -104q-103 0 -161 70t-58 202q0 129 58 204.5t168 75.5z
M289 493q-87 0 -130 -61t-43 -171q0 -108 43 -165t124 -57q66 0 103.5 26.5t53 73.5t15.5 107v35q0 101 -37.5 156.5t-128.5 55.5zM323 765q12 -22 33 -49.5t44 -54.5t42 -46v-9h-41q-27 22 -55 51t-52 57q-24 -28 -51.5 -57t-54.5 -51h-41v9q19 20 42 46.5t44 54t34 49.5
h56z" />
    <glyph glyph-name="Gbreve" unicode="&#x11e;" horiz-adv-x="724" 
d="M387 364h260v-332q-105 -42 -237 -42q-170 0 -259 97t-89 269q0 109 43.5 192t125.5 130t197 47q116 0 210 -43l-23 -51q-45 20 -93 31t-97 11q-95 0 -162.5 -40t-103.5 -111t-36 -165q0 -155 76 -235t223 -80q52 0 93 7t74 19v243h-202v53zM547 911q-6 -57 -41.5 -90
t-98.5 -33q-65 0 -99.5 32.5t-38.5 90.5h40q4 -40 28.5 -57.5t70.5 -17.5q43 0 68.5 18t30.5 57h40z" />
    <glyph glyph-name="gbreve" unicode="&#x11f;" horiz-adv-x="599" 
d="M283 542q62 0 103.5 -24.5t66.5 -66.5h4l8 81h46v-549q0 -105 -54 -164t-175 -59q-60 0 -106.5 9.5t-83.5 26.5v55q37 -19 86 -30.5t106 -11.5q87 0 129 46t42 125v31q0 21 0.5 42.5t1.5 40.5h-3q-46 -104 -178 -104q-103 0 -161 70t-58 202q0 129 58 204.5t168 75.5z
M289 493q-87 0 -130 -61t-43 -171q0 -108 43 -165t124 -57q66 0 103.5 26.5t53 73.5t15.5 107v35q0 101 -37.5 156.5t-128.5 55.5zM434 729q-6 -57 -41.5 -90t-98.5 -33q-65 0 -99.5 32.5t-38.5 90.5h40q4 -40 28.5 -57.5t70.5 -17.5q43 0 68.5 18t30.5 57h40z" />
    <glyph glyph-name="Gdotaccent" unicode="&#x120;" horiz-adv-x="724" 
d="M387 364h260v-332q-105 -42 -237 -42q-170 0 -259 97t-89 269q0 109 43.5 192t125.5 130t197 47q116 0 210 -43l-23 -51q-45 20 -93 31t-97 11q-95 0 -162.5 -40t-103.5 -111t-36 -165q0 -155 76 -235t223 -80q52 0 93 7t74 19v243h-202v53zM408 911q39 0 39 -43
q0 -44 -39 -44t-39 44q0 43 39 43z" />
    <glyph glyph-name="gdotaccent" unicode="&#x121;" horiz-adv-x="599" 
d="M283 542q62 0 103.5 -24.5t66.5 -66.5h4l8 81h46v-549q0 -105 -54 -164t-175 -59q-60 0 -106.5 9.5t-83.5 26.5v55q37 -19 86 -30.5t106 -11.5q87 0 129 46t42 125v31q0 21 0.5 42.5t1.5 40.5h-3q-46 -104 -178 -104q-103 0 -161 70t-58 202q0 129 58 204.5t168 75.5z
M289 493q-87 0 -130 -61t-43 -171q0 -108 43 -165t124 -57q66 0 103.5 26.5t53 73.5t15.5 107v35q0 101 -37.5 156.5t-128.5 55.5zM295 729q39 0 39 -43q0 -44 -39 -44t-39 44q0 43 39 43z" />
    <glyph glyph-name="uni0122" unicode="&#x122;" horiz-adv-x="724" 
d="M387 364h260v-332q-105 -42 -237 -42q-170 0 -259 97t-89 269q0 109 43.5 192t125.5 130t197 47q116 0 210 -43l-23 -51q-45 20 -93 31t-97 11q-95 0 -162.5 -40t-103.5 -111t-36 -165q0 -155 76 -235t223 -80q52 0 93 7t74 19v243h-202v53zM452 -68q-8 -33 -26.5 -76
t-42.5 -77h-33v9q8 16 17 43.5t16.5 57t10.5 50.5h58v-7z" />
    <glyph glyph-name="uni0123" unicode="&#x123;" horiz-adv-x="599" 
d="M352 756q-8 -16 -17 -43.5t-16.5 -57t-10.5 -50.5h-58v7q8 33 26.5 75.5t42.5 77.5h33v-9zM283 542q62 0 103.5 -24.5t66.5 -66.5h4l8 81h46v-549q0 -105 -54 -164t-175 -59q-60 0 -106.5 9.5t-83.5 26.5v55q37 -19 86 -30.5t106 -11.5q87 0 129 46t42 125v31
q0 21 0.5 42.5t1.5 40.5h-3q-46 -104 -178 -104q-103 0 -161 70t-58 202q0 129 58 204.5t168 75.5zM289 493q-87 0 -130 -61t-43 -171q0 -108 43 -165t124 -57q66 0 103.5 26.5t53 73.5t15.5 107v35q0 101 -37.5 156.5t-128.5 55.5z" />
    <glyph glyph-name="Hcircumflex" unicode="&#x124;" horiz-adv-x="724" 
d="M623 0h-58v348h-407v-348h-58v714h58v-314h407v314h58v-714zM391 947q12 -22 33 -49.5t44 -54.5t42 -46v-9h-41q-27 22 -55 51t-52 57q-24 -28 -51.5 -57t-54.5 -51h-41v9q19 20 42 46.5t44 54t34 49.5h56z" />
    <glyph glyph-name="hcircumflex" unicode="&#x125;" horiz-adv-x="596" 
d="M145 517q0 -21 -1 -40t-3 -37h4q21 44 66.5 73t113.5 29q92 0 140 -47t48 -147v-348h-56v344q0 76 -35 112.5t-102 36.5q-175 0 -175 -203v-290h-57v760h57v-243zM145 993q12 -22 33 -49.5t44 -54.5t42 -46v-9h-41q-27 22 -55 51t-52 57q-24 -28 -51.5 -57t-54.5 -51h-41
v9q19 20 42 46.5t44 54t34 49.5h56z" />
    <glyph glyph-name="Hbar" unicode="&#x126;" horiz-adv-x="724" 
d="M100 0v536h-100v49h100v129h58v-129h407v129h58v-129h100v-49h-100v-536h-58v348h-407v-348h-58zM158 400h407v136h-407v-136z" />
    <glyph glyph-name="hbar" unicode="&#x127;" horiz-adv-x="596" 
d="M145 760v-97h227v-46h-227v-110q0 -21 -1 -39.5t-3 -37.5h4q21 44 66.5 73t114.5 29q91 0 139 -47t48 -147v-338h-56v334q0 76 -35 112.5t-102 36.5q-175 0 -175 -203v-280h-57v617h-75v46h75v97h57z" />
    <glyph glyph-name="Itilde" unicode="&#x128;" horiz-adv-x="311" 
d="M261 0h-210v36l76 11v619l-76 12v36h210v-36l-76 -12v-619l76 -11v-36zM-16 794q5 54 31 83.5t69 29.5q23 0 42.5 -10t37 -23t34.5 -23t35 -10q22 0 38 14.5t22 52.5h37q-5 -54 -31.5 -84t-68.5 -30q-23 0 -42.5 10t-36.5 23t-34 23t-36 10q-23 0 -38 -14.5t-21 -51.5
h-38z" />
    <glyph glyph-name="itilde" unicode="&#x129;" horiz-adv-x="233" 
d="M145 0h-57v532h57v-532zM-56 612q5 54 31 83.5t69 29.5q23 0 42.5 -10t37 -23t34.5 -23t35 -10q22 0 38 14.5t22 52.5h37q-5 -54 -31.5 -84t-68.5 -30q-23 0 -42.5 10t-36.5 23t-34 23t-36 10q-23 0 -38 -14.5t-21 -51.5h-38z" />
    <glyph glyph-name="Imacron" unicode="&#x12a;" horiz-adv-x="311" 
d="M261 0h-210v36l76 11v619l-76 12v36h210v-36l-76 -12v-619l76 -11v-36zM294 840v-48h-276v48h276z" />
    <glyph glyph-name="imacron" unicode="&#x12b;" horiz-adv-x="233" 
d="M145 0h-57v532h57v-532zM255 658v-48h-276v48h276z" />
    <glyph glyph-name="Ibreve" unicode="&#x12c;" horiz-adv-x="311" 
d="M261 0h-210v36l76 11v619l-76 12v36h210v-36l-76 -12v-619l76 -11v-36zM295 911q-6 -57 -41.5 -90t-98.5 -33q-65 0 -99.5 32.5t-38.5 90.5h40q4 -40 28.5 -57.5t70.5 -17.5q43 0 68.5 18t30.5 57h40z" />
    <glyph glyph-name="ibreve" unicode="&#x12d;" horiz-adv-x="233" 
d="M145 0h-57v532h57v-532zM256 729q-6 -57 -41.5 -90t-98.5 -33q-65 0 -99.5 32.5t-38.5 90.5h40q4 -40 28.5 -57.5t70.5 -17.5q43 0 68.5 18t30.5 57h40z" />
    <glyph glyph-name="Iogonek" unicode="&#x12e;" horiz-adv-x="311" 
d="M261 0h-210v36l76 11v619l-76 12v36h210v-36l-76 -12v-619l76 -11v-36zM155 -123q0 -53 52 -53q15 0 27 2t21 4v-40q-12 -3 -25.5 -5.5t-30.5 -2.5q-44 0 -68.5 22.5t-24.5 65.5q0 39 27.5 76t68.5 67l33 -13q-34 -30 -57 -59.5t-23 -63.5z" />
    <glyph glyph-name="iogonek" unicode="&#x12f;" horiz-adv-x="233" 
d="M117 729q39 0 39 -43q0 -44 -39 -44t-39 44q0 43 39 43zM145 532v-532h-57v532h57zM62 -123q0 -53 52 -53q15 0 27 2t21 4v-40q-12 -3 -25.5 -5.5t-30.5 -2.5q-44 0 -68.5 22.5t-24.5 65.5q0 39 27.5 76t68.5 67l33 -13q-34 -30 -57 -59.5t-23 -63.5z" />
    <glyph glyph-name="Idotaccent" unicode="&#x130;" horiz-adv-x="311" 
d="M261 0h-210v36l76 11v619l-76 12v36h210v-36l-76 -12v-619l76 -11v-36zM157 911q39 0 39 -43q0 -44 -39 -44t-39 44q0 43 39 43z" />
    <glyph glyph-name="dotlessi" unicode="&#x131;" horiz-adv-x="233" 
d="M145 0h-57v532h57v-532z" />
    <glyph glyph-name="IJ" unicode="&#x132;" horiz-adv-x="563" 
d="M261 0h-210v36l76 11v619l-76 12v36h210v-36l-76 -12v-619l76 -11v-36zM300 -182q-26 0 -45 3.5t-32 9.5v52q15 -6 34.5 -9t41.5 -3q111 0 111 134v709h58v-707q0 -89 -42 -139t-126 -50z" />
    <glyph glyph-name="ij" unicode="&#x133;" horiz-adv-x="465" 
d="M117 729q39 0 39 -43q0 -44 -39 -44t-39 44q0 43 39 43zM145 532v-532h-57v532h57zM311 686q0 43 39 43t39 -43q0 -44 -39 -44t-39 44zM250 -240q-23 0 -40 3t-29 8v49q28 -11 63 -11q36 0 56.5 22t20.5 70v631h57v-632q0 -68 -34 -104t-94 -36z" />
    <glyph glyph-name="Jcircumflex" unicode="&#x134;" horiz-adv-x="252" 
d="M-11 -182q-26 0 -45 3.5t-32 9.5v52q15 -6 34.5 -9t41.5 -3q111 0 111 134v709h58v-707q0 -89 -42 -139t-126 -50zM157 947q12 -22 33 -49.5t44 -54.5t42 -46v-9h-41q-27 22 -55 51t-52 57q-24 -28 -51.5 -57t-54.5 -51h-41v9q19 20 42 46.5t44 54t34 49.5h56z" />
    <glyph glyph-name="jcircumflex" unicode="&#x135;" horiz-adv-x="233" 
d="M17 -240q-23 0 -40 3t-29 8v49q28 -11 63 -11q36 0 56.5 22t20.5 70v631h57v-632q0 -68 -34 -104t-94 -36zM145 765q12 -22 33 -49.5t44 -54.5t42 -46v-9h-41q-27 22 -55 51t-52 57q-24 -28 -51.5 -57t-54.5 -51h-41v9q19 20 42 46.5t44 54t34 49.5h56z" />
    <glyph glyph-name="uni0136" unicode="&#x136;" horiz-adv-x="589" 
d="M589 0h-70l-272 370l-89 -85v-285h-58v714h58v-371q21 23 42.5 46.5t44.5 47.5l264 277h71l-290 -304zM356 -68q-8 -33 -26.5 -76t-42.5 -77h-33v9q8 16 17 43.5t16.5 57t10.5 50.5h58v-7z" />
    <glyph glyph-name="uni0137" unicode="&#x137;" horiz-adv-x="494" 
d="M144 374q0 -32 -1 -66.5t-1 -67.5h1q13 15 29.5 35t31.5 37l202 220h69l-211 -228l228 -304h-68l-199 267l-81 -82v-185h-56v760h56v-386zM298 -68q-8 -33 -26.5 -76t-42.5 -77h-33v9q8 16 17 43.5t16.5 57t10.5 50.5h58v-7z" />
    <glyph glyph-name="kgreenlandic" unicode="&#x138;" horiz-adv-x="494" 
d="M474 532l-204 -232l222 -300h-68l-194 263l-83 -83v-180h-59v532h59v-141q0 -44 -1 -84.5t-2 -74.5v0q13 16 24.5 29.5t24.5 28.5l211 242h70z" />
    <glyph glyph-name="Lacute" unicode="&#x139;" horiz-adv-x="515" 
d="M100 0v714h58v-661h335v-53h-393zM265 940q-15 -21 -39.5 -49t-52.5 -55.5t-53 -47.5h-40v9q19 19 41 46t42.5 55t33.5 50h68v-8z" />
    <glyph glyph-name="lacute" unicode="&#x13a;" horiz-adv-x="233" 
d="M145 0h-57v760h57v-760zM253 986q-15 -21 -39.5 -49t-52.5 -55.5t-53 -47.5h-40v9q19 19 41 46t42.5 55t33.5 50h68v-8z" />
    <glyph glyph-name="uni013B" unicode="&#x13b;" horiz-adv-x="515" 
d="M100 0v714h58v-661h335v-53h-393zM343 -68q-8 -33 -26.5 -76t-42.5 -77h-33v9q8 16 17 43.5t16.5 57t10.5 50.5h58v-7z" />
    <glyph glyph-name="uni013C" unicode="&#x13c;" horiz-adv-x="233" 
d="M145 0h-57v760h57v-760zM168 -68q-8 -33 -26.5 -76t-42.5 -77h-33v9q8 16 17 43.5t16.5 57t10.5 50.5h58v-7z" />
    <glyph glyph-name="Lcaron" unicode="&#x13d;" horiz-adv-x="515" 
d="M485 707q-8 -33 -26 -76t-39 -77h-33v9q7 17 15.5 44.5t15 56.5t9.5 50h58v-7zM100 0v714h58v-661h335v-53h-393z" />
    <glyph glyph-name="lcaron" unicode="&#x13e;" horiz-adv-x="233" 
d="M283 753q-8 -33 -26 -76t-40 -77h-32v9q7 17 15 44.5t15 56.5t10 50h58v-7zM145 0h-57v760h57v-760z" />
    <glyph glyph-name="Ldot" unicode="&#x13f;" horiz-adv-x="515" 
d="M100 0v714h58v-661h335v-53h-393zM371 419q39 0 39 -43q0 -44 -39 -44t-39 44q0 43 39 43z" />
    <glyph glyph-name="ldot" unicode="&#x140;" horiz-adv-x="238" 
d="M145 0h-57v760h57v-760zM236 428q39 0 39 -43q0 -44 -39 -44t-39 44q0 43 39 43z" />
    <glyph glyph-name="Lslash" unicode="&#x141;" horiz-adv-x="515" 
d="M100 0v265l-63 -39l-25 41l88 55v392h58v-357l154 95l26 -42l-180 -110v-247h335v-53h-393z" />
    <glyph glyph-name="lslash" unicode="&#x142;" horiz-adv-x="233" 
d="M86 0v312l-60 -40l-25 40l85 56v392h57v-356l73 49l24 -39l-97 -65v-349h-57z" />
    <glyph glyph-name="Nacute" unicode="&#x143;" horiz-adv-x="729" 
d="M629 0h-62l-414 624h-3q2 -39 3.5 -82.5t1.5 -90.5v-451h-55v714h62l413 -622h3q-2 31 -3 79t-1 90v453h55v-714zM501 940q-15 -21 -39.5 -49t-52.5 -55.5t-53 -47.5h-40v9q19 19 41 46t42.5 55t33.5 50h68v-8z" />
    <glyph glyph-name="nacute" unicode="&#x144;" horiz-adv-x="596" 
d="M326 542q91 0 139 -47t48 -147v-348h-56v344q0 76 -35 112.5t-102 36.5q-175 0 -175 -203v-290h-57v532h46l8 -92h4q21 44 67 73t113 29zM435 758q-15 -21 -39.5 -49t-52.5 -55.5t-53 -47.5h-40v9q19 19 41 46t42.5 55t33.5 50h68v-8z" />
    <glyph glyph-name="uni0145" unicode="&#x145;" horiz-adv-x="729" 
d="M629 0h-62l-414 624h-3q2 -39 3.5 -82.5t1.5 -90.5v-451h-55v714h62l413 -622h3q-2 31 -3 79t-1 90v453h55v-714zM416 -68q-8 -33 -26.5 -76t-42.5 -77h-33v9q8 16 17 43.5t16.5 57t10.5 50.5h58v-7z" />
    <glyph glyph-name="uni0146" unicode="&#x146;" horiz-adv-x="596" 
d="M326 542q91 0 139 -47t48 -147v-348h-56v344q0 76 -35 112.5t-102 36.5q-175 0 -175 -203v-290h-57v532h46l8 -92h4q21 44 67 73t113 29zM349 -68q-8 -33 -26.5 -76t-42.5 -77h-33v9q8 16 17 43.5t16.5 57t10.5 50.5h58v-7z" />
    <glyph glyph-name="Ncaron" unicode="&#x147;" horiz-adv-x="729" 
d="M629 0h-62l-414 624h-3q2 -39 3.5 -82.5t1.5 -90.5v-451h-55v714h62l413 -622h3q-2 31 -3 79t-1 90v453h55v-714zM336 788q-13 22 -34 49t-44 53.5t-41 46.5v10h41q27 -23 54.5 -52t50.5 -57q24 28 52.5 57t55.5 52h41v-10q-19 -20 -42.5 -46.5t-44.5 -53.5t-33 -49h-56z
" />
    <glyph glyph-name="ncaron" unicode="&#x148;" horiz-adv-x="596" 
d="M326 542q91 0 139 -47t48 -147v-348h-56v344q0 76 -35 112.5t-102 36.5q-175 0 -175 -203v-290h-57v532h46l8 -92h4q21 44 67 73t113 29zM270 606q-13 22 -34 49t-44 53.5t-41 46.5v10h41q27 -23 54.5 -52t50.5 -57q24 28 52.5 57t55.5 52h41v-10q-19 -20 -42.5 -46.5
t-44.5 -53.5t-33 -49h-56z" />
    <glyph glyph-name="napostrophe" unicode="&#x149;" horiz-adv-x="634" 
d="M364 542q91 0 139 -47t48 -147v-348h-56v344q0 76 -35 112.5t-102 36.5q-175 0 -175 -203v-290h-57v532h46l8 -92h4q21 44 67 73t113 29zM121 704q-11 -57 -33 -119.5t-46 -115.5h-41q13 36 24 79.5t19.5 87t13.5 78.5h57z" />
    <glyph glyph-name="Eng" unicode="&#x14a;" horiz-adv-x="729" 
d="M460 -182q-24 0 -45 4t-33 9v51q16 -5 36 -8t42 -3q50 0 81.5 30.5t32.5 103.5l-421 619h-3q2 -36 3.5 -84t1.5 -95v-445h-55v714h62l413 -612h3q-2 34 -3 82t-1 93v437h55v-709q0 -92 -44.5 -139.5t-124.5 -47.5z" />
    <glyph glyph-name="eng" unicode="&#x14b;" horiz-adv-x="596" 
d="M389 -240q-21 0 -37.5 3t-28.5 8v49q27 -11 61 -11t53.5 22t19.5 70v444q0 76 -35 112t-102 36q-175 0 -175 -202v-291h-57v532h46l9 -92h3q22 44 67 73t113 29q91 0 139.5 -46.5t48.5 -147.5v-448q0 -68 -33 -104t-92 -36z" />
    <glyph glyph-name="Omacron" unicode="&#x14c;" horiz-adv-x="768" 
d="M705 358q0 -109 -36 -192t-107.5 -129.5t-177.5 -46.5q-108 0 -179.5 46.5t-107 130t-35.5 192.5t36.5 191t109 128.5t179.5 46.5q103 0 174 -44.5t107.5 -126.5t36.5 -196zM123 359q0 -95 28 -166.5t86 -111t147 -39.5q90 0 147.5 39t85 110.5t27.5 166.5
q0 149 -64.5 232t-192.5 83q-89 0 -148 -39.5t-87.5 -110t-28.5 -164.5zM522 840v-48h-276v48h276z" />
    <glyph glyph-name="omacron" unicode="&#x14d;" horiz-adv-x="590" 
d="M533 267q0 -84 -27.5 -146t-81 -96.5t-130.5 -34.5q-74 0 -127 34t-81.5 96.5t-28.5 146.5q0 129 64 202t177 73q76 0 128.5 -34.5t79.5 -96.5t27 -144zM116 267q0 -103 43.5 -165.5t135.5 -62.5q93 0 136 63t43 165q0 66 -18 117t-57 80t-102 29q-90 0 -135.5 -60
t-45.5 -166zM434 658v-48h-276v48h276z" />
    <glyph glyph-name="Obreve" unicode="&#x14e;" horiz-adv-x="768" 
d="M705 358q0 -109 -36 -192t-107.5 -129.5t-177.5 -46.5q-108 0 -179.5 46.5t-107 130t-35.5 192.5t36.5 191t109 128.5t179.5 46.5q103 0 174 -44.5t107.5 -126.5t36.5 -196zM123 359q0 -95 28 -166.5t86 -111t147 -39.5q90 0 147.5 39t85 110.5t27.5 166.5
q0 149 -64.5 232t-192.5 83q-89 0 -148 -39.5t-87.5 -110t-28.5 -164.5zM523 911q-6 -57 -41.5 -90t-98.5 -33q-65 0 -99.5 32.5t-38.5 90.5h40q4 -40 28.5 -57.5t70.5 -17.5q43 0 68.5 18t30.5 57h40z" />
    <glyph glyph-name="obreve" unicode="&#x14f;" horiz-adv-x="590" 
d="M533 267q0 -84 -27.5 -146t-81 -96.5t-130.5 -34.5q-74 0 -127 34t-81.5 96.5t-28.5 146.5q0 129 64 202t177 73q76 0 128.5 -34.5t79.5 -96.5t27 -144zM116 267q0 -103 43.5 -165.5t135.5 -62.5q93 0 136 63t43 165q0 66 -18 117t-57 80t-102 29q-90 0 -135.5 -60
t-45.5 -166zM435 729q-6 -57 -41.5 -90t-98.5 -33q-65 0 -99.5 32.5t-38.5 90.5h40q4 -40 28.5 -57.5t70.5 -17.5q43 0 68.5 18t30.5 57h40z" />
    <glyph glyph-name="Ohungarumlaut" unicode="&#x150;" horiz-adv-x="768" 
d="M705 358q0 -109 -36 -192t-107.5 -129.5t-177.5 -46.5q-108 0 -179.5 46.5t-107 130t-35.5 192.5t36.5 191t109 128.5t179.5 46.5q103 0 174 -44.5t107.5 -126.5t36.5 -196zM123 359q0 -95 28 -166.5t86 -111t147 -39.5q90 0 147.5 39t85 110.5t27.5 166.5
q0 149 -64.5 232t-192.5 83q-89 0 -148 -39.5t-87.5 -110t-28.5 -164.5zM548 940q-12 -21 -33.5 -49t-46 -55.5t-45.5 -47.5h-36v9q16 19 34.5 46t35.5 55t28 50h63v-8zM380 940q-12 -21 -33.5 -49t-46 -55.5t-45.5 -47.5h-36v9q16 19 34.5 46t35.5 55t28 50h63v-8z" />
    <glyph glyph-name="ohungarumlaut" unicode="&#x151;" horiz-adv-x="590" 
d="M533 267q0 -84 -27.5 -146t-81 -96.5t-130.5 -34.5q-74 0 -127 34t-81.5 96.5t-28.5 146.5q0 129 64 202t177 73q76 0 128.5 -34.5t79.5 -96.5t27 -144zM116 267q0 -103 43.5 -165.5t135.5 -62.5q93 0 136 63t43 165q0 66 -18 117t-57 80t-102 29q-90 0 -135.5 -60
t-45.5 -166zM460 758q-12 -21 -33.5 -49t-46 -55.5t-45.5 -47.5h-36v9q16 19 34.5 46t35.5 55t28 50h63v-8zM292 758q-12 -21 -33.5 -49t-46 -55.5t-45.5 -47.5h-36v9q16 19 34.5 46t35.5 55t28 50h63v-8z" />
    <glyph glyph-name="OE" unicode="&#x152;" horiz-adv-x="914" 
d="M383 721q25 0 46 -2t45 -5h379v-52h-323v-261h303v-52h-303v-297h323v-52h-381q-19 -3 -41 -4.5t-47 -1.5q-108 0 -179.5 45.5t-107 128t-35.5 191.5t36.5 190.5t108 126.5t176.5 45zM387 669q-90 0 -148.5 -38.5t-87 -108t-28.5 -163.5q0 -96 28 -166.5t86 -109
t148 -38.5q53 0 87 11v603q-16 5 -37.5 7.5t-47.5 2.5z" />
    <glyph glyph-name="oe" unicode="&#x153;" horiz-adv-x="957" 
d="M696 542q67 0 112.5 -31.5t68.5 -86.5t23 -126v-39h-374q0 -109 48 -164t138 -55q50 0 86.5 8.5t79.5 27.5v-52q-39 -18 -77.5 -26t-89.5 -8q-83 0 -136 38t-77 105q-25 -66 -77 -104.5t-130 -38.5q-73 0 -125.5 34t-80.5 96.5t-28 146.5q0 129 63 202t176 73
q78 0 128 -39t73 -105q24 64 74 104t125 40zM695 493q-72 0 -116 -47.5t-52 -139.5h313q0 84 -35 135.5t-110 51.5zM294 493q-89 0 -133.5 -59t-44.5 -167q0 -106 42.5 -167t133.5 -61t133.5 60.5t42.5 165.5q0 103 -41 165.5t-133 62.5z" />
    <glyph glyph-name="Racute" unicode="&#x154;" horiz-adv-x="600" 
d="M278 714q128 0 192.5 -44.5t64.5 -151.5q0 -82 -43.5 -128.5t-108.5 -65.5l196 -324h-69l-182 308h-170v-308h-58v714h178zM273 663h-115v-305h135q87 0 134.5 40.5t47.5 117.5q0 82 -50 114.5t-152 32.5zM437 940q-15 -21 -39.5 -49t-52.5 -55.5t-53 -47.5h-40v9
q19 19 41 46t42.5 55t33.5 50h68v-8z" />
    <glyph glyph-name="racute" unicode="&#x155;" horiz-adv-x="394" 
d="M307 541q39 0 72 -8l-9 -53q-32 9 -66 9q-73 0 -116 -54t-43 -143v-292h-57v532h48l6 -99h3q20 45 61 76.5t101 31.5zM351 758q-15 -21 -39.5 -49t-52.5 -55.5t-53 -47.5h-40v9q19 19 41 46t42.5 55t33.5 50h68v-8z" />
    <glyph glyph-name="uni0156" unicode="&#x156;" horiz-adv-x="600" 
d="M278 714q128 0 192.5 -44.5t64.5 -151.5q0 -82 -43.5 -128.5t-108.5 -65.5l196 -324h-69l-182 308h-170v-308h-58v714h178zM273 663h-115v-305h135q87 0 134.5 40.5t47.5 117.5q0 82 -50 114.5t-152 32.5zM364 -68q-8 -33 -26.5 -76t-42.5 -77h-33v9q8 16 17 43.5
t16.5 57t10.5 50.5h58v-7z" />
    <glyph glyph-name="uni0157" unicode="&#x157;" horiz-adv-x="394" 
d="M307 541q39 0 72 -8l-9 -53q-32 9 -66 9q-73 0 -116 -54t-43 -143v-292h-57v532h48l6 -99h3q20 45 61 76.5t101 31.5zM166 -68q-8 -33 -26.5 -76t-42.5 -77h-33v9q8 16 17 43.5t16.5 57t10.5 50.5h58v-7z" />
    <glyph glyph-name="Rcaron" unicode="&#x158;" horiz-adv-x="600" 
d="M278 714q128 0 192.5 -44.5t64.5 -151.5q0 -82 -43.5 -128.5t-108.5 -65.5l196 -324h-69l-182 308h-170v-308h-58v714h178zM273 663h-115v-305h135q87 0 134.5 40.5t47.5 117.5q0 82 -50 114.5t-152 32.5zM272 788q-13 22 -34 49t-44 53.5t-41 46.5v10h41
q27 -23 54.5 -52t50.5 -57q24 28 52.5 57t55.5 52h41v-10q-19 -20 -42.5 -46.5t-44.5 -53.5t-33 -49h-56z" />
    <glyph glyph-name="rcaron" unicode="&#x159;" horiz-adv-x="394" 
d="M307 541q39 0 72 -8l-9 -53q-32 9 -66 9q-73 0 -116 -54t-43 -143v-292h-57v532h48l6 -99h3q20 45 61 76.5t101 31.5zM186 606q-13 22 -34 49t-44 53.5t-41 46.5v10h41q27 -23 54.5 -52t50.5 -57q24 28 52.5 57t55.5 52h41v-10q-19 -20 -42.5 -46.5t-44.5 -53.5t-33 -49
h-56z" />
    <glyph glyph-name="Sacute" unicode="&#x15a;" horiz-adv-x="546" 
d="M496 186q0 -64 -32 -108t-88 -66t-127 -22q-65 0 -113 9t-82 23v57q37 -15 88 -26t110 -11q82 0 133.5 35t51.5 105q0 42 -19.5 69.5t-60 48t-103.5 41.5q-60 20 -103 45t-66 62.5t-23 94.5q0 58 29.5 98.5t81 61.5t117.5 21q52 0 99 -10t89 -28l-19 -50q-86 36 -171 36
q-74 0 -120.5 -32.5t-46.5 -95.5q0 -46 20 -73.5t58 -46.5t93 -38q63 -22 108.5 -46t70.5 -60.5t25 -93.5zM415 940q-15 -21 -39.5 -49t-52.5 -55.5t-53 -47.5h-40v9q19 19 41 46t42.5 55t33.5 50h68v-8z" />
    <glyph glyph-name="sacute" unicode="&#x15b;" horiz-adv-x="469" 
d="M423 141q0 -72 -54 -111.5t-152 -39.5q-56 0 -99 9.5t-72 24.5v55q35 -18 80 -29.5t92 -11.5q78 0 113.5 26.5t35.5 72.5q0 44 -37 67.5t-109 48.5q-50 17 -87.5 34.5t-58.5 44.5t-21 74q0 64 52 100t139 36q48 0 89.5 -9t76.5 -24l-21 -47q-31 13 -70 22.5t-78 9.5
q-63 0 -98 -22t-35 -64q0 -32 17 -50.5t49 -31.5t78 -29q48 -17 86 -35t61 -46t23 -75zM371 758q-15 -21 -39.5 -49t-52.5 -55.5t-53 -47.5h-40v9q19 19 41 46t42.5 55t33.5 50h68v-8z" />
    <glyph glyph-name="Scircumflex" unicode="&#x15c;" horiz-adv-x="546" 
d="M496 186q0 -64 -32 -108t-88 -66t-127 -22q-65 0 -113 9t-82 23v57q37 -15 88 -26t110 -11q82 0 133.5 35t51.5 105q0 42 -19.5 69.5t-60 48t-103.5 41.5q-60 20 -103 45t-66 62.5t-23 94.5q0 58 29.5 98.5t81 61.5t117.5 21q52 0 99 -10t89 -28l-19 -50q-86 36 -171 36
q-74 0 -120.5 -32.5t-46.5 -95.5q0 -46 20 -73.5t58 -46.5t93 -38q63 -22 108.5 -46t70.5 -60.5t25 -93.5zM307 947q12 -22 33 -49.5t44 -54.5t42 -46v-9h-41q-27 22 -55 51t-52 57q-24 -28 -51.5 -57t-54.5 -51h-41v9q19 20 42 46.5t44 54t34 49.5h56z" />
    <glyph glyph-name="scircumflex" unicode="&#x15d;" horiz-adv-x="469" 
d="M423 141q0 -72 -54 -111.5t-152 -39.5q-56 0 -99 9.5t-72 24.5v55q35 -18 80 -29.5t92 -11.5q78 0 113.5 26.5t35.5 72.5q0 44 -37 67.5t-109 48.5q-50 17 -87.5 34.5t-58.5 44.5t-21 74q0 64 52 100t139 36q48 0 89.5 -9t76.5 -24l-21 -47q-31 13 -70 22.5t-78 9.5
q-63 0 -98 -22t-35 -64q0 -32 17 -50.5t49 -31.5t78 -29q48 -17 86 -35t61 -46t23 -75zM263 765q12 -22 33 -49.5t44 -54.5t42 -46v-9h-41q-27 22 -55 51t-52 57q-24 -28 -51.5 -57t-54.5 -51h-41v9q19 20 42 46.5t44 54t34 49.5h56z" />
    <glyph glyph-name="Scedilla" unicode="&#x15e;" horiz-adv-x="546" 
d="M496 186q0 -64 -32 -108t-88 -66t-127 -22q-65 0 -113 9t-82 23v57q37 -15 88 -26t110 -11q82 0 133.5 35t51.5 105q0 42 -19.5 69.5t-60 48t-103.5 41.5q-60 20 -103 45t-66 62.5t-23 94.5q0 58 29.5 98.5t81 61.5t117.5 21q52 0 99 -10t89 -28l-19 -50q-86 36 -171 36
q-74 0 -120.5 -32.5t-46.5 -95.5q0 -46 20 -73.5t58 -46.5t93 -38q63 -22 108.5 -46t70.5 -60.5t25 -93.5zM357 -142q0 -46 -34.5 -72t-95.5 -26q-34 0 -54 6v39q20 -5 55 -5q37 0 59 13.5t22 43.5q0 28 -25.5 41.5t-71.5 16.5l44 85h41l-29 -59q39 -5 64 -25.5t25 -57.5z
" />
    <glyph glyph-name="scedilla" unicode="&#x15f;" horiz-adv-x="469" 
d="M423 141q0 -72 -54 -111.5t-152 -39.5q-56 0 -99 9.5t-72 24.5v55q35 -18 80 -29.5t92 -11.5q78 0 113.5 26.5t35.5 72.5q0 44 -37 67.5t-109 48.5q-50 17 -87.5 34.5t-58.5 44.5t-21 74q0 64 52 100t139 36q48 0 89.5 -9t76.5 -24l-21 -47q-31 13 -70 22.5t-78 9.5
q-63 0 -98 -22t-35 -64q0 -32 17 -50.5t49 -31.5t78 -29q48 -17 86 -35t61 -46t23 -75zM327 -142q0 -46 -34.5 -72t-95.5 -26q-34 0 -54 6v39q20 -5 55 -5q37 0 59 13.5t22 43.5q0 28 -25.5 41.5t-71.5 16.5l44 85h41l-29 -59q39 -5 64 -25.5t25 -57.5z" />
    <glyph glyph-name="Scaron" unicode="&#x160;" horiz-adv-x="546" 
d="M496 186q0 -64 -32 -108t-88 -66t-127 -22q-65 0 -113 9t-82 23v57q37 -15 88 -26t110 -11q82 0 133.5 35t51.5 105q0 42 -19.5 69.5t-60 48t-103.5 41.5q-60 20 -103 45t-66 62.5t-23 94.5q0 58 29.5 98.5t81 61.5t117.5 21q52 0 99 -10t89 -28l-19 -50q-86 36 -171 36
q-74 0 -120.5 -32.5t-46.5 -95.5q0 -46 20 -73.5t58 -46.5t93 -38q63 -22 108.5 -46t70.5 -60.5t25 -93.5zM250 788q-13 22 -34 49t-44 53.5t-41 46.5v10h41q27 -23 54.5 -52t50.5 -57q24 28 52.5 57t55.5 52h41v-10q-19 -20 -42.5 -46.5t-44.5 -53.5t-33 -49h-56z" />
    <glyph glyph-name="scaron" unicode="&#x161;" horiz-adv-x="469" 
d="M423 141q0 -72 -54 -111.5t-152 -39.5q-56 0 -99 9.5t-72 24.5v55q35 -18 80 -29.5t92 -11.5q78 0 113.5 26.5t35.5 72.5q0 44 -37 67.5t-109 48.5q-50 17 -87.5 34.5t-58.5 44.5t-21 74q0 64 52 100t139 36q48 0 89.5 -9t76.5 -24l-21 -47q-31 13 -70 22.5t-78 9.5
q-63 0 -98 -22t-35 -64q0 -32 17 -50.5t49 -31.5t78 -29q48 -17 86 -35t61 -46t23 -75zM206 606q-13 22 -34 49t-44 53.5t-41 46.5v10h41q27 -23 54.5 -52t50.5 -57q24 28 52.5 57t55.5 52h41v-10q-19 -20 -42.5 -46.5t-44.5 -53.5t-33 -49h-56z" />
    <glyph glyph-name="uni0162" unicode="&#x162;" horiz-adv-x="531" 
d="M294 0h-58v662h-230v52h518v-52h-230v-662zM352 -142q0 -46 -34.5 -72t-95.5 -26q-34 0 -54 6v39q20 -5 55 -5q37 0 59 13.5t22 43.5q0 28 -25.5 41.5t-71.5 16.5l44 85h41l-29 -59q39 -5 64 -25.5t25 -57.5z" />
    <glyph glyph-name="uni0163" unicode="&#x163;" horiz-adv-x="340" 
d="M238 39q22 0 42 3t35 9v-46q-15 -6 -37 -10.5t-47 -4.5q-67 0 -103 37t-36 121v338h-79v32l79 19l20 122h37v-127h163v-46h-163v-335q0 -112 89 -112zM290 -142q0 -46 -34.5 -72t-95.5 -26q-34 0 -54 6v39q20 -5 55 -5q37 0 59 13.5t22 43.5q0 28 -25.5 41.5t-71.5 16.5
l44 85h41l-29 -59q39 -5 64 -25.5t25 -57.5z" />
    <glyph glyph-name="Tcaron" unicode="&#x164;" horiz-adv-x="531" 
d="M294 0h-58v662h-230v52h518v-52h-230v-662zM237 788q-13 22 -34 49t-44 53.5t-41 46.5v10h41q27 -23 54.5 -52t50.5 -57q24 28 52.5 57t55.5 52h41v-10q-19 -20 -42.5 -46.5t-44.5 -53.5t-33 -49h-56z" />
    <glyph glyph-name="tcaron" unicode="&#x165;" horiz-adv-x="340" 
d="M418 753q-8 -33 -26 -76t-39 -77h-33v9q7 17 15.5 44.5t15 56.5t9.5 50h58v-7zM238 39q22 0 42 3t35 9v-46q-15 -6 -37 -10.5t-47 -4.5q-67 0 -103 37t-36 121v338h-79v32l79 19l20 122h37v-127h163v-46h-163v-335q0 -112 89 -112z" />
    <glyph glyph-name="Tbar" unicode="&#x166;" horiz-adv-x="531" 
d="M236 0v340h-170v50h170v272h-230v52h518v-52h-230v-272h168v-50h-168v-340h-58z" />
    <glyph glyph-name="tbar" unicode="&#x167;" horiz-adv-x="340" 
d="M238 39q22 0 42 3t35 9v-46q-15 -6 -37 -10.5t-47 -4.5q-67 0 -103 37t-36 121v135h-71v45h71v158h-79v32l79 19l20 122h37v-127h163v-46h-163v-158h149v-45h-149v-132q0 -112 89 -112z" />
    <glyph glyph-name="Utilde" unicode="&#x168;" horiz-adv-x="722" 
d="M629 252q0 -122 -70.5 -192t-199.5 -70t-197.5 70t-68.5 194v460h58v-460q0 -104 54 -158t157 -54q101 0 155.5 54.5t54.5 151.5v466h57v-462zM189 794q5 54 31 83.5t69 29.5q23 0 42.5 -10t37 -23t34.5 -23t35 -10q22 0 38 14.5t22 52.5h37q-5 -54 -31.5 -84t-68.5 -30
q-23 0 -42.5 10t-36.5 23t-34 23t-36 10q-23 0 -38 -14.5t-21 -51.5h-38z" />
    <glyph glyph-name="utilde" unicode="&#x169;" horiz-adv-x="596" 
d="M507 532v-532h-46l-9 91h-3q-22 -44 -67.5 -72.5t-113.5 -28.5q-187 0 -187 194v348h57v-343q0 -77 34.5 -113.5t102.5 -36.5q175 0 175 203v290h57zM126 612q5 54 31 83.5t69 29.5q23 0 42.5 -10t37 -23t34.5 -23t35 -10q22 0 38 14.5t22 52.5h37q-5 -54 -31.5 -84
t-68.5 -30q-23 0 -42.5 10t-36.5 23t-34 23t-36 10q-23 0 -38 -14.5t-21 -51.5h-38z" />
    <glyph glyph-name="Umacron" unicode="&#x16a;" horiz-adv-x="722" 
d="M629 252q0 -122 -70.5 -192t-199.5 -70t-197.5 70t-68.5 194v460h58v-460q0 -104 54 -158t157 -54q101 0 155.5 54.5t54.5 151.5v466h57v-462zM499 840v-48h-276v48h276z" />
    <glyph glyph-name="umacron" unicode="&#x16b;" horiz-adv-x="596" 
d="M507 532v-532h-46l-9 91h-3q-22 -44 -67.5 -72.5t-113.5 -28.5q-187 0 -187 194v348h57v-343q0 -77 34.5 -113.5t102.5 -36.5q175 0 175 203v290h57zM436 658v-48h-276v48h276z" />
    <glyph glyph-name="Ubreve" unicode="&#x16c;" horiz-adv-x="722" 
d="M629 252q0 -122 -70.5 -192t-199.5 -70t-197.5 70t-68.5 194v460h58v-460q0 -104 54 -158t157 -54q101 0 155.5 54.5t54.5 151.5v466h57v-462zM500 911q-6 -57 -41.5 -90t-98.5 -33q-65 0 -99.5 32.5t-38.5 90.5h40q4 -40 28.5 -57.5t70.5 -17.5q43 0 68.5 18t30.5 57h40
z" />
    <glyph glyph-name="ubreve" unicode="&#x16d;" horiz-adv-x="596" 
d="M507 532v-532h-46l-9 91h-3q-22 -44 -67.5 -72.5t-113.5 -28.5q-187 0 -187 194v348h57v-343q0 -77 34.5 -113.5t102.5 -36.5q175 0 175 203v290h57zM437 729q-6 -57 -41.5 -90t-98.5 -33q-65 0 -99.5 32.5t-38.5 90.5h40q4 -40 28.5 -57.5t70.5 -17.5q43 0 68.5 18
t30.5 57h40z" />
    <glyph glyph-name="Uring" unicode="&#x16e;" horiz-adv-x="722" 
d="M629 252q0 -122 -70.5 -192t-199.5 -70t-197.5 70t-68.5 194v460h58v-460q0 -104 54 -158t157 -54q101 0 155.5 54.5t54.5 151.5v466h57v-462zM361 791q-45 0 -75 27.5t-30 75.5q0 46 30 74t75 28q44 0 75 -28.5t31 -73.5q0 -48 -30.5 -75.5t-75.5 -27.5zM361 828
q29 0 47.5 18.5t18.5 47.5q0 28 -19.5 47t-46.5 19q-28 0 -47 -19t-19 -47q0 -29 18 -47.5t48 -18.5z" />
    <glyph glyph-name="uring" unicode="&#x16f;" horiz-adv-x="596" 
d="M507 532v-532h-46l-9 91h-3q-22 -44 -67.5 -72.5t-113.5 -28.5q-187 0 -187 194v348h57v-343q0 -77 34.5 -113.5t102.5 -36.5q175 0 175 203v290h57zM298 609q-45 0 -75 27.5t-30 75.5q0 46 30 74t75 28q44 0 75 -28.5t31 -73.5q0 -48 -30.5 -75.5t-75.5 -27.5zM298 646
q29 0 47.5 18.5t18.5 47.5q0 28 -19.5 47t-46.5 19q-28 0 -47 -19t-19 -47q0 -29 18 -47.5t48 -18.5z" />
    <glyph glyph-name="Uhungarumlaut" unicode="&#x170;" horiz-adv-x="722" 
d="M629 252q0 -122 -70.5 -192t-199.5 -70t-197.5 70t-68.5 194v460h58v-460q0 -104 54 -158t157 -54q101 0 155.5 54.5t54.5 151.5v466h57v-462zM525 940q-12 -21 -33.5 -49t-46 -55.5t-45.5 -47.5h-36v9q16 19 34.5 46t35.5 55t28 50h63v-8zM357 940q-12 -21 -33.5 -49
t-46 -55.5t-45.5 -47.5h-36v9q16 19 34.5 46t35.5 55t28 50h63v-8z" />
    <glyph glyph-name="uhungarumlaut" unicode="&#x171;" horiz-adv-x="596" 
d="M507 532v-532h-46l-9 91h-3q-22 -44 -67.5 -72.5t-113.5 -28.5q-187 0 -187 194v348h57v-343q0 -77 34.5 -113.5t102.5 -36.5q175 0 175 203v290h57zM462 758q-12 -21 -33.5 -49t-46 -55.5t-45.5 -47.5h-36v9q16 19 34.5 46t35.5 55t28 50h63v-8zM294 758
q-12 -21 -33.5 -49t-46 -55.5t-45.5 -47.5h-36v9q16 19 34.5 46t35.5 55t28 50h63v-8z" />
    <glyph glyph-name="Uogonek" unicode="&#x172;" horiz-adv-x="722" 
d="M449 -114q0 -33 13 -47.5t38 -14.5q15 0 27.5 2t20.5 4v-40q-11 -3 -24.5 -5.5t-31.5 -2.5q-44 0 -68 23.5t-24 72.5q0 34 16 66t40 59q-44 -13 -97 -13q-129 0 -197.5 70t-68.5 194v460h58v-460q0 -104 54 -158t157 -54q101 0 155.5 54.5t54.5 151.5v466h57v-462
q0 -145 -97 -214q-34 -37 -58.5 -73.5t-24.5 -78.5z" />
    <glyph glyph-name="uogonek" unicode="&#x173;" horiz-adv-x="596" 
d="M507 532v-532h-46l-9 91h-3q-22 -44 -67.5 -72.5t-113.5 -28.5q-187 0 -187 194v348h57v-343q0 -77 34.5 -113.5t102.5 -36.5q175 0 175 203v290h57zM419 -123q0 -53 52 -53q15 0 27 2t21 4v-40q-12 -3 -25.5 -5.5t-30.5 -2.5q-44 0 -68.5 22.5t-24.5 65.5q0 39 27.5 76
t68.5 67l33 -13q-34 -30 -57 -59.5t-23 -63.5z" />
    <glyph glyph-name="Wcircumflex" unicode="&#x174;" horiz-adv-x="900" 
d="M878 714l-194 -714h-57l-150 525q-11 36 -19 66.5t-12 50.5q-3 -19 -9.5 -47.5t-15.5 -59.5l-149 -535h-57l-192 714h60l130 -490q10 -42 18.5 -76.5t14.5 -67.5q6 34 14 70t20 77l138 487h59l142 -490q12 -43 20.5 -78.5t14.5 -67.5q5 33 12.5 67.5t19.5 78.5l132 490
h60zM479 947q12 -22 33 -49.5t44 -54.5t42 -46v-9h-41q-27 22 -55 51t-52 57q-24 -28 -51.5 -57t-54.5 -51h-41v9q19 20 42 46.5t44 54t34 49.5h56z" />
    <glyph glyph-name="wcircumflex" unicode="&#x175;" horiz-adv-x="736" 
d="M406 346q-11 33 -19 63t-14 55h-3q-6 -25 -14 -55.5t-19 -63.5l-112 -345h-61l-150 532h60l89 -328q12 -45 20 -78.5t13 -59.5h3q5 24 13.5 57t21.5 73l110 336h58l106 -336q11 -36 20.5 -70t14.5 -59h3q3 24 11 58t20 79l87 328h58l-145 -532h-62zM397 765
q12 -22 33 -49.5t44 -54.5t42 -46v-9h-41q-27 22 -55 51t-52 57q-24 -28 -51.5 -57t-54.5 -51h-41v9q19 20 42 46.5t44 54t34 49.5h56z" />
    <glyph glyph-name="Ycircumflex" unicode="&#x176;" horiz-adv-x="536" 
d="M268 332l204 382h64l-238 -438v-276h-58v272l-240 442h64zM297 947q12 -22 33 -49.5t44 -54.5t42 -46v-9h-41q-27 22 -55 51t-52 57q-24 -28 -51.5 -57t-54.5 -51h-41v9q19 20 42 46.5t44 54t34 49.5h56z" />
    <glyph glyph-name="ycircumflex" unicode="&#x177;" horiz-adv-x="469" 
d="M1 532h60l127 -330q16 -45 28 -79.5t19 -61.5h3q15 50 47 139l124 332h61l-240 -626q-27 -71 -64 -109t-100 -38q-19 0 -34.5 2t-28.5 7v48q12 -4 26 -6.5t30 -2.5q42 0 68.5 26t47.5 80l34 89zM263 765q12 -22 33 -49.5t44 -54.5t42 -46v-9h-41q-27 22 -55 51t-52 57
q-24 -28 -51.5 -57t-54.5 -51h-41v9q19 20 42 46.5t44 54t34 49.5h56z" />
    <glyph glyph-name="Ydieresis" unicode="&#x178;" horiz-adv-x="536" 
d="M268 332l204 382h64l-238 -438v-276h-58v272l-240 442h64zM141 862q0 40 35 40q36 0 36 -40q0 -41 -36 -41q-35 0 -35 41zM327 862q0 40 35 40q36 0 36 -40q0 -41 -36 -41q-35 0 -35 41z" />
    <glyph glyph-name="Zacute" unicode="&#x179;" horiz-adv-x="575" 
d="M536 0h-499v43l415 619h-395v52h468v-43l-415 -618h426v-53zM426 940q-15 -21 -39.5 -49t-52.5 -55.5t-53 -47.5h-40v9q19 19 41 46t42.5 55t33.5 50h68v-8z" />
    <glyph glyph-name="zacute" unicode="&#x17a;" horiz-adv-x="463" 
d="M422 0h-382v38l312 448h-290v46h358v-40l-311 -445h313v-47zM368 758q-15 -21 -39.5 -49t-52.5 -55.5t-53 -47.5h-40v9q19 19 41 46t42.5 55t33.5 50h68v-8z" />
    <glyph glyph-name="Zdotaccent" unicode="&#x17b;" horiz-adv-x="575" 
d="M536 0h-499v43l415 619h-395v52h468v-43l-415 -618h426v-53zM290 911q39 0 39 -43q0 -44 -39 -44t-39 44q0 43 39 43z" />
    <glyph glyph-name="zdotaccent" unicode="&#x17c;" horiz-adv-x="463" 
d="M422 0h-382v38l312 448h-290v46h358v-40l-311 -445h313v-47zM232 729q39 0 39 -43q0 -44 -39 -44t-39 44q0 43 39 43z" />
    <glyph glyph-name="Zcaron" unicode="&#x17d;" horiz-adv-x="575" 
d="M536 0h-499v43l415 619h-395v52h468v-43l-415 -618h426v-53zM261 788q-13 22 -34 49t-44 53.5t-41 46.5v10h41q27 -23 54.5 -52t50.5 -57q24 28 52.5 57t55.5 52h41v-10q-19 -20 -42.5 -46.5t-44.5 -53.5t-33 -49h-56z" />
    <glyph glyph-name="zcaron" unicode="&#x17e;" horiz-adv-x="463" 
d="M422 0h-382v38l312 448h-290v46h358v-40l-311 -445h313v-47zM203 606q-13 22 -34 49t-44 53.5t-41 46.5v10h41q27 -23 54.5 -52t50.5 -57q24 28 52.5 57t55.5 52h41v-10q-19 -20 -42.5 -46.5t-44.5 -53.5t-33 -49h-56z" />
    <glyph glyph-name="longs" unicode="&#x17f;" horiz-adv-x="310" 
d="M251 716q-52 0 -79 -33t-27 -103v-580h-57v581q0 92 43 138t120 46q25 0 46 -4t39 -10l-13 -47q-16 5 -33.5 8.5t-38.5 3.5z" />
    <glyph glyph-name="uni0180" unicode="&#x180;" horiz-adv-x="599" 
d="M317 -10q-67 0 -109.5 27.5t-62.5 68.5h-4l-11 -86h-43v618h-75v45h75v97h57v-97h228v-45h-228v-68q0 -29 -1 -61.5t-2 -52.5h3q20 45 66 75.5t115 30.5q102 0 159.5 -69.5t57.5 -205.5q0 -126 -57.5 -201.5t-167.5 -75.5zM311 39q85 0 128.5 59.5t43.5 169.5
q0 225 -165 225q-93 0 -133.5 -58t-40.5 -168v-7q0 -108 38.5 -164.5t128.5 -56.5z" />
    <glyph glyph-name="uni0181" unicode="&#x181;" horiz-adv-x="709" 
d="M177 0v663h-26q-46 0 -67 -20.5t-21 -55.5q0 -16 3.5 -31.5t6.5 -22.5h-53q-10 23 -10 56q0 58 34.5 91.5t105.5 33.5h225q132 0 195 -41.5t63 -132.5q0 -62 -35.5 -106t-103.5 -56v-3q78 -13 119 -55t41 -117q0 -69 -32 -114t-88.5 -67t-130.5 -22h-226zM388 399
q99 0 142 34t43 101q0 69 -47 99t-151 30h-140v-264h153zM398 51q98 0 146 39.5t48 115.5q0 74 -50 108.5t-153 34.5h-154v-298h163z" />
    <glyph glyph-name="uni0182" unicode="&#x182;" horiz-adv-x="599" 
d="M100 0v714h404v-52h-346v-259h128q134 0 193 -49t59 -148q0 -100 -58.5 -153t-181.5 -53h-198zM290 51q99 0 143.5 37.5t44.5 117.5q0 84 -50 114.5t-150 30.5h-120v-300h132z" />
    <glyph glyph-name="uni0183" unicode="&#x183;" horiz-adv-x="599" 
d="M317 -10q-67 0 -109.5 27.5t-62.5 68.5h-4l-11 -86h-43v760h399v-49h-342v-161q0 -29 -1 -61.5t-2 -52.5h3q20 45 66 75.5t115 30.5q102 0 159.5 -69.5t57.5 -205.5q0 -126 -57.5 -201.5t-167.5 -75.5zM311 39q85 0 128.5 59.5t43.5 169.5q0 225 -165 225
q-93 0 -133.5 -58t-40.5 -168v-7q0 -108 38.5 -164.5t128.5 -56.5z" />
    <glyph glyph-name="uni0184" unicode="&#x184;" horiz-adv-x="607" 
d="M328 -5q-124 0 -177.5 60.5t-53.5 168.5v490h58v-311h142q128 0 189.5 -51.5t61.5 -147.5q0 -93 -55.5 -151t-164.5 -58zM328 46q80 0 120 41.5t40 116.5q0 83 -51.5 115t-147.5 32h-134v-123q0 -96 41.5 -139t131.5 -43z" />
    <glyph glyph-name="uni0185" unicode="&#x185;" horiz-adv-x="598" 
d="M313 -10q-106 0 -166.5 68t-60.5 202v500h57v-210q0 -29 -1.5 -61.5t-2.5 -52.5h4q19 43 64.5 74.5t116.5 31.5q102 0 159.5 -69.5t57.5 -205.5q0 -126 -57 -201.5t-171 -75.5zM314 39q84 0 126 59.5t42 169.5q0 225 -166 225q-93 0 -133 -58t-40 -168v-8
q0 -107 44 -163.5t127 -56.5z" />
    <glyph glyph-name="uni0186" unicode="&#x186;" horiz-adv-x="623" 
d="M225 -10q-58 0 -100 7.5t-78 21.5v52q38 -13 79.5 -21t92.5 -8q90 0 152.5 41t95.5 114t33 170q0 139 -66 222t-201 83q-46 0 -91.5 -11t-83.5 -30l-23 51q40 19 92.5 30.5t113.5 11.5q108 0 179 -44.5t106 -125t35 -188.5q0 -109 -39 -194t-114 -133.5t-183 -48.5z" />
    <glyph glyph-name="uni0187" unicode="&#x187;" horiz-adv-x="623" 
d="M640 858q20 0 34.5 -3.5t23.5 -7.5v-49q-7 3 -21.5 7t-31.5 4q-55 0 -55 -63v-60l-23 -52q-38 19 -78 28.5t-85 9.5q-88 0 -151 -39.5t-96.5 -110t-33.5 -163.5q0 -96 30 -167.5t90.5 -110.5t150.5 -39q52 0 95.5 8t82.5 21v-51q-37 -14 -81 -22t-103 -8
q-108 0 -180.5 46t-109 129t-36.5 194q0 106 40.5 188.5t117 129.5t185.5 47q70 0 135 -20v39q0 115 100 115z" />
    <glyph glyph-name="uni0188" unicode="&#x188;" horiz-adv-x="481" 
d="M301 -10q-117 0 -180.5 72t-63.5 201q0 90 32 152t89.5 94.5t134.5 32.5q22 0 42 -2.5t39 -7.5v115q0 121 104 121q19 0 31.5 -3.5t22.5 -7.5v-49q-8 3 -20.5 6.5t-29.5 3.5q-27 0 -42 -15.5t-15 -53.5v-133l-16 -49q-27 11 -58 17.5t-59 6.5q-95 0 -145.5 -61
t-50.5 -166q0 -100 45 -161.5t140 -61.5q39 0 74 8t63 20v-51q-26 -13 -59.5 -20.5t-77.5 -7.5z" />
    <glyph glyph-name="Dtail" unicode="&#x189;" horiz-adv-x="711" 
d="M299 714q168 0 259 -89.5t91 -260.5q0 -180 -95.5 -272t-277.5 -92h-172v329h-80v51h80v334h195zM287 663h-125v-283h192v-51h-192v-278h110q316 0 316 311q0 301 -301 301z" />
    <glyph glyph-name="uni018A" unicode="&#x18a;" horiz-adv-x="786" 
d="M175 0v663h-24q-46 0 -67 -20.5t-21 -55.5q0 -16 3.5 -31.5t6.5 -22.5h-53q-10 25 -10 56q0 60 35 92.5t105 32.5h224q169 0 259.5 -89.5t90.5 -260.5q0 -180 -95.5 -272t-276.5 -92h-177zM347 51q316 0 316 311q0 301 -301 301h-129v-612h114z" />
    <glyph glyph-name="uni018B" unicode="&#x18b;" horiz-adv-x="599" 
d="M311 0q-257 0 -257 197q0 100 66.5 157t206.5 57h109v252h-343v51h401v-714h-183zM317 51h119v309h-103q-104 0 -161.5 -35t-57.5 -126q0 -77 49.5 -112.5t153.5 -35.5z" />
    <glyph glyph-name="uni018C" unicode="&#x18c;" horiz-adv-x="599" 
d="M279 -10q-107 0 -164.5 68.5t-57.5 202.5q0 137 60 209t167 72q67 0 108.5 -29.5t62.5 -71.5h4q-1 23 -2.5 51.5t-1.5 52.5v166h-340v49h397v-760h-46l-8 93h-3q-21 -43 -63 -73t-113 -30zM286 39q92 0 131 56t39 162v9q0 110 -38.5 168.5t-127.5 58.5q-86 0 -130 -60.5
t-44 -172.5q0 -108 42 -164.5t128 -56.5z" />
    <glyph glyph-name="uni018D" unicode="&#x18d;" horiz-adv-x="586" 
d="M302 542q71 0 124 -29t83 -81.5t30 -122.5q0 -93 -49.5 -155t-151.5 -97q34 -20 60 -40t40.5 -45.5t14.5 -63.5q0 -58 -45 -99.5t-135 -41.5q-61 0 -107 18t-70 39l25 47q30 -24 67.5 -39.5t84.5 -15.5q66 0 95 26t29 64q0 26 -12.5 45.5t-40 39.5t-75.5 46
q-106 59 -153 120t-47 147q0 74 29.5 127.5t82.5 82t121 28.5zM301 494q-84 0 -130 -53.5t-46 -135.5q0 -81 45 -133.5t118 -89.5q90 28 141 80t51 143q0 85 -49 137t-130 52z" />
    <glyph glyph-name="uni018E" unicode="&#x18e;" horiz-adv-x="553" 
d="M61 0v52h334v297h-315v52h315v261h-334v52h392v-714h-392z" />
    <glyph glyph-name="uni018F" unicode="&#x18f;" horiz-adv-x="711" 
d="M316 673q-63 0 -113.5 -11t-92.5 -25v54q38 13 88 23.5t119 10.5q107 0 181 -44.5t113 -126.5t39 -196q0 -113 -35 -195.5t-103 -127.5t-168 -45q-146 0 -216 89.5t-70 271.5v29h531q-5 137 -73 215t-200 78zM344 42q115 0 177 76.5t68 209.5h-470q0 -147 54.5 -216.5
t170.5 -69.5z" />
    <glyph glyph-name="uni0190" unicode="&#x190;" horiz-adv-x="565" 
d="M310 724q69 0 122 -18.5t91 -43.5l-28 -42q-38 23 -80 39t-104 16q-73 0 -119.5 -35.5t-46.5 -101.5q0 -68 46.5 -105t148.5 -37h102v-50h-105q-107 0 -164 -38t-57 -114t50.5 -115t147.5 -39q57 0 112.5 14t98.5 36v-55q-41 -20 -94.5 -32.5t-119.5 -12.5
q-133 0 -194.5 54.5t-61.5 146.5q0 76 43.5 121t120.5 60v3q-57 12 -95.5 52t-38.5 116q0 82 60 131.5t165 49.5z" />
    <glyph glyph-name="uni0191" unicode="&#x191;" horiz-adv-x="595" 
d="M123 -243q-63 0 -98.5 34.5t-35.5 94.5q0 17 2.5 32.5t7.5 30.5l53 -16q-3 -8 -5 -18.5t-2 -25.5q0 -38 21 -59.5t56 -21.5q41 0 64.5 31.5t23.5 94.5v780h372v-52h-314v-263h295v-52h-295v-418q0 -83 -38 -127.5t-107 -44.5z" />
    <glyph glyph-name="fhook" unicode="&#x192;" horiz-adv-x="394" 
d="M124 -243q-63 0 -97.5 34.5t-34.5 92.5q0 24 7 48l50 -12q-1 -6 -2.5 -14t-1.5 -19q0 -40 19 -61t54 -21t56.5 25t21.5 81v575h-98v31l98 17v53q0 178 159 178q28 0 51 -4.5t42 -10.5l-13 -47q-18 6 -38.5 10t-40.5 4q-54 0 -78.5 -31t-24.5 -99v-55h127v-46h-127v-574
q0 -74 -32.5 -114.5t-96.5 -40.5z" />
    <glyph glyph-name="uni0193" unicode="&#x193;" horiz-adv-x="724" 
d="M688 858q19 0 34 -3.5t24 -7.5v-49q-8 3 -22 7t-31 4q-55 0 -55 -63v-64l-23 -51q-45 20 -93 31t-97 11q-95 0 -162.5 -40t-103.5 -111t-36 -165q0 -155 76 -235t223 -80q52 0 93 7t74 19v243h-202v53h260v-332q-105 -42 -237 -42q-170 0 -259 97t-89 269q0 109 43.5 192
t125.5 130t197 47q87 0 159 -25v43q0 115 101 115z" />
    <glyph glyph-name="Gammalatin" unicode="&#x194;" horiz-adv-x="594" 
d="M285 -240q-50 0 -78.5 34.5t-28.5 88.5q0 49 22.5 106.5t53.5 118.5l-255 606h62l172 -414q18 -43 32 -78.5t22 -62.5q7 27 20.5 62.5t31.5 80.5l171 412h62l-253 -605q33 -67 53.5 -122.5t20.5 -103.5q0 -53 -28.5 -88t-79.5 -35zM286 -188q53 0 53 73q0 37 -15 80.5
t-37 88.5q-24 -46 -39 -89.5t-15 -78.5q0 -38 14.5 -56t38.5 -18z" />
    <glyph glyph-name="uni0195" unicode="&#x195;" horiz-adv-x="917" 
d="M642 -11q-198 0 -198 198v157q0 76 -33.5 112.5t-97.5 36.5q-168 0 -168 -203v-290h-57v760h57v-243q0 -21 -1 -40t-3 -37h4q20 44 64.5 73t110.5 29q88 0 134.5 -47t46.5 -147v-155q0 -79 34 -117t107 -38q72 0 105 39.5t33 123.5v339h57v-342q0 -107 -49 -158t-146 -51
z" />
    <glyph glyph-name="Iotalatin" unicode="&#x196;" horiz-adv-x="323" 
d="M226 -10q-59 0 -97.5 33t-38.5 119v572h58v-564q0 -58 22 -83t64 -25q22 0 42.5 3.5t35.5 9.5v-50q-15 -6 -38 -10.5t-48 -4.5z" />
    <glyph glyph-name="uni0197" unicode="&#x197;" horiz-adv-x="311" 
d="M261 714v-36l-76 -12v-269h91v-51h-91v-299l76 -11v-36h-210v36l76 11v299h-92v51h92v269l-76 12v36h210z" />
    <glyph glyph-name="uni0198" unicode="&#x198;" horiz-adv-x="619" 
d="M566 720q13 0 23.5 -2t17.5 -5v-47q-15 4 -39 4q-20 0 -39.5 -12t-46.5 -40l-191 -207l298 -411h-70l-269 370l-92 -91v-279h-58v714h58v-375q19 23 42 49t45 51l191 206q40 43 67.5 59t62.5 16z" />
    <glyph glyph-name="uni0199" unicode="&#x199;" horiz-adv-x="494" 
d="M210 764q15 0 29 -2.5t23 -5.5v-49q-7 2 -19 4.5t-27 2.5q-35 0 -53.5 -21t-18.5 -67v-252q0 -31 -0.5 -66t-1.5 -67h3q10 14 27 34t32 37l202 220h69l-211 -228l228 -304h-68l-199 267l-81 -82v-185h-56v625q0 67 30.5 103t91.5 36z" />
    <glyph glyph-name="uni019A" unicode="&#x19a;" horiz-adv-x="233" 
d="M88 0v361h-74v46h74v353h57v-353h74v-46h-74v-361h-57z" />
    <glyph glyph-name="uni019B" unicode="&#x19b;" horiz-adv-x="511" 
d="M-6 0l231 532l-23 66l-112 -33l-13 44l108 32q-18 43 -36.5 59.5t-51.5 16.5q-16 0 -28.5 -2t-21.5 -5v49q11 3 25.5 5t32.5 2q53 0 80.5 -24.5t52.5 -84.5l116 34l13 -44l-112 -33l184 -524q9 -28 20.5 -39t27.5 -11q8 0 15.5 1.5l12.5 2.5v-44q-9 -4 -19 -6.5t-24 -2.5
q-32 0 -50.5 17.5t-31.5 54.5l-100 288q-11 30 -22 62.5t-16 56.5h-3q-8 -27 -19 -56t-23 -57l-152 -357h-61z" />
    <glyph glyph-name="uni019C" unicode="&#x19c;" horiz-adv-x="996" 
d="M281 -10q-96 0 -144 49.5t-48 163.5v511h58v-511q0 -86 35 -123.5t106 -37.5q89 0 133.5 48.5t44.5 157.5v466h58v-511q0 -86 35 -123.5t106 -37.5q89 0 133 51t44 165v456h58v-714h-46l-9 93h-4q-22 -43 -67.5 -73t-117.5 -30q-75 0 -116.5 29t-59.5 83h-4
q-24 -53 -74 -82.5t-121 -29.5z" />
    <glyph glyph-name="uni019D" unicode="&#x19d;" horiz-adv-x="729" 
d="M38 -192q-18 0 -31.5 3t-24.5 8v51q12 -4 24 -7t27 -3q32 0 49.5 20.5t17.5 65.5v768h62l413 -622h3q-2 31 -3 79t-1 90v453h55v-714h-62l-414 624h-3q2 -39 3.5 -82.5t1.5 -90.5v-509q0 -69 -31.5 -101.5t-85.5 -32.5z" />
    <glyph glyph-name="uni019E" unicode="&#x19e;" horiz-adv-x="596" 
d="M447 -236v580q0 149 -132 149q-170 0 -170 -203v-290h-57v532h46l8 -92h4q21 44 64.5 73t110.5 29q89 0 135.5 -47t46.5 -147v-584h-56z" />
    <glyph glyph-name="uni019F" unicode="&#x19f;" horiz-adv-x="768" 
d="M705 358q0 -109 -36 -192t-107.5 -129.5t-177.5 -46.5q-108 0 -179.5 46.5t-107 130t-35.5 192.5t36.5 191t109 128.5t179.5 46.5q103 0 174 -44.5t107.5 -126.5t36.5 -196zM387 673q-85 0 -142 -35.5t-87 -99.5t-34 -149h519q-6 135 -70.5 209.5t-185.5 74.5zM384 42
q86 0 143 36.5t85.5 103t31.5 156.5h-520q2 -89 31 -156t86 -103.5t143 -36.5z" />
    <glyph glyph-name="Ohorn" unicode="&#x1a0;" horiz-adv-x="768" 
d="M705 358q0 -109 -36 -192t-107.5 -129.5t-177.5 -46.5q-108 0 -179.5 46.5t-107 130t-35.5 192.5t36.5 191t109 128.5t179.5 46.5q81 0 142.5 -28.5t102.5 -81.5q38 11 57 46t19 99h58l6 -8q-12 -137 -116 -175q49 -89 49 -219zM123 359q0 -95 28 -166.5t86 -111
t147 -39.5q90 0 147.5 39t85 110.5t27.5 166.5q0 149 -64.5 232t-192.5 83q-90 0 -148.5 -39.5t-87 -110t-28.5 -164.5z" />
    <glyph glyph-name="ohorn" unicode="&#x1a1;" horiz-adv-x="592" 
d="M533 267q0 -84 -27.5 -146t-81 -96.5t-130.5 -34.5q-74 0 -127 34t-81.5 96.5t-28.5 146.5q0 129 64 202t177 73q55 0 98 -19t73 -52q37 12 54 47.5t17 95.5h58l6 -8q-8 -70 -34.5 -112t-74.5 -61q38 -69 38 -166zM116 267q0 -106 43.5 -167t135.5 -61q93 0 136 61.5
t43 166.5q0 102 -41.5 164t-135.5 62q-91 0 -136 -59t-45 -167z" />
    <glyph glyph-name="uni01A2" unicode="&#x1a2;" horiz-adv-x="1066" 
d="M679 358q0 -109 -35 -192t-103.5 -129.5t-169.5 -46.5q-103 0 -171.5 46.5t-103 130t-34.5 192.5t35.5 191t105 128.5t171.5 46.5q73 0 129 -25t95 -72q27 44 74.5 70t109.5 26q92 0 142 -52.5t50 -161.5v-510h-58v507q0 166 -142 166q-109 0 -150 -81q27 -45 41 -104
t14 -130zM123 359q0 -95 27 -166.5t82 -111t139 -39.5t139 39t81.5 110.5t26.5 166.5q0 149 -62 232t-182 83q-84 0 -140 -39.5t-83.5 -110t-27.5 -164.5z" />
    <glyph glyph-name="uni01A3" unicode="&#x1a3;" horiz-adv-x="829" 
d="M521 267q0 -84 -27 -146t-79 -96.5t-127 -34.5q-72 0 -124 34t-79.5 96.5t-27.5 146.5q0 129 62.5 202t172.5 73q51 0 91 -16.5t69 -47.5q23 28 58.5 46t81.5 18q154 0 154 -186v-596h-56v592q0 141 -107 141q-37 0 -63 -13t-44 -35q22 -34 33.5 -80t11.5 -98zM116 267
q0 -103 42 -165.5t130 -62.5q90 0 132 63t42 165q0 66 -18 117t-55.5 80t-97.5 29q-87 0 -131 -60t-44 -166z" />
    <glyph glyph-name="uni01A4" unicode="&#x1a4;" horiz-adv-x="664" 
d="M175 0v663h-24q-46 0 -67 -20.5t-21 -55.5q0 -16 3.5 -31.5t6.5 -22.5h-53q-10 23 -10 56q0 58 34.5 91.5t105.5 33.5h203q257 0 257 -202q0 -103 -66.5 -161.5t-205.5 -58.5h-105v-292h-58zM332 343q103 0 160.5 36t57.5 130q0 80 -49.5 117t-153.5 37h-114v-320h99z
" />
    <glyph glyph-name="uni01A5" unicode="&#x1a5;" horiz-adv-x="599" 
d="M213 765q19 0 36 -3.5t28 -6.5v-50q-9 3 -24.5 6.5t-33.5 3.5q-36 0 -54.5 -21t-18.5 -67v-89q0 -21 -1.5 -51.5t-2.5 -51.5h4q20 43 63.5 75t117.5 32q102 0 159.5 -69t57.5 -204t-60 -207t-162 -72q-71 0 -114 30t-62 72h-4q1 -25 2.5 -54.5t1.5 -54.5v-219h-57v861
q0 68 31 104t93 36zM319 493q-89 0 -130.5 -56t-42.5 -161v-10q0 -114 41 -170.5t128 -56.5q83 0 126.5 61.5t43.5 169.5q0 107 -41.5 165t-124.5 58z" />
    <glyph glyph-name="uni01A6" unicode="&#x1a6;" horiz-adv-x="600" 
d="M510 -100l-182 308h-170v-208h-58v714h58v-100h120q128 0 192.5 -44.5t64.5 -151.5q0 -82 -43.5 -128.5t-108.5 -65.5l196 -324h-69zM293 258q87 0 134.5 40.5t47.5 117.5q0 82 -50 114.5t-152 32.5h-115v-305h135z" />
    <glyph glyph-name="uni01A7" unicode="&#x1a7;" horiz-adv-x="546" 
d="M269 724q99 0 160.5 -44t61.5 -131q0 -57 -24 -95.5t-67.5 -64.5t-102.5 -48q-63 -23 -105 -44.5t-63.5 -49t-21.5 -71.5q0 -68 50.5 -101t132.5 -33q59 0 111 13t90 28v-57q-34 -14 -84.5 -25t-115.5 -11q-71 0 -126 21t-85.5 63t-30.5 105q0 59 26.5 95.5t74 62
t110.5 49.5q55 21 93.5 41t58.5 48t20 72q0 63 -43.5 94t-118.5 31q-41 0 -84.5 -10t-82.5 -28l-18 50q41 18 87.5 29t96.5 11z" />
    <glyph glyph-name="uni01A8" unicode="&#x1a8;" horiz-adv-x="469" 
d="M225 542q90 0 139 -34t49 -100q0 -45 -22 -73t-60 -46.5t-87 -35.5q-75 -26 -111.5 -50.5t-36.5 -67.5q0 -46 34 -71.5t113 -25.5q46 0 93 12t81 28v-53q-30 -15 -74.5 -25t-100.5 -10q-202 0 -202 148q0 46 22.5 74.5t61 47.5t87.5 37q46 16 79 30t50.5 33t17.5 50
q0 41 -34 62.5t-97 21.5q-36 0 -74 -9.5t-69 -22.5l-19 47q34 15 74.5 24t85.5 9z" />
    <glyph glyph-name="uni01A9" unicode="&#x1a9;" horiz-adv-x="575" 
d="M37 0v48l259 323l-249 296v47h469v-53h-290q-26 0 -53 0.5t-51 1.5l235 -279v-16l-251 -315q33 0 65 0.5t65 0.5h300v-54h-499z" />
    <glyph glyph-name="uni01AA" unicode="&#x1aa;" horiz-adv-x="354" 
d="M116 765q59 0 93 -35t34 -101v-710q0 -57 23 -83t66 -26q21 0 40 3t31 8v-46q-29 -13 -76 -13q-64 0 -102.5 34.5t-38.5 118.5v626h-67q-63 0 -95.5 30t-32.5 82q0 45 30 78.5t95 33.5zM112 717q-34 0 -50.5 -18.5t-16.5 -44.5q0 -65 80 -65h61v36q0 92 -74 92z" />
    <glyph glyph-name="uni01AB" unicode="&#x1ab;" horiz-adv-x="340" 
d="M205 -240q-20 0 -35 3.5t-24 8.5v49q10 -4 24 -7.5t31 -3.5q28 0 45 17t17 53v113q-16 -3 -37 -3q-63 0 -98.5 37t-35.5 121v338h-79v32l79 19l20 122h37v-127h163v-46h-163v-335q0 -56 20.5 -84t68.5 -28q22 0 42 3t35 9v-170q0 -58 -28.5 -89.5t-81.5 -31.5z" />
    <glyph glyph-name="uni01AC" unicode="&#x1ac;" horiz-adv-x="535" 
d="M246 0v662h-92q-48 0 -69.5 -20t-21.5 -54q0 -18 4 -33.5t7 -22.5h-53q-5 10 -8 25.5t-3 31.5q0 57 34.5 91t108.5 34h381v-52h-230v-662h-58z" />
    <glyph glyph-name="uni01AD" unicode="&#x1ad;" horiz-adv-x="340" 
d="M218 765q22 0 39 -3.5t29 -8.5v-49q-11 4 -30 7.5t-39 3.5q-68 0 -68 -78v-105h163v-46h-163v-335q0 -112 89 -112q22 0 42 3t35 9v-46q-15 -6 -37 -10.5t-47 -4.5q-67 0 -103 37t-36 121v338h-79v32l80 19v97q0 63 32.5 97t92.5 34z" />
    <glyph glyph-name="uni01AE" unicode="&#x1ae;" horiz-adv-x="531" 
d="M368 -196q-64 0 -98 36t-34 112v710h-230v52h518v-52h-230v-705q0 -57 22 -79t61 -22q16 0 28.5 2.5t23.5 7.5v-51q-23 -11 -61 -11z" />
    <glyph glyph-name="Uhorn" unicode="&#x1af;" horiz-adv-x="746" 
d="M629 614q42 9 62.5 44t20.5 102h58l6 -8q-7 -74 -39.5 -120.5t-107.5 -61.5v-318q0 -122 -68.5 -192t-198.5 -70t-199.5 70t-69.5 194v460h58v-461q0 -103 54.5 -157t158.5 -54q102 0 155 54t53 152v466h57v-100z" />
    <glyph glyph-name="uhorn" unicode="&#x1b0;" horiz-adv-x="624" 
d="M647 607q-6 -71 -37.5 -119.5t-102.5 -60.5v-427h-46l-9 91h-3q-22 -44 -67 -72.5t-113 -28.5q-188 0 -188 194v348h57v-343q0 -77 34.5 -113.5t102.5 -36.5q175 0 175 203v290h57v-61q41 10 59 45t18 99h57z" />
    <glyph glyph-name="Upsilonlatin" unicode="&#x1b1;" horiz-adv-x="777" 
d="M389 41q123 0 192.5 75.5t69.5 204.5q0 120 -49.5 201t-143.5 145v47h279v-52h-202q50 -34 90 -82t63.5 -112.5t23.5 -147.5q0 -100 -39.5 -174t-112 -115.5t-171.5 -41.5q-100 0 -173 39.5t-112 113.5t-39 177q0 126 50 209t126 134h-201v52h279v-47
q-99 -63 -146 -145.5t-47 -200.5q0 -132 69.5 -206t193.5 -74z" />
    <glyph glyph-name="uni01B2" unicode="&#x1b2;" horiz-adv-x="722" 
d="M359 -10q-129 0 -197.5 70t-68.5 194v460h58v-460q0 -104 54 -158t157 -54q101 0 155.5 54.5t54.5 151.5v343q0 43 -20 62t-52 19q-23 0 -42 -6t-31 -13v51q12 8 34 14t49 6q56 0 87.5 -32.5t31.5 -97.5v-342q0 -122 -70.5 -192t-199.5 -70z" />
    <glyph glyph-name="uni01B3" unicode="&#x1b3;" horiz-adv-x="571" 
d="M240 0v272l-240 442h64l204 -382l151 318q17 38 39 56.5t58 18.5q16 0 29 -3t21 -6v-49q-8 3 -17.5 5.5t-20.5 2.5q-22 0 -34.5 -13.5t-24.5 -37.5l-171 -348v-276h-58z" />
    <glyph glyph-name="uni01B4" unicode="&#x1b4;" horiz-adv-x="530" 
d="M478 541q15 0 27.5 -2.5t21.5 -6.5v-46q-6 2 -15 4.5t-19 2.5q-24 0 -37.5 -15.5t-24.5 -45.5l-201 -526q-27 -71 -64 -109t-100 -38q-19 0 -34.5 2t-28.5 7v48q12 -4 26 -6.5t30 -2.5q42 0 69 26t48 80l33 89l-208 530h60l127 -330q16 -45 28 -79.5t19 -61.5h3
q7 23 19.5 59.5t28.5 79.5l95 255q16 44 37.5 65t59.5 21z" />
    <glyph glyph-name="uni01B5" unicode="&#x1b5;" horiz-adv-x="575" 
d="M81 395h192l179 267h-395v52h468v-43l-186 -276h149v-48h-181l-197 -294h426v-53h-499v43l204 304h-160v48z" />
    <glyph glyph-name="uni01B6" unicode="&#x1b6;" horiz-adv-x="463" 
d="M420 532v-40l-135 -194h129v-47h-163l-142 -204h313v-47h-382v38l149 213h-131v47h164l130 188h-290v46h358z" />
    <glyph glyph-name="uni01B7" unicode="&#x1b7;" horiz-adv-x="581" 
d="M486 714v-46l-251 -266q132 -2 202 -50.5t70 -149.5q0 -95 -67 -153.5t-198 -58.5q-60 0 -111.5 10.5t-92.5 31.5v56q43 -23 97 -35.5t107 -12.5q100 0 152.5 42.5t52.5 119.5t-56 114t-165 37h-59v49l244 260h-356v52h431z" />
    <glyph glyph-name="uni01B8" unicode="&#x1b8;" horiz-adv-x="567" 
d="M311 -10q-88 0 -145 28t-85 76t-28 110q0 107 70 160t184 55l-228 249v46h428v-52h-353l224 -247v-45h-58q-99 0 -153 -40.5t-54 -124.5q0 -78 51.5 -121.5t152.5 -43.5q54 0 108 12.5t97 34.5v-55q-42 -20 -94 -31t-117 -11z" />
    <glyph glyph-name="uni01B9" unicode="&#x1b9;" horiz-adv-x="468" 
d="M269 -240q-76 0 -129.5 28t-81.5 77.5t-28 114.5q0 111 70 169.5t196 62.5l-243 278v42h384v-49h-313l241 -277v-42h-48q-111 0 -170.5 -44t-59.5 -138q0 -79 49.5 -126t135.5 -47q53 0 98 11t80 28v-54q-34 -16 -78.5 -25t-102.5 -9z" />
    <glyph glyph-name="uni01BA" unicode="&#x1ba;" horiz-adv-x="481" 
d="M208 -240q-84 0 -131.5 29.5t-47.5 88.5q0 53 37.5 85.5t135.5 37.5q81 4 119.5 32.5t38.5 97.5q0 49 -25 74.5t-69 35.5t-101 10h-47v43l195 189h-272v49h355v-41l-201 -193q63 -1 113.5 -16.5t80 -52t29.5 -98.5q0 -85 -53 -130t-162 -49q-71 -4 -95 -23t-24 -52
q0 -68 124 -68q51 0 91 9t74 22v-53q-28 -12 -70 -19.5t-95 -7.5z" />
    <glyph glyph-name="uni01BB" unicode="&#x1bb;" horiz-adv-x="571" 
d="M266 769q92 0 145.5 -49t53.5 -135q0 -53 -17 -96.5t-48 -89.5h102v-48h-134l-247 -301v-2h385v-48h-452v48l248 303h-209v48h243q35 48 52.5 90t17.5 95q0 65 -38 99.5t-104 34.5q-50 0 -90.5 -18.5t-75.5 -46.5l-31 40q40 33 89 54.5t110 21.5z" />
    <glyph glyph-name="uni01BC" unicode="&#x1bc;" horiz-adv-x="574" 
d="M253 -10q-62 0 -109 11.5t-81 29.5v56q40 -21 87.5 -34t102.5 -13q90 0 145 44.5t55 136.5q0 84 -56 123t-143 39h-104v279h-96v52h432v-52h-278v-230h55q72 0 128.5 -24t89 -71t32.5 -117q0 -110 -70 -170t-190 -60z" />
    <glyph glyph-name="uni01BD" unicode="&#x1bd;" horiz-adv-x="453" 
d="M198 -8q-54 0 -97.5 10t-69.5 24v55q32 -17 75 -29t94 -12q76 0 115.5 34t39.5 90q0 55 -36.5 83.5t-114.5 28.5h-90v207h-74v49h351v-49h-224v-158h51q104 0 149 -44.5t45 -113.5q0 -47 -22.5 -87t-70 -64t-121.5 -24z" />
    <glyph glyph-name="uni01BE" unicode="&#x1be;" horiz-adv-x="451" 
d="M203 -10q-55 0 -94.5 8.5t-64.5 21.5v54q32 -15 72.5 -25.5t87.5 -10.5q81 0 114 28.5t33 72.5q0 32 -15 51t-43 32.5t-66 27.5q-27 10 -45.5 25t-28 41.5t-9.5 71.5v98h-86v32l86 19l21 122h36v-127h164v-46h-164v-97q0 -49 14 -67t43 -28q41 -14 74.5 -31.5t54 -45.5
t20.5 -72q0 -72 -51.5 -113.5t-152.5 -41.5z" />
    <glyph glyph-name="uni01BF" unicode="&#x1bf;" horiz-adv-x="594" 
d="M326 542q93 0 149.5 -57.5t56.5 -164.5q0 -98 -47 -170t-133.5 -113t-206.5 -44v-229h-57v768h47l7 -102h3q19 44 61.5 78t119.5 34zM317 493q-93 0 -132.5 -58.5t-39.5 -163.5v-230q155 9 241.5 80.5t86.5 197.5q0 80 -41.5 127t-114.5 47z" />
    <glyph glyph-name="uni01C0" unicode="&#x1c0;" horiz-adv-x="347" 
d="M148 0v760h52v-760h-52z" />
    <glyph glyph-name="uni01C1" unicode="&#x1c1;" horiz-adv-x="545" 
d="M148 0v760h52v-760h-52zM346 0v760h52v-760h-52z" />
    <glyph glyph-name="uni01C2" unicode="&#x1c2;" horiz-adv-x="516" 
d="M284 760v-267h166v-48h-166v-119h166v-49h-166v-277h-52v277h-165v49h165v119h-165v48h165v267h52z" />
    <glyph glyph-name="uni01C3" unicode="&#x1c3;" horiz-adv-x="245" 
d="M144 188h-41l-13 526h68zM79 39q0 49 43 49q45 0 45 -49q0 -50 -45 -50q-43 0 -43 50z" />
    <glyph glyph-name="uni01C4" unicode="&#x1c4;" horiz-adv-x="1276" 
d="M649 364q0 -180 -95.5 -272t-276.5 -92h-177v714h199q169 0 259.5 -89.5t90.5 -260.5zM588 362q0 301 -301 301h-129v-612h114q316 0 316 311zM1237 0h-499v43l415 619h-395v52h468v-43l-415 -618h426v-53zM962 788q-13 22 -34 49t-44 53.5t-41 46.5v10h41
q27 -23 54.5 -52t50.5 -57q24 28 52.5 57t55.5 52h41v-10q-19 -20 -42.5 -46.5t-44.5 -53.5t-33 -49h-56z" />
    <glyph glyph-name="uni01C5" unicode="&#x1c5;" horiz-adv-x="1174" 
d="M649 364q0 -180 -95.5 -272t-276.5 -92h-177v714h199q169 0 259.5 -89.5t90.5 -260.5zM588 362q0 301 -301 301h-129v-612h114q316 0 316 311zM1133 0h-382v38l312 448h-290v46h358v-40l-311 -445h313v-47zM913 606q-13 22 -34 49t-44 53.5t-41 46.5v10h41
q27 -23 54.5 -52t50.5 -57q24 28 52.5 57t55.5 52h41v-10q-19 -20 -42.5 -46.5t-44.5 -53.5t-33 -49h-56z" />
    <glyph glyph-name="uni01C6" unicode="&#x1c6;" horiz-adv-x="1062" 
d="M279 -10q-107 0 -164.5 68.5t-57.5 202.5q0 137 60 209t167 72q67 0 108.5 -29.5t62.5 -71.5h4q-1 23 -2.5 51.5t-1.5 52.5v215h57v-760h-46l-8 93h-3q-21 -43 -63 -73t-113 -30zM286 39q92 0 131 56t39 162v9q0 110 -38.5 168.5t-127.5 58.5q-86 0 -130 -60.5
t-44 -172.5q0 -108 42 -164.5t128 -56.5zM1021 0h-382v38l312 448h-290v46h358v-40l-311 -445h313v-47zM801 606q-13 22 -34 49t-44 53.5t-41 46.5v10h41q27 -23 54.5 -52t50.5 -57q24 28 52.5 57t55.5 52h41v-10q-19 -20 -42.5 -46.5t-44.5 -53.5t-33 -49h-56z" />
    <glyph glyph-name="uni01C7" unicode="&#x1c7;" horiz-adv-x="768" 
d="M100 0v714h58v-661h335v-53h-393zM504 -182q-26 0 -45 3.5t-32 9.5v52q15 -6 34.5 -9t41.5 -3q111 0 111 134v709h58v-707q0 -89 -42 -139t-126 -50z" />
    <glyph glyph-name="uni01C8" unicode="&#x1c8;" horiz-adv-x="748" 
d="M100 0v714h58v-661h335v-53h-393zM593 686q0 43 39 43t39 -43q0 -44 -39 -44t-39 44zM532 -240q-23 0 -40 3t-29 8v49q28 -11 63 -11q36 0 56.5 22t20.5 70v631h57v-632q0 -68 -34 -104t-94 -36z" />
    <glyph glyph-name="uni01C9" unicode="&#x1c9;" horiz-adv-x="465" 
d="M145 0h-57v760h57v-760zM311 686q0 43 39 43t39 -43q0 -44 -39 -44t-39 44zM250 -240q-23 0 -40 3t-29 8v49q28 -11 63 -11q36 0 56.5 22t20.5 70v631h57v-632q0 -68 -34 -104t-94 -36z" />
    <glyph glyph-name="uni01CA" unicode="&#x1ca;" horiz-adv-x="981" 
d="M629 0h-62l-414 624h-3q2 -39 3.5 -82.5t1.5 -90.5v-451h-55v714h62l413 -622h3q-2 31 -3 79t-1 90v453h55v-714zM718 -182q-26 0 -45 3.5t-32 9.5v52q15 -6 34.5 -9t41.5 -3q111 0 111 134v709h58v-707q0 -89 -42 -139t-126 -50z" />
    <glyph glyph-name="uni01CB" unicode="&#x1cb;" horiz-adv-x="961" 
d="M629 0h-62l-414 624h-3q2 -39 3.5 -82.5t1.5 -90.5v-451h-55v714h62l413 -622h3q-2 31 -3 79t-1 90v453h55v-714zM807 686q0 43 39 43t39 -43q0 -44 -39 -44t-39 44zM746 -240q-23 0 -40 3t-29 8v49q28 -11 63 -11q36 0 56.5 22t20.5 70v631h57v-632q0 -68 -34 -104
t-94 -36z" />
    <glyph glyph-name="uni01CC" unicode="&#x1cc;" horiz-adv-x="828" 
d="M326 542q91 0 139 -47t48 -147v-348h-56v344q0 76 -35 112.5t-102 36.5q-175 0 -175 -203v-290h-57v532h46l8 -92h4q21 44 67 73t113 29zM674 686q0 43 39 43t39 -43q0 -44 -39 -44t-39 44zM613 -240q-23 0 -40 3t-29 8v49q28 -11 63 -11q36 0 56.5 22t20.5 70v631h57
v-632q0 -68 -34 -104t-94 -36z" />
    <glyph glyph-name="uni01CD" unicode="&#x1cd;" horiz-adv-x="608" 
d="M547 0l-95 246h-296l-96 -246h-60l281 717h53l274 -717h-61zM339 556q-6 14 -16 44t-17 53q-8 -27 -17 -53t-15 -45l-99 -256h259zM277 788q-13 22 -34 49t-44 53.5t-41 46.5v10h41q27 -23 54.5 -52t50.5 -57q24 28 52.5 57t55.5 52h41v-10q-19 -20 -42.5 -46.5
t-44.5 -53.5t-33 -49h-56z" />
    <glyph glyph-name="uni01CE" unicode="&#x1ce;" horiz-adv-x="536" 
d="M276 541q90 0 134 -44t44 -139v-358h-43l-10 90h-3q-29 -45 -70.5 -72.5t-115.5 -27.5q-77 0 -121 38.5t-44 110.5q0 80 65 121.5t189 46.5l97 5v37q0 78 -31.5 111t-92.5 33q-41 0 -79 -11t-76 -29l-18 46q38 18 82.5 30t92.5 12zM308 265q-102 -5 -151.5 -35.5
t-49.5 -90.5q0 -50 30.5 -75.5t84.5 -25.5q83 0 129 47.5t47 131.5v52zM237 606q-13 22 -34 49t-44 53.5t-41 46.5v10h41q27 -23 54.5 -52t50.5 -57q24 28 52.5 57t55.5 52h41v-10q-19 -20 -42.5 -46.5t-44.5 -53.5t-33 -49h-56z" />
    <glyph glyph-name="uni01CF" unicode="&#x1cf;" horiz-adv-x="311" 
d="M261 0h-210v36l76 11v619l-76 12v36h210v-36l-76 -12v-619l76 -11v-36zM127 788q-13 22 -34 49t-44 53.5t-41 46.5v10h41q27 -23 54.5 -52t50.5 -57q24 28 52.5 57t55.5 52h41v-10q-19 -20 -42.5 -46.5t-44.5 -53.5t-33 -49h-56z" />
    <glyph glyph-name="uni01D0" unicode="&#x1d0;" horiz-adv-x="233" 
d="M145 0h-57v532h57v-532zM87 606q-13 22 -34 49t-44 53.5t-41 46.5v10h41q27 -23 54.5 -52t50.5 -57q24 28 52.5 57t55.5 52h41v-10q-19 -20 -42.5 -46.5t-44.5 -53.5t-33 -49h-56z" />
    <glyph glyph-name="uni01D1" unicode="&#x1d1;" horiz-adv-x="768" 
d="M705 358q0 -109 -36 -192t-107.5 -129.5t-177.5 -46.5q-108 0 -179.5 46.5t-107 130t-35.5 192.5t36.5 191t109 128.5t179.5 46.5q103 0 174 -44.5t107.5 -126.5t36.5 -196zM123 359q0 -95 28 -166.5t86 -111t147 -39.5q90 0 147.5 39t85 110.5t27.5 166.5
q0 149 -64.5 232t-192.5 83q-89 0 -148 -39.5t-87.5 -110t-28.5 -164.5zM355 788q-13 22 -34 49t-44 53.5t-41 46.5v10h41q27 -23 54.5 -52t50.5 -57q24 28 52.5 57t55.5 52h41v-10q-19 -20 -42.5 -46.5t-44.5 -53.5t-33 -49h-56z" />
    <glyph glyph-name="uni01D2" unicode="&#x1d2;" horiz-adv-x="590" 
d="M533 267q0 -84 -27.5 -146t-81 -96.5t-130.5 -34.5q-74 0 -127 34t-81.5 96.5t-28.5 146.5q0 129 64 202t177 73q76 0 128.5 -34.5t79.5 -96.5t27 -144zM116 267q0 -103 43.5 -165.5t135.5 -62.5q93 0 136 63t43 165q0 66 -18 117t-57 80t-102 29q-90 0 -135.5 -60
t-45.5 -166zM266 606q-13 22 -34 49t-44 53.5t-41 46.5v10h41q27 -23 54.5 -52t50.5 -57q24 28 52.5 57t55.5 52h41v-10q-19 -20 -42.5 -46.5t-44.5 -53.5t-33 -49h-56z" />
    <glyph glyph-name="uni01D3" unicode="&#x1d3;" horiz-adv-x="722" 
d="M629 252q0 -122 -70.5 -192t-199.5 -70t-197.5 70t-68.5 194v460h58v-460q0 -104 54 -158t157 -54q101 0 155.5 54.5t54.5 151.5v466h57v-462zM332 788q-13 22 -34 49t-44 53.5t-41 46.5v10h41q27 -23 54.5 -52t50.5 -57q24 28 52.5 57t55.5 52h41v-10
q-19 -20 -42.5 -46.5t-44.5 -53.5t-33 -49h-56z" />
    <glyph glyph-name="uni01D4" unicode="&#x1d4;" horiz-adv-x="596" 
d="M507 532v-532h-46l-9 91h-3q-22 -44 -67.5 -72.5t-113.5 -28.5q-187 0 -187 194v348h57v-343q0 -77 34.5 -113.5t102.5 -36.5q175 0 175 203v290h57zM269 606q-13 22 -34 49t-44 53.5t-41 46.5v10h41q27 -23 54.5 -52t50.5 -57q24 28 52.5 57t55.5 52h41v-10
q-19 -20 -42.5 -46.5t-44.5 -53.5t-33 -49h-56z" />
    <glyph glyph-name="uni01D5" unicode="&#x1d5;" horiz-adv-x="722" 
d="M500 998v-47h-276v47h276zM268 887q35 0 35 -41q0 -40 -35 -40t-35 40q0 19 9 30t26 11zM454 887q36 0 36 -41q0 -40 -36 -40q-35 0 -35 40q0 19 9 30t26 11zM629 252q0 -122 -70.5 -192t-199.5 -70t-197.5 70t-68.5 194v460h58v-460q0 -104 54 -158t157 -54
q101 0 155.5 54.5t54.5 151.5v466h57v-462z" />
    <glyph glyph-name="uni01D6" unicode="&#x1d6;" horiz-adv-x="596" 
d="M437 816v-47h-276v47h276zM205 705q35 0 35 -41q0 -40 -35 -40t-35 40q0 19 9 30t26 11zM391 705q36 0 36 -41q0 -40 -36 -40q-35 0 -35 40q0 19 9 30t26 11zM507 532v-532h-46l-9 91h-3q-22 -44 -67.5 -72.5t-113.5 -28.5q-187 0 -187 194v348h57v-343
q0 -77 34.5 -113.5t102.5 -36.5q175 0 175 203v290h57z" />
    <glyph glyph-name="uni01D7" unicode="&#x1d7;" horiz-adv-x="722" 
d="M325 931q26 27 56 64t49 70h67v-8q-21 -31 -59.5 -69t-72.5 -66h-40v9zM268 806q-35 0 -35 40q0 19 9 30t26 11q35 0 35 -41q0 -40 -35 -40zM454 806q-35 0 -35 40q0 19 9 30t26 11q36 0 36 -41q0 -40 -36 -40zM629 252q0 -122 -70.5 -192t-199.5 -70t-197.5 70
t-68.5 194v460h58v-460q0 -104 54 -158t157 -54q101 0 155.5 54.5t54.5 151.5v466h57v-462z" />
    <glyph glyph-name="uni01D8" unicode="&#x1d8;" horiz-adv-x="596" 
d="M262 749q26 27 56 64t49 70h67v-8q-21 -31 -59.5 -69t-72.5 -66h-40v9zM205 624q-35 0 -35 40q0 19 9 30t26 11q35 0 35 -41q0 -40 -35 -40zM391 624q-35 0 -35 40q0 19 9 30t26 11q36 0 36 -41q0 -40 -36 -40zM507 532v-532h-46l-9 91h-3q-22 -44 -67.5 -72.5
t-113.5 -28.5q-187 0 -187 194v348h57v-343q0 -77 34.5 -113.5t102.5 -36.5q175 0 175 203v290h57z" />
    <glyph glyph-name="uni01D9" unicode="&#x1d9;" horiz-adv-x="722" 
d="M333 922q-13 21 -34 45.5t-43.5 48t-40.5 40.5v9h39q28 -21 55.5 -43.5t51.5 -49.5q25 27 52.5 50.5t54.5 42.5h40v-9q-18 -17 -41.5 -40.5t-44.5 -48t-33 -45.5h-56zM268 806q-35 0 -35 40q0 19 9 30t26 11q35 0 35 -41q0 -40 -35 -40zM454 806q-35 0 -35 40q0 19 9 30
t26 11q36 0 36 -41q0 -40 -36 -40zM629 252q0 -122 -70.5 -192t-199.5 -70t-197.5 70t-68.5 194v460h58v-460q0 -104 54 -158t157 -54q101 0 155.5 54.5t54.5 151.5v466h57v-462z" />
    <glyph glyph-name="uni01DA" unicode="&#x1da;" horiz-adv-x="596" 
d="M270 740q-13 21 -34 45.5t-43.5 48t-40.5 40.5v9h39q28 -21 55.5 -43.5t51.5 -49.5q25 27 52.5 50.5t54.5 42.5h40v-9q-18 -17 -41.5 -40.5t-44.5 -48t-33 -45.5h-56zM205 624q-35 0 -35 40q0 19 9 30t26 11q35 0 35 -41q0 -40 -35 -40zM391 624q-35 0 -35 40q0 19 9 30
t26 11q36 0 36 -41q0 -40 -36 -40zM507 532v-532h-46l-9 91h-3q-22 -44 -67.5 -72.5t-113.5 -28.5q-187 0 -187 194v348h57v-343q0 -77 34.5 -113.5t102.5 -36.5q175 0 175 203v290h57z" />
    <glyph glyph-name="uni01DB" unicode="&#x1db;" horiz-adv-x="722" 
d="M295 1065q19 -33 49 -70t56 -64v-9h-40q-35 28 -73 66t-59 69v8h67zM268 887q35 0 35 -41q0 -40 -35 -40t-35 40q0 19 9 30t26 11zM454 887q36 0 36 -41q0 -40 -36 -40q-35 0 -35 40q0 19 9 30t26 11zM629 252q0 -122 -70.5 -192t-199.5 -70t-197.5 70t-68.5 194v460h58
v-460q0 -104 54 -158t157 -54q101 0 155.5 54.5t54.5 151.5v466h57v-462z" />
    <glyph glyph-name="uni01DC" unicode="&#x1dc;" horiz-adv-x="596" 
d="M232 883q19 -33 49 -70t56 -64v-9h-40q-35 28 -73 66t-59 69v8h67zM205 705q35 0 35 -41q0 -40 -35 -40t-35 40q0 19 9 30t26 11zM391 705q36 0 36 -41q0 -40 -36 -40q-35 0 -35 40q0 19 9 30t26 11zM507 532v-532h-46l-9 91h-3q-22 -44 -67.5 -72.5t-113.5 -28.5
q-187 0 -187 194v348h57v-343q0 -77 34.5 -113.5t102.5 -36.5q175 0 175 203v290h57z" />
    <glyph glyph-name="uni01DD" unicode="&#x1dd;" horiz-adv-x="552" 
d="M248 542q119 0 183 -73t64 -198q0 -82 -27.5 -145t-79 -99.5t-125.5 -36.5q-68 0 -114 31.5t-69.5 86.5t-23.5 127v39h380q0 105 -49.5 161.5t-140.5 56.5q-50 0 -87 -8t-81 -28v52q40 18 79 26t91 8zM116 226q0 -84 36 -135.5t111 -51.5q74 0 119 48.5t53 138.5h-319z
" />
    <glyph glyph-name="uni01DE" unicode="&#x1de;" horiz-adv-x="608" 
d="M445 998v-47h-276v47h276zM213 887q35 0 35 -41q0 -40 -35 -40t-35 40q0 19 9 30t26 11zM399 887q36 0 36 -41q0 -40 -36 -40q-35 0 -35 40q0 19 9 30t26 11zM547 0l-95 246h-296l-96 -246h-60l281 717h53l274 -717h-61zM339 556q-6 14 -16 44t-17 53q-8 -27 -17 -53
t-15 -45l-99 -256h259z" />
    <glyph glyph-name="uni01DF" unicode="&#x1df;" horiz-adv-x="536" 
d="M405 816v-47h-276v47h276zM173 705q35 0 35 -41q0 -40 -35 -40t-35 40q0 19 9 30t26 11zM359 705q36 0 36 -41q0 -40 -36 -40q-35 0 -35 40q0 19 9 30t26 11zM276 541q90 0 134 -44t44 -139v-358h-43l-10 90h-3q-29 -45 -70.5 -72.5t-115.5 -27.5q-77 0 -121 38.5
t-44 110.5q0 80 65 121.5t189 46.5l97 5v37q0 78 -31.5 111t-92.5 33q-41 0 -79 -11t-76 -29l-18 46q38 18 82.5 30t92.5 12zM308 265q-102 -5 -151.5 -35.5t-49.5 -90.5q0 -50 30.5 -75.5t84.5 -25.5q83 0 129 47.5t47 131.5v52z" />
    <glyph glyph-name="uni01E0" unicode="&#x1e0;" horiz-adv-x="608" 
d="M445 977v-48h-276v48h276zM307 868q39 0 39 -43q0 -44 -39 -44t-39 44q0 43 39 43zM547 0l-95 246h-296l-96 -246h-60l281 717h53l274 -717h-61zM339 556q-6 14 -16 44t-17 53q-8 -27 -17 -53t-15 -45l-99 -256h259z" />
    <glyph glyph-name="uni01E1" unicode="&#x1e1;" horiz-adv-x="536" 
d="M405 817v-48h-276v48h276zM266 708q39 0 39 -43q0 -44 -39 -44t-39 44q0 43 39 43zM276 541q90 0 134 -44t44 -139v-358h-43l-10 90h-3q-29 -45 -70.5 -72.5t-115.5 -27.5q-77 0 -121 38.5t-44 110.5q0 80 65 121.5t189 46.5l97 5v37q0 78 -31.5 111t-92.5 33
q-41 0 -79 -11t-76 -29l-18 46q38 18 82.5 30t92.5 12zM308 265q-102 -5 -151.5 -35.5t-49.5 -90.5q0 -50 30.5 -75.5t84.5 -25.5q83 0 129 47.5t47 131.5v52z" />
    <glyph glyph-name="uni01E2" unicode="&#x1e2;" horiz-adv-x="822" 
d="M786 0h-379v246h-235l-111 -246h-62l323 714h464v-52h-321v-261h301v-52h-301v-297h321v-52zM195 298h212v364h-50zM576 840v-48h-276v48h276z" />
    <glyph glyph-name="uni01E3" unicode="&#x1e3;" horiz-adv-x="857" 
d="M604 542q64 0 108.5 -31.5t67.5 -86.5t21 -125v-40h-357q0 -108 46 -163.5t129 -55.5q46 0 82 8.5t78 27.5v-52q-39 -18 -77 -26t-84 -8q-77 0 -128.5 36t-75.5 98q-27 -61 -73.5 -97.5t-127.5 -36.5q-77 0 -121.5 38.5t-44.5 110.5q0 80 63 121t183 47l93 5v38
q0 78 -32 110.5t-89 32.5q-39 0 -77 -10.5t-76 -29.5l-18 46q38 18 83 30t91 12q66 0 105.5 -28.5t53.5 -90.5q24 54 68.5 87t108.5 33zM603 494q-65 0 -107.5 -48t-49.5 -140h295q0 84 -34 136t-104 52zM301 265q-97 -5 -145.5 -35.5t-48.5 -90.5q0 -50 29.5 -75.5
t83.5 -25.5q78 0 121 47.5t44 131.5v52zM569 658v-48h-276v48h276z" />
    <glyph glyph-name="uni01E4" unicode="&#x1e4;" horiz-adv-x="724" 
d="M415 -10q-177 0 -265 97t-88 268q0 108 43.5 191.5t125.5 131t197 47.5q116 0 210 -43l-23 -51q-92 42 -192 42q-94 0 -161.5 -39t-103 -110.5t-35.5 -166.5q0 -158 76 -236.5t223 -78.5q52 0 93 7t74 19v91h-181v48h181v109h-202v53h260v-162h63v-48h-63v-126
q-50 -20 -106.5 -31.5t-125.5 -11.5z" />
    <glyph glyph-name="uni01E5" unicode="&#x1e5;" horiz-adv-x="599" 
d="M283 542q62 0 103.5 -24.5t66.5 -66.5h4l8 81h46v-584h68v-48h-73q-11 -65 -66 -102.5t-158 -37.5q-60 0 -106.5 9.5t-83.5 26.5v55q37 -19 86 -30.5t106 -11.5q141 0 163 91h-176v48h184v82q0 19 0.5 38.5t1.5 39.5h-3q-46 -104 -178 -104q-103 0 -161 68.5t-58 196.5
q0 126 58 199.5t168 73.5zM289 493q-87 0 -130 -59t-43 -165t43 -161t124 -55q66 0 103.5 26t53 71.5t15.5 103.5v32q0 97 -37.5 152t-128.5 55z" />
    <glyph glyph-name="Gcaron" unicode="&#x1e6;" horiz-adv-x="724" 
d="M387 364h260v-332q-105 -42 -237 -42q-170 0 -259 97t-89 269q0 109 43.5 192t125.5 130t197 47q116 0 210 -43l-23 -51q-45 20 -93 31t-97 11q-95 0 -162.5 -40t-103.5 -111t-36 -165q0 -155 76 -235t223 -80q52 0 93 7t74 19v243h-202v53zM372 788q-13 22 -34 49
t-44 53.5t-41 46.5v10h41q27 -23 54.5 -52t50.5 -57q24 28 52.5 57t55.5 52h41v-10q-19 -20 -42.5 -46.5t-44.5 -53.5t-33 -49h-56z" />
    <glyph glyph-name="gcaron" unicode="&#x1e7;" horiz-adv-x="599" 
d="M283 542q62 0 103.5 -24.5t66.5 -66.5h4l8 81h46v-549q0 -105 -54 -164t-175 -59q-60 0 -106.5 9.5t-83.5 26.5v55q37 -19 86 -30.5t106 -11.5q87 0 129 46t42 125v31q0 21 0.5 42.5t1.5 40.5h-3q-46 -104 -178 -104q-103 0 -161 70t-58 202q0 129 58 204.5t168 75.5z
M289 493q-87 0 -130 -61t-43 -171q0 -108 43 -165t124 -57q66 0 103.5 26.5t53 73.5t15.5 107v35q0 101 -37.5 156.5t-128.5 55.5zM261 606q-13 22 -34 49t-44 53.5t-41 46.5v10h41q27 -23 54.5 -52t50.5 -57q24 28 52.5 57t55.5 52h41v-10q-19 -20 -42.5 -46.5t-44.5 -53.5
t-33 -49h-56z" />
    <glyph glyph-name="uni01E8" unicode="&#x1e8;" horiz-adv-x="589" 
d="M589 0h-70l-272 370l-89 -85v-285h-58v714h58v-371q21 23 42.5 46.5t44.5 47.5l264 277h71l-290 -304zM288 788q-13 22 -34 49t-44 53.5t-41 46.5v10h41q27 -23 54.5 -52t50.5 -57q24 28 52.5 57t55.5 52h41v-10q-19 -20 -42.5 -46.5t-44.5 -53.5t-33 -49h-56z" />
    <glyph glyph-name="uni01E9" unicode="&#x1e9;" horiz-adv-x="494" 
d="M144 374q0 -32 -1 -66.5t-1 -67.5h1q13 15 29.5 35t31.5 37l202 220h69l-211 -228l228 -304h-68l-199 267l-81 -82v-185h-56v760h56v-386zM87 834q-13 22 -34 49t-44 53.5t-41 46.5v10h41q27 -23 54.5 -52t50.5 -57q24 28 52.5 57t55.5 52h41v-10q-19 -20 -42.5 -46.5
t-44.5 -53.5t-33 -49h-56z" />
    <glyph glyph-name="uni01EA" unicode="&#x1ea;" horiz-adv-x="768" 
d="M705 358q0 -109 -36 -192t-107.5 -129.5t-177.5 -46.5q-108 0 -179.5 46.5t-107 130t-35.5 192.5t36.5 191t109 128.5t179.5 46.5q103 0 174 -44.5t107.5 -126.5t36.5 -196zM123 359q0 -95 28 -166.5t86 -111t147 -39.5q90 0 147.5 39t85 110.5t27.5 166.5
q0 149 -64.5 232t-192.5 83q-89 0 -148 -39.5t-87.5 -110t-28.5 -164.5zM359 -123q0 -53 52 -53q15 0 27 2t21 4v-40q-12 -3 -25.5 -5.5t-30.5 -2.5q-44 0 -68.5 22.5t-24.5 65.5q0 39 27.5 76t68.5 67l33 -13q-34 -30 -57 -59.5t-23 -63.5z" />
    <glyph glyph-name="uni01EB" unicode="&#x1eb;" horiz-adv-x="590" 
d="M533 267q0 -84 -27.5 -146t-81 -96.5t-130.5 -34.5q-74 0 -127 34t-81.5 96.5t-28.5 146.5q0 129 64 202t177 73q76 0 128.5 -34.5t79.5 -96.5t27 -144zM116 267q0 -103 43.5 -165.5t135.5 -62.5q93 0 136 63t43 165q0 66 -18 117t-57 80t-102 29q-90 0 -135.5 -60
t-45.5 -166zM281 -123q0 -53 52 -53q15 0 27 2t21 4v-40q-12 -3 -25.5 -5.5t-30.5 -2.5q-44 0 -68.5 22.5t-24.5 65.5q0 39 27.5 76t68.5 67l33 -13q-34 -30 -57 -59.5t-23 -63.5z" />
    <glyph glyph-name="uni01EC" unicode="&#x1ec;" horiz-adv-x="768" 
d="M705 358q0 -109 -36 -192t-107.5 -129.5t-177.5 -46.5q-108 0 -179.5 46.5t-107 130t-35.5 192.5t36.5 191t109 128.5t179.5 46.5q103 0 174 -44.5t107.5 -126.5t36.5 -196zM123 359q0 -95 28 -166.5t86 -111t147 -39.5q90 0 147.5 39t85 110.5t27.5 166.5
q0 149 -64.5 232t-192.5 83q-89 0 -148 -39.5t-87.5 -110t-28.5 -164.5zM521 840v-48h-276v48h276zM377 -123q0 -53 52 -53q15 0 27 2t21 4v-40q-12 -3 -25.5 -5.5t-30.5 -2.5q-44 0 -68.5 22.5t-24.5 65.5q0 39 27.5 76t68.5 67l33 -13q-34 -30 -57 -59.5t-23 -63.5z" />
    <glyph glyph-name="uni01ED" unicode="&#x1ed;" horiz-adv-x="590" 
d="M533 267q0 -84 -27.5 -146t-81 -96.5t-130.5 -34.5q-74 0 -127 34t-81.5 96.5t-28.5 146.5q0 129 64 202t177 73q76 0 128.5 -34.5t79.5 -96.5t27 -144zM116 267q0 -103 43.5 -165.5t135.5 -62.5q93 0 136 63t43 165q0 66 -18 117t-57 80t-102 29q-90 0 -135.5 -60
t-45.5 -166zM433 658v-48h-276v48h276zM281 -123q0 -53 52 -53q15 0 27 2t21 4v-40q-12 -3 -25.5 -5.5t-30.5 -2.5q-44 0 -68.5 22.5t-24.5 65.5q0 39 27.5 76t68.5 67l33 -13q-34 -30 -57 -59.5t-23 -63.5z" />
    <glyph glyph-name="uni01EE" unicode="&#x1ee;" horiz-adv-x="581" 
d="M486 714v-46l-251 -266q132 -2 202 -50.5t70 -149.5q0 -95 -67 -153.5t-198 -58.5q-60 0 -111.5 10.5t-92.5 31.5v56q43 -23 97 -35.5t107 -12.5q100 0 152.5 42.5t52.5 119.5t-56 114t-165 37h-59v49l244 260h-356v52h431zM246 788q-13 22 -34 49t-44 53.5t-41 46.5v10
h41q27 -23 54.5 -52t50.5 -57q24 28 52.5 57t55.5 52h41v-10q-19 -20 -42.5 -46.5t-44.5 -53.5t-33 -49h-56z" />
    <glyph glyph-name="uni01EF" unicode="&#x1ef;" horiz-adv-x="468" 
d="M414 532v-42l-245 -278q128 -4 197 -59t69 -159q0 -70 -29.5 -122.5t-84.5 -82t-131 -29.5q-55 0 -98 9t-77 25v55q35 -17 79.5 -28.5t97.5 -11.5q86 0 136 50t50 134q0 88 -58.5 129.5t-171.5 41.5h-48v42l242 277h-311v49h383zM191 606q-13 22 -34 49t-44 53.5
t-41 46.5v10h41q27 -23 54.5 -52t50.5 -57q24 28 52.5 57t55.5 52h41v-10q-19 -20 -42.5 -46.5t-44.5 -53.5t-33 -49h-56z" />
    <glyph glyph-name="uni01F0" unicode="&#x1f0;" horiz-adv-x="233" 
d="M17 -240q-23 0 -40 3t-29 8v49q28 -11 63 -11q36 0 56.5 22t20.5 70v631h57v-632q0 -68 -34 -104t-94 -36zM87 606q-13 22 -34 49t-44 53.5t-41 46.5v10h41q27 -23 54.5 -52t50.5 -57q24 28 52.5 57t55.5 52h41v-10q-19 -20 -42.5 -46.5t-44.5 -53.5t-33 -49h-56z" />
    <glyph glyph-name="uni01F1" unicode="&#x1f1;" horiz-adv-x="1276" 
d="M649 364q0 -180 -95.5 -272t-276.5 -92h-177v714h199q169 0 259.5 -89.5t90.5 -260.5zM588 362q0 301 -301 301h-129v-612h114q316 0 316 311zM1237 0h-499v43l415 619h-395v52h468v-43l-415 -618h426v-53z" />
    <glyph glyph-name="uni01F2" unicode="&#x1f2;" horiz-adv-x="1174" 
d="M649 364q0 -180 -95.5 -272t-276.5 -92h-177v714h199q169 0 259.5 -89.5t90.5 -260.5zM588 362q0 301 -301 301h-129v-612h114q316 0 316 311zM1133 0h-382v38l312 448h-290v46h358v-40l-311 -445h313v-47z" />
    <glyph glyph-name="uni01F3" unicode="&#x1f3;" horiz-adv-x="1062" 
d="M279 -10q-107 0 -164.5 68.5t-57.5 202.5q0 137 60 209t167 72q67 0 108.5 -29.5t62.5 -71.5h4q-1 23 -2.5 51.5t-1.5 52.5v215h57v-760h-46l-8 93h-3q-21 -43 -63 -73t-113 -30zM286 39q92 0 131 56t39 162v9q0 110 -38.5 168.5t-127.5 58.5q-86 0 -130 -60.5
t-44 -172.5q0 -108 42 -164.5t128 -56.5zM1021 0h-382v38l312 448h-290v46h358v-40l-311 -445h313v-47z" />
    <glyph glyph-name="uni01F4" unicode="&#x1f4;" horiz-adv-x="724" 
d="M387 364h260v-332q-105 -42 -237 -42q-170 0 -259 97t-89 269q0 109 43.5 192t125.5 130t197 47q116 0 210 -43l-23 -51q-45 20 -93 31t-97 11q-95 0 -162.5 -40t-103.5 -111t-36 -165q0 -155 76 -235t223 -80q52 0 93 7t74 19v243h-202v53zM544 940q-15 -21 -39.5 -49
t-52.5 -55.5t-53 -47.5h-40v9q19 19 41 46t42.5 55t33.5 50h68v-8z" />
    <glyph glyph-name="uni01F5" unicode="&#x1f5;" horiz-adv-x="599" 
d="M283 542q62 0 103.5 -24.5t66.5 -66.5h4l8 81h46v-549q0 -105 -54 -164t-175 -59q-60 0 -106.5 9.5t-83.5 26.5v55q37 -19 86 -30.5t106 -11.5q87 0 129 46t42 125v31q0 21 0.5 42.5t1.5 40.5h-3q-46 -104 -178 -104q-103 0 -161 70t-58 202q0 129 58 204.5t168 75.5z
M289 493q-87 0 -130 -61t-43 -171q0 -108 43 -165t124 -57q66 0 103.5 26.5t53 73.5t15.5 107v35q0 101 -37.5 156.5t-128.5 55.5zM431 758q-15 -21 -39.5 -49t-52.5 -55.5t-53 -47.5h-40v9q19 19 41 46t42.5 55t33.5 50h68v-8z" />
    <glyph glyph-name="uni01F6" unicode="&#x1f6;" horiz-adv-x="969" 
d="M100 0v714h58v-314h353v314h58v-536q0 -74 34.5 -105t92.5 -31q57 0 90 32.5t33 104.5v353h56v-355q0 -92 -48.5 -139t-132.5 -47q-85 0 -134 46t-49 140v171h-353v-348h-58z" />
    <glyph glyph-name="uni01F7" unicode="&#x1f7;" horiz-adv-x="629" 
d="M366 725q58 0 105 -25.5t75.5 -80.5t28.5 -143q0 -167 -109.5 -289.5t-308.5 -192.5v-234h-57v955h46l9 -118h4q14 32 40.5 61.5t67.5 48t99 18.5zM356 674q-100 0 -149.5 -64t-49.5 -179v-383q107 38 188 98t126 142t45 186q0 73 -21 116.5t-57.5 63.5t-81.5 20z" />
    <glyph glyph-name="uni01F8" unicode="&#x1f8;" horiz-adv-x="729" 
d="M629 0h-62l-414 624h-3q2 -39 3.5 -82.5t1.5 -90.5v-451h-55v714h62l413 -622h3q-2 31 -3 79t-1 90v453h55v-714zM326 948q12 -22 32.5 -50t43 -55t41.5 -46v-9h-40q-25 20 -53 47.5t-52.5 55.5t-39.5 49v8h68z" />
    <glyph glyph-name="uni01F9" unicode="&#x1f9;" horiz-adv-x="596" 
d="M326 542q91 0 139 -47t48 -147v-348h-56v344q0 76 -35 112.5t-102 36.5q-175 0 -175 -203v-290h-57v532h46l8 -92h4q21 44 67 73t113 29zM259 766q12 -22 32.5 -50t43 -55t41.5 -46v-9h-40q-25 20 -53 47.5t-52.5 55.5t-39.5 49v8h68z" />
    <glyph glyph-name="Aringacute" unicode="&#x1fa;" horiz-adv-x="608" 
d="M275 833q27 27 55 62.5t46 66.5h68v-8q-21 -28 -57 -64.5t-72 -63.5h-40v7zM268 593q-31 9 -50 34t-19 64q0 47 30 75.5t77 28.5q46 0 76.5 -28t30.5 -76q0 -38 -19 -62.5t-49 -35.5l266 -593h-61l-96 213h-301l-96 -213h-61zM305 621q31 0 50 18t19 52q0 31 -19 49.5
t-50 18.5t-50 -18.5t-19 -49.5q0 -33 19 -51.5t50 -18.5zM175 265h260l-98 224q-7 15 -15.5 36t-15.5 43q-16 -45 -31 -80z" />
    <glyph glyph-name="aringacute" unicode="&#x1fb;" horiz-adv-x="536" 
d="M410 948q-14 -18 -38.5 -39t-52 -41.5t-50.5 -36.5h-42v7q25 24 54.5 56.5t47.5 59.5h81v-6zM276 796q44 0 74.5 -28.5t30.5 -73.5q0 -48 -30.5 -75.5t-74.5 -27.5q-45 0 -75 27.5t-30 75.5q0 46 30 74t75 28zM276 760q-29 0 -48 -19t-19 -47q0 -29 18 -47.5t49 -18.5
q29 0 47.5 18.5t18.5 47.5q0 28 -19.5 47t-46.5 19zM276 541q90 0 134 -44t44 -139v-358h-43l-10 90h-3q-29 -45 -70.5 -72.5t-115.5 -27.5q-77 0 -121 38.5t-44 110.5q0 80 65 121.5t189 46.5l97 5v37q0 78 -31.5 111t-92.5 33q-41 0 -79 -11t-76 -29l-18 46q38 18 82.5 30
t92.5 12zM308 265q-102 -5 -151.5 -35.5t-49.5 -90.5q0 -50 30.5 -75.5t84.5 -25.5q83 0 129 47.5t47 131.5v52z" />
    <glyph glyph-name="AEacute" unicode="&#x1fc;" horiz-adv-x="822" 
d="M786 0h-379v246h-235l-111 -246h-62l323 714h464v-52h-321v-261h301v-52h-301v-297h321v-52zM195 298h212v364h-50zM574 940q-15 -21 -39.5 -49t-52.5 -55.5t-53 -47.5h-40v9q19 19 41 46t42.5 55t33.5 50h68v-8z" />
    <glyph glyph-name="aeacute" unicode="&#x1fd;" horiz-adv-x="857" 
d="M604 542q64 0 108.5 -31.5t67.5 -86.5t21 -125v-40h-357q0 -108 46 -163.5t129 -55.5q46 0 82 8.5t78 27.5v-52q-39 -18 -77 -26t-84 -8q-77 0 -128.5 36t-75.5 98q-27 -61 -73.5 -97.5t-127.5 -36.5q-77 0 -121.5 38.5t-44.5 110.5q0 80 63 121t183 47l93 5v38
q0 78 -32 110.5t-89 32.5q-39 0 -77 -10.5t-76 -29.5l-18 46q38 18 83 30t91 12q66 0 105.5 -28.5t53.5 -90.5q24 54 68.5 87t108.5 33zM603 494q-65 0 -107.5 -48t-49.5 -140h295q0 84 -34 136t-104 52zM301 265q-97 -5 -145.5 -35.5t-48.5 -90.5q0 -50 29.5 -75.5
t83.5 -25.5q78 0 121 47.5t44 131.5v52zM569 758q-15 -21 -39.5 -49t-52.5 -55.5t-53 -47.5h-40v9q19 19 41 46t42.5 55t33.5 50h68v-8z" />
    <glyph glyph-name="Oslashacute" unicode="&#x1fe;" horiz-adv-x="768" 
d="M705 358q0 -109 -36 -192t-107.5 -129.5t-177.5 -46.5q-120 0 -195 60l-57 -78l-41 27l60 83q-44 49 -66.5 119.5t-22.5 157.5q0 109 36.5 191t109 128.5t179.5 46.5q56 0 103 -14.5t85 -40.5l53 73l40 -28l-56 -77q45 -48 69 -119t24 -161zM123 359q0 -71 15.5 -128.5
t47.5 -99.5l357 494q-62 48 -156 48q-89 0 -148 -39.5t-87.5 -110t-28.5 -164.5zM644 358q0 151 -66 232l-358 -495q30 -25 71.5 -39t92.5 -14q90 0 147.5 39t85 110.5t27.5 166.5zM521 940q-15 -21 -39.5 -49t-52.5 -55.5t-53 -47.5h-40v9q19 19 41 46t42.5 55t33.5 50h68
v-8z" />
    <glyph glyph-name="oslashacute" unicode="&#x1ff;" horiz-adv-x="590" 
d="M533 267q0 -84 -27.5 -146t-81 -96.5t-130.5 -34.5q-45 0 -80.5 12.5t-63.5 36.5l-53 -69l-38 28l57 73q-59 75 -59 196q0 129 64 202t177 73q43 0 78 -12t62 -33l49 64l39 -27l-53 -69q60 -75 60 -198zM116 267q0 -45 8 -82.5t25 -66.5l258 337q-20 18 -47.5 28
t-62.5 10q-90 0 -135.5 -60t-45.5 -166zM474 267q0 45 -8.5 83.5t-26.5 67.5l-258 -338q20 -19 49 -30t65 -11q93 0 136 63t43 165zM432 758q-15 -21 -39.5 -49t-52.5 -55.5t-53 -47.5h-40v9q19 19 41 46t42.5 55t33.5 50h68v-8z" />
    <glyph glyph-name="uni0200" unicode="&#x200;" horiz-adv-x="608" 
d="M547 0l-95 246h-296l-96 -246h-60l281 717h53l274 -717h-61zM339 556q-6 14 -16 44t-17 53q-8 -27 -17 -53t-15 -45l-99 -256h259zM329 948q11 -22 28 -50t35.5 -55t34.5 -46v-9h-36q-22 20 -46 47.5t-45.5 55.5t-33.5 49v8h63zM161 948q11 -22 28 -50t35.5 -55t34.5 -46
v-9h-36q-22 20 -46 47.5t-45.5 55.5t-33.5 49v8h63z" />
    <glyph glyph-name="uni0201" unicode="&#x201;" horiz-adv-x="536" 
d="M276 541q90 0 134 -44t44 -139v-358h-43l-10 90h-3q-29 -45 -70.5 -72.5t-115.5 -27.5q-77 0 -121 38.5t-44 110.5q0 80 65 121.5t189 46.5l97 5v37q0 78 -31.5 111t-92.5 33q-41 0 -79 -11t-76 -29l-18 46q38 18 82.5 30t92.5 12zM308 265q-102 -5 -151.5 -35.5
t-49.5 -90.5q0 -50 30.5 -75.5t84.5 -25.5q83 0 129 47.5t47 131.5v52zM289 766q11 -22 28 -50t35.5 -55t34.5 -46v-9h-36q-22 20 -46 47.5t-45.5 55.5t-33.5 49v8h63zM121 766q11 -22 28 -50t35.5 -55t34.5 -46v-9h-36q-22 20 -46 47.5t-45.5 55.5t-33.5 49v8h63z" />
    <glyph glyph-name="uni0202" unicode="&#x202;" horiz-adv-x="608" 
d="M547 0l-95 246h-296l-96 -246h-60l281 717h53l274 -717h-61zM339 556q-6 14 -16 44t-17 53q-8 -27 -17 -53t-15 -45l-99 -256h259zM308 911q64 0 98.5 -32.5t39.5 -90.5h-40q-4 41 -28.5 58.5t-70.5 17.5q-44 0 -69.5 -18.5t-29.5 -57.5h-40q6 57 41.5 90t98.5 33z" />
    <glyph glyph-name="uni0203" unicode="&#x203;" horiz-adv-x="536" 
d="M276 541q90 0 134 -44t44 -139v-358h-43l-10 90h-3q-29 -45 -70.5 -72.5t-115.5 -27.5q-77 0 -121 38.5t-44 110.5q0 80 65 121.5t189 46.5l97 5v37q0 78 -31.5 111t-92.5 33q-41 0 -79 -11t-76 -29l-18 46q38 18 82.5 30t92.5 12zM308 265q-102 -5 -151.5 -35.5
t-49.5 -90.5q0 -50 30.5 -75.5t84.5 -25.5q83 0 129 47.5t47 131.5v52zM268 729q64 0 98.5 -32.5t39.5 -90.5h-40q-4 41 -28.5 58.5t-70.5 17.5q-44 0 -69.5 -18.5t-29.5 -57.5h-40q6 57 41.5 90t98.5 33z" />
    <glyph glyph-name="uni0204" unicode="&#x204;" horiz-adv-x="553" 
d="M492 0h-392v714h392v-52h-334v-261h315v-52h-315v-297h334v-52zM331 948q11 -22 28 -50t35.5 -55t34.5 -46v-9h-36q-22 20 -46 47.5t-45.5 55.5t-33.5 49v8h63zM163 948q11 -22 28 -50t35.5 -55t34.5 -46v-9h-36q-22 20 -46 47.5t-45.5 55.5t-33.5 49v8h63z" />
    <glyph glyph-name="uni0205" unicode="&#x205;" horiz-adv-x="552" 
d="M290 542q68 0 113.5 -31.5t69 -86.5t23.5 -126v-39h-380q0 -106 49.5 -162.5t141.5 -56.5q49 0 86 8.5t81 27.5v-52q-40 -18 -79 -26t-90 -8q-120 0 -184 73t-64 199q0 81 27.5 144t79.5 99.5t126 36.5zM289 494q-73 0 -118.5 -49t-52.5 -139h319q0 84 -36.5 136
t-111.5 52zM306 766q11 -22 28 -50t35.5 -55t34.5 -46v-9h-36q-22 20 -46 47.5t-45.5 55.5t-33.5 49v8h63zM138 766q11 -22 28 -50t35.5 -55t34.5 -46v-9h-36q-22 20 -46 47.5t-45.5 55.5t-33.5 49v8h63z" />
    <glyph glyph-name="uni0206" unicode="&#x206;" horiz-adv-x="553" 
d="M492 0h-392v714h392v-52h-334v-261h315v-52h-315v-297h334v-52zM310 911q64 0 98.5 -32.5t39.5 -90.5h-40q-4 41 -28.5 58.5t-70.5 17.5q-44 0 -69.5 -18.5t-29.5 -57.5h-40q6 57 41.5 90t98.5 33z" />
    <glyph glyph-name="uni0207" unicode="&#x207;" horiz-adv-x="552" 
d="M290 542q68 0 113.5 -31.5t69 -86.5t23.5 -126v-39h-380q0 -106 49.5 -162.5t141.5 -56.5q49 0 86 8.5t81 27.5v-52q-40 -18 -79 -26t-90 -8q-120 0 -184 73t-64 199q0 81 27.5 144t79.5 99.5t126 36.5zM289 494q-73 0 -118.5 -49t-52.5 -139h319q0 84 -36.5 136
t-111.5 52zM285 729q64 0 98.5 -32.5t39.5 -90.5h-40q-4 41 -28.5 58.5t-70.5 17.5q-44 0 -69.5 -18.5t-29.5 -57.5h-40q6 57 41.5 90t98.5 33z" />
    <glyph glyph-name="uni0208" unicode="&#x208;" horiz-adv-x="311" 
d="M261 0h-210v36l76 11v619l-76 12v36h210v-36l-76 -12v-619l76 -11v-36zM179 948q11 -22 28 -50t35.5 -55t34.5 -46v-9h-36q-22 20 -46 47.5t-45.5 55.5t-33.5 49v8h63zM11 948q11 -22 28 -50t35.5 -55t34.5 -46v-9h-36q-22 20 -46 47.5t-45.5 55.5t-33.5 49v8h63z" />
    <glyph glyph-name="uni0209" unicode="&#x209;" horiz-adv-x="233" 
d="M145 0h-57v532h57v-532zM139 766q11 -22 28 -50t35.5 -55t34.5 -46v-9h-36q-22 20 -46 47.5t-45.5 55.5t-33.5 49v8h63zM-29 766q11 -22 28 -50t35.5 -55t34.5 -46v-9h-36q-22 20 -46 47.5t-45.5 55.5t-33.5 49v8h63z" />
    <glyph glyph-name="uni020A" unicode="&#x20a;" horiz-adv-x="311" 
d="M261 0h-210v36l76 11v619l-76 12v36h210v-36l-76 -12v-619l76 -11v-36zM158 911q64 0 98.5 -32.5t39.5 -90.5h-40q-4 41 -28.5 58.5t-70.5 17.5q-44 0 -69.5 -18.5t-29.5 -57.5h-40q6 57 41.5 90t98.5 33z" />
    <glyph glyph-name="uni020B" unicode="&#x20b;" horiz-adv-x="233" 
d="M145 0h-57v532h57v-532zM118 729q64 0 98.5 -32.5t39.5 -90.5h-40q-4 41 -28.5 58.5t-70.5 17.5q-44 0 -69.5 -18.5t-29.5 -57.5h-40q6 57 41.5 90t98.5 33z" />
    <glyph glyph-name="uni020C" unicode="&#x20c;" horiz-adv-x="768" 
d="M705 358q0 -109 -36 -192t-107.5 -129.5t-177.5 -46.5q-108 0 -179.5 46.5t-107 130t-35.5 192.5t36.5 191t109 128.5t179.5 46.5q103 0 174 -44.5t107.5 -126.5t36.5 -196zM123 359q0 -95 28 -166.5t86 -111t147 -39.5q90 0 147.5 39t85 110.5t27.5 166.5
q0 149 -64.5 232t-192.5 83q-89 0 -148 -39.5t-87.5 -110t-28.5 -164.5zM407 948q11 -22 28 -50t35.5 -55t34.5 -46v-9h-36q-22 20 -46 47.5t-45.5 55.5t-33.5 49v8h63zM239 948q11 -22 28 -50t35.5 -55t34.5 -46v-9h-36q-22 20 -46 47.5t-45.5 55.5t-33.5 49v8h63z" />
    <glyph glyph-name="uni020D" unicode="&#x20d;" horiz-adv-x="590" 
d="M533 267q0 -84 -27.5 -146t-81 -96.5t-130.5 -34.5q-74 0 -127 34t-81.5 96.5t-28.5 146.5q0 129 64 202t177 73q76 0 128.5 -34.5t79.5 -96.5t27 -144zM116 267q0 -103 43.5 -165.5t135.5 -62.5q93 0 136 63t43 165q0 66 -18 117t-57 80t-102 29q-90 0 -135.5 -60
t-45.5 -166zM318 766q11 -22 28 -50t35.5 -55t34.5 -46v-9h-36q-22 20 -46 47.5t-45.5 55.5t-33.5 49v8h63zM150 766q11 -22 28 -50t35.5 -55t34.5 -46v-9h-36q-22 20 -46 47.5t-45.5 55.5t-33.5 49v8h63z" />
    <glyph glyph-name="uni020E" unicode="&#x20e;" horiz-adv-x="768" 
d="M705 358q0 -109 -36 -192t-107.5 -129.5t-177.5 -46.5q-108 0 -179.5 46.5t-107 130t-35.5 192.5t36.5 191t109 128.5t179.5 46.5q103 0 174 -44.5t107.5 -126.5t36.5 -196zM123 359q0 -95 28 -166.5t86 -111t147 -39.5q90 0 147.5 39t85 110.5t27.5 166.5
q0 149 -64.5 232t-192.5 83q-89 0 -148 -39.5t-87.5 -110t-28.5 -164.5zM386 911q64 0 98.5 -32.5t39.5 -90.5h-40q-4 41 -28.5 58.5t-70.5 17.5q-44 0 -69.5 -18.5t-29.5 -57.5h-40q6 57 41.5 90t98.5 33z" />
    <glyph glyph-name="uni020F" unicode="&#x20f;" horiz-adv-x="590" 
d="M533 267q0 -84 -27.5 -146t-81 -96.5t-130.5 -34.5q-74 0 -127 34t-81.5 96.5t-28.5 146.5q0 129 64 202t177 73q76 0 128.5 -34.5t79.5 -96.5t27 -144zM116 267q0 -103 43.5 -165.5t135.5 -62.5q93 0 136 63t43 165q0 66 -18 117t-57 80t-102 29q-90 0 -135.5 -60
t-45.5 -166zM297 729q64 0 98.5 -32.5t39.5 -90.5h-40q-4 41 -28.5 58.5t-70.5 17.5q-44 0 -69.5 -18.5t-29.5 -57.5h-40q6 57 41.5 90t98.5 33z" />
    <glyph glyph-name="uni0210" unicode="&#x210;" horiz-adv-x="600" 
d="M278 714q128 0 192.5 -44.5t64.5 -151.5q0 -82 -43.5 -128.5t-108.5 -65.5l196 -324h-69l-182 308h-170v-308h-58v714h178zM273 663h-115v-305h135q87 0 134.5 40.5t47.5 117.5q0 82 -50 114.5t-152 32.5zM333 948q11 -22 28 -50t35.5 -55t34.5 -46v-9h-36
q-22 20 -46 47.5t-45.5 55.5t-33.5 49v8h63zM165 948q11 -22 28 -50t35.5 -55t34.5 -46v-9h-36q-22 20 -46 47.5t-45.5 55.5t-33.5 49v8h63z" />
    <glyph glyph-name="uni0211" unicode="&#x211;" horiz-adv-x="394" 
d="M307 541q39 0 72 -8l-9 -53q-32 9 -66 9q-73 0 -116 -54t-43 -143v-292h-57v532h48l6 -99h3q20 45 61 76.5t101 31.5zM251 766q11 -22 28 -50t35.5 -55t34.5 -46v-9h-36q-22 20 -46 47.5t-45.5 55.5t-33.5 49v8h63zM83 766q11 -22 28 -50t35.5 -55t34.5 -46v-9h-36
q-22 20 -46 47.5t-45.5 55.5t-33.5 49v8h63z" />
    <glyph glyph-name="uni0212" unicode="&#x212;" horiz-adv-x="600" 
d="M278 714q128 0 192.5 -44.5t64.5 -151.5q0 -82 -43.5 -128.5t-108.5 -65.5l196 -324h-69l-182 308h-170v-308h-58v714h178zM273 663h-115v-305h135q87 0 134.5 40.5t47.5 117.5q0 82 -50 114.5t-152 32.5zM312 911q64 0 98.5 -32.5t39.5 -90.5h-40q-4 41 -28.5 58.5
t-70.5 17.5q-44 0 -69.5 -18.5t-29.5 -57.5h-40q6 57 41.5 90t98.5 33z" />
    <glyph glyph-name="uni0213" unicode="&#x213;" horiz-adv-x="394" 
d="M307 541q39 0 72 -8l-9 -53q-32 9 -66 9q-73 0 -116 -54t-43 -143v-292h-57v532h48l6 -99h3q20 45 61 76.5t101 31.5zM230 729q64 0 98.5 -32.5t39.5 -90.5h-40q-4 41 -28.5 58.5t-70.5 17.5q-44 0 -69.5 -18.5t-29.5 -57.5h-40q6 57 41.5 90t98.5 33z" />
    <glyph glyph-name="uni0214" unicode="&#x214;" horiz-adv-x="722" 
d="M629 252q0 -122 -70.5 -192t-199.5 -70t-197.5 70t-68.5 194v460h58v-460q0 -104 54 -158t157 -54q101 0 155.5 54.5t54.5 151.5v466h57v-462zM384 948q11 -22 28 -50t35.5 -55t34.5 -46v-9h-36q-22 20 -46 47.5t-45.5 55.5t-33.5 49v8h63zM216 948q11 -22 28 -50
t35.5 -55t34.5 -46v-9h-36q-22 20 -46 47.5t-45.5 55.5t-33.5 49v8h63z" />
    <glyph glyph-name="uni0215" unicode="&#x215;" horiz-adv-x="596" 
d="M507 532v-532h-46l-9 91h-3q-22 -44 -67.5 -72.5t-113.5 -28.5q-187 0 -187 194v348h57v-343q0 -77 34.5 -113.5t102.5 -36.5q175 0 175 203v290h57zM321 766q11 -22 28 -50t35.5 -55t34.5 -46v-9h-36q-22 20 -46 47.5t-45.5 55.5t-33.5 49v8h63zM153 766q11 -22 28 -50
t35.5 -55t34.5 -46v-9h-36q-22 20 -46 47.5t-45.5 55.5t-33.5 49v8h63z" />
    <glyph glyph-name="uni0216" unicode="&#x216;" horiz-adv-x="722" 
d="M629 252q0 -122 -70.5 -192t-199.5 -70t-197.5 70t-68.5 194v460h58v-460q0 -104 54 -158t157 -54q101 0 155.5 54.5t54.5 151.5v466h57v-462zM363 911q64 0 98.5 -32.5t39.5 -90.5h-40q-4 41 -28.5 58.5t-70.5 17.5q-44 0 -69.5 -18.5t-29.5 -57.5h-40q6 57 41.5 90
t98.5 33z" />
    <glyph glyph-name="uni0217" unicode="&#x217;" horiz-adv-x="596" 
d="M507 532v-532h-46l-9 91h-3q-22 -44 -67.5 -72.5t-113.5 -28.5q-187 0 -187 194v348h57v-343q0 -77 34.5 -113.5t102.5 -36.5q175 0 175 203v290h57zM300 729q64 0 98.5 -32.5t39.5 -90.5h-40q-4 41 -28.5 58.5t-70.5 17.5q-44 0 -69.5 -18.5t-29.5 -57.5h-40
q6 57 41.5 90t98.5 33z" />
    <glyph glyph-name="uni0218" unicode="&#x218;" horiz-adv-x="546" 
d="M496 186q0 -64 -32 -108t-88 -66t-127 -22q-65 0 -113 9t-82 23v57q37 -15 88 -26t110 -11q82 0 133.5 35t51.5 105q0 42 -19.5 69.5t-60 48t-103.5 41.5q-60 20 -103 45t-66 62.5t-23 94.5q0 58 29.5 98.5t81 61.5t117.5 21q52 0 99 -10t89 -28l-19 -50q-86 36 -171 36
q-74 0 -120.5 -32.5t-46.5 -95.5q0 -46 20 -73.5t58 -46.5t93 -38q63 -22 108.5 -46t70.5 -60.5t25 -93.5zM316 -68q-8 -33 -26.5 -76t-42.5 -77h-33v9q8 16 17 43.5t16.5 57t10.5 50.5h58v-7z" />
    <glyph glyph-name="uni0219" unicode="&#x219;" horiz-adv-x="469" 
d="M423 141q0 -72 -54 -111.5t-152 -39.5q-56 0 -99 9.5t-72 24.5v55q35 -18 80 -29.5t92 -11.5q78 0 113.5 26.5t35.5 72.5q0 44 -37 67.5t-109 48.5q-50 17 -87.5 34.5t-58.5 44.5t-21 74q0 64 52 100t139 36q48 0 89.5 -9t76.5 -24l-21 -47q-31 13 -70 22.5t-78 9.5
q-63 0 -98 -22t-35 -64q0 -32 17 -50.5t49 -31.5t78 -29q48 -17 86 -35t61 -46t23 -75zM286 -68q-8 -33 -26.5 -76t-42.5 -77h-33v9q8 16 17 43.5t16.5 57t10.5 50.5h58v-7z" />
    <glyph glyph-name="uni021A" unicode="&#x21a;" horiz-adv-x="531" 
d="M294 0h-58v662h-230v52h518v-52h-230v-662zM317 -68q-8 -33 -26.5 -76t-42.5 -77h-33v9q8 16 17 43.5t16.5 57t10.5 50.5h58v-7z" />
    <glyph glyph-name="uni021B" unicode="&#x21b;" horiz-adv-x="340" 
d="M238 39q22 0 42 3t35 9v-46q-15 -6 -37 -10.5t-47 -4.5q-67 0 -103 37t-36 121v338h-79v32l79 19l20 122h37v-127h163v-46h-163v-335q0 -112 89 -112zM254 -68q-8 -33 -26.5 -76t-42.5 -77h-33v9q8 16 17 43.5t16.5 57t10.5 50.5h58v-7z" />
    <glyph glyph-name="uni021C" unicode="&#x21c;" horiz-adv-x="559" 
d="M41 -124q150 39 238 81.5t126 94t38 115.5q0 67 -34 107.5t-95 70.5q-34 -13 -72 -23.5t-78 -20.5l-12 47q91 23 152.5 46.5t93 57.5t31.5 91q0 47 -22 76t-57.5 42.5t-76.5 13.5q-60 0 -108 -18t-91 -48l-29 41q52 37 107.5 55.5t121.5 18.5q56 0 105 -18t79.5 -57.5
t30.5 -104.5q0 -64 -33.5 -105.5t-88.5 -69.5q37 -18 68 -44t49.5 -64.5t18.5 -92.5q0 -88 -47.5 -151t-149.5 -110t-265 -87v56z" />
    <glyph glyph-name="uni021D" unicode="&#x21d;" horiz-adv-x="481" 
d="M30 -188q108 24 184 56t116.5 77t40.5 110q0 57 -27.5 91.5t-76.5 57.5q-28 -12 -60 -21.5t-68 -18.5l-11 44q83 22 133 45t72.5 53.5t22.5 73.5q0 60 -39.5 87.5t-94.5 27.5q-43 0 -82 -11t-74 -29l-20 43q41 22 84.5 33.5t91.5 11.5q55 0 98 -18t68.5 -53.5t25.5 -91.5
q0 -52 -26.5 -89.5t-73.5 -62.5q47 -21 81.5 -61.5t34.5 -110.5q0 -86 -50 -142t-140 -92.5t-210 -61.5v52z" />
    <glyph glyph-name="uni021E" unicode="&#x21e;" horiz-adv-x="724" 
d="M623 0h-58v348h-407v-348h-58v714h58v-314h407v314h58v-714zM334 788q-13 22 -34 49t-44 53.5t-41 46.5v10h41q27 -23 54.5 -52t50.5 -57q24 28 52.5 57t55.5 52h41v-10q-19 -20 -42.5 -46.5t-44.5 -53.5t-33 -49h-56z" />
    <glyph glyph-name="uni021F" unicode="&#x21f;" horiz-adv-x="596" 
d="M145 517q0 -21 -1 -40t-3 -37h4q21 44 66.5 73t113.5 29q92 0 140 -47t48 -147v-348h-56v344q0 76 -35 112.5t-102 36.5q-175 0 -175 -203v-290h-57v760h57v-243zM88 834q-13 22 -34 49t-44 53.5t-41 46.5v10h41q27 -23 54.5 -52t50.5 -57q24 28 52.5 57t55.5 52h41v-10
q-19 -20 -42.5 -46.5t-44.5 -53.5t-33 -49h-56z" />
    <glyph glyph-name="uni0220" unicode="&#x220;" horiz-adv-x="697" 
d="M373 725q111 0 171.5 -60.5t60.5 -192.5v-712h-58v709q0 107 -43.5 155.5t-136.5 48.5q-109 0 -159 -59t-50 -168v-446h-58v715h46l9 -109h3q25 50 80 84.5t135 34.5z" />
    <glyph glyph-name="uni0221" unicode="&#x221;" horiz-adv-x="854" 
d="M490 -97q2 30 7 63t13 60q-32 23 -40 76h-3q-22 -50 -65 -81t-122 -31q-107 0 -165 68.5t-58 202.5q0 137 60 209t167 72q67 0 108.5 -29.5t62.5 -71.5h4q-1 23 -2.5 51.5t-1.5 52.5v215h57v-581q0 -31 4.5 -56t14.5 -40q17 37 42 69t61 51t84 19q57 0 90.5 -27t33.5 -74
q0 -51 -40.5 -86t-135.5 -35q-36 0 -65.5 2t-43.5 5q-5 -21 -9 -51.5t-5 -56.5zM286 39q92 0 131 55.5t39 162.5v9q0 110 -38.5 168.5t-127.5 58.5q-86 0 -130 -60.5t-44 -172.5q0 -108 42 -164.5t128 -56.5zM669 47q67 0 92.5 19.5t25.5 52.5q0 24 -19 40t-57 16
q-39 0 -66 -17t-44.5 -44.5t-29.5 -59.5q16 -3 41.5 -5t56.5 -2z" />
    <glyph glyph-name="uni0222" unicode="&#x222;" horiz-adv-x="654" 
d="M327 -11q-82 0 -143 28t-94.5 81t-33.5 129q0 61 21.5 103.5t58 68t79.5 35.5q-61 16 -92.5 62t-31.5 132v96h58v-95q0 -89 40 -129.5t136 -40.5q97 0 139 41t42 133v91h58v-95q0 -87 -32.5 -132.5t-92.5 -63.5q44 -10 80 -35t58 -68t22 -105q-1 -114 -73 -175t-199 -61z
M328 41q104 0 157 48t53 136q0 90 -51 136.5t-162 46.5q-105 0 -156.5 -47t-51.5 -134q0 -89 53.5 -137.5t157.5 -48.5z" />
    <glyph glyph-name="uni0223" unicode="&#x223;" horiz-adv-x="596" 
d="M299 -11q-71 0 -125 28.5t-84 83t-30 132.5q0 64 19 108t51 70t70 37q-53 13 -81 54t-28 131v114h57v-111q0 -91 35 -127t114 -36q52 0 86 15t50.5 51t16.5 101v107h57v-112q0 -90 -30 -131.5t-80 -56.5q38 -10 70 -36t51.5 -70t18.5 -109q-1 -119 -65 -181t-173 -62z
M300 38q86 0 132 50.5t46 143.5q0 94 -44 143t-138 49q-87 0 -132 -49t-45 -142t47 -144t134 -51z" />
    <glyph glyph-name="uni0224" unicode="&#x224;" horiz-adv-x="575" 
d="M442 -183q-16 0 -29.5 3t-21.5 7v49q8 -3 20 -6t26 -3q46 0 46 58v75h-446v43l415 619h-395v52h468v-43l-415 -618h426v-127q0 -109 -94 -109z" />
    <glyph glyph-name="uni0225" unicode="&#x225;" horiz-adv-x="463" 
d="M420 532v-40l-311 -445h318v-121q0 -109 -94 -109q-16 0 -29.5 3t-21.5 7v49q8 -3 20.5 -6t25.5 -3q47 0 47 58v75h-335v38l312 448h-290v46h358z" />
    <glyph glyph-name="uni0226" unicode="&#x226;" horiz-adv-x="608" 
d="M547 0l-95 246h-296l-96 -246h-60l281 717h53l274 -717h-61zM339 556q-6 14 -16 44t-17 53q-8 -27 -17 -53t-15 -45l-99 -256h259zM304 911q39 0 39 -43q0 -44 -39 -44t-39 44q0 43 39 43z" />
    <glyph glyph-name="uni0227" unicode="&#x227;" horiz-adv-x="536" 
d="M276 541q90 0 134 -44t44 -139v-358h-43l-10 90h-3q-29 -45 -70.5 -72.5t-115.5 -27.5q-77 0 -121 38.5t-44 110.5q0 80 65 121.5t189 46.5l97 5v37q0 78 -31.5 111t-92.5 33q-41 0 -79 -11t-76 -29l-18 46q38 18 82.5 30t92.5 12zM308 265q-102 -5 -151.5 -35.5
t-49.5 -90.5q0 -50 30.5 -75.5t84.5 -25.5q83 0 129 47.5t47 131.5v52zM269 729q39 0 39 -43q0 -44 -39 -44t-39 44q0 43 39 43z" />
    <glyph glyph-name="uni0228" unicode="&#x228;" horiz-adv-x="553" 
d="M492 0h-392v714h392v-52h-334v-261h315v-52h-315v-297h334v-52zM384 -142q0 -46 -34.5 -72t-95.5 -26q-34 0 -54 6v39q20 -5 55 -5q37 0 59 13.5t22 43.5q0 28 -25.5 41.5t-71.5 16.5l44 85h41l-29 -59q39 -5 64 -25.5t25 -57.5z" />
    <glyph glyph-name="uni0229" unicode="&#x229;" horiz-adv-x="552" 
d="M290 542q68 0 113.5 -31.5t69 -86.5t23.5 -126v-39h-380q0 -106 49.5 -162.5t141.5 -56.5q49 0 86 8.5t81 27.5v-52q-40 -18 -79 -26t-90 -8q-120 0 -184 73t-64 199q0 81 27.5 144t79.5 99.5t126 36.5zM289 494q-73 0 -118.5 -49t-52.5 -139h319q0 84 -36.5 136
t-111.5 52zM383 -142q0 -46 -34.5 -72t-95.5 -26q-34 0 -54 6v39q20 -5 55 -5q37 0 59 13.5t22 43.5q0 28 -25.5 41.5t-71.5 16.5l44 85h41l-29 -59q39 -5 64 -25.5t25 -57.5z" />
    <glyph glyph-name="uni022A" unicode="&#x22a;" horiz-adv-x="768" 
d="M523 998v-47h-276v47h276zM291 887q35 0 35 -41q0 -40 -35 -40t-35 40q0 19 9 30t26 11zM477 887q36 0 36 -41q0 -40 -36 -40q-35 0 -35 40q0 19 9 30t26 11zM705 358q0 -109 -36 -192t-107.5 -129.5t-177.5 -46.5q-108 0 -179.5 46.5t-107 130t-35.5 192.5t36.5 191
t109 128.5t179.5 46.5q103 0 174 -44.5t107.5 -126.5t36.5 -196zM123 359q0 -95 28 -166.5t86 -111t147 -39.5q90 0 147.5 39t85 110.5t27.5 166.5q0 149 -64.5 232t-192.5 83q-89 0 -148 -39.5t-87.5 -110t-28.5 -164.5z" />
    <glyph glyph-name="uni022B" unicode="&#x22b;" horiz-adv-x="590" 
d="M434 816v-47h-276v47h276zM202 705q35 0 35 -41q0 -40 -35 -40t-35 40q0 19 9 30t26 11zM388 705q36 0 36 -41q0 -40 -36 -40q-35 0 -35 40q0 19 9 30t26 11zM533 267q0 -84 -27.5 -146t-81 -96.5t-130.5 -34.5q-74 0 -127 34t-81.5 96.5t-28.5 146.5q0 129 64 202
t177 73q76 0 128.5 -34.5t79.5 -96.5t27 -144zM116 267q0 -103 43.5 -165.5t135.5 -62.5q93 0 136 63t43 165q0 66 -18 117t-57 80t-102 29q-90 0 -135.5 -60t-45.5 -166z" />
    <glyph glyph-name="uni022C" unicode="&#x22c;" horiz-adv-x="768" 
d="M247 951v47h276v-47h-276zM219 786q5 51 28.5 78.5t64.5 27.5q30 0 54 -15.5t45.5 -31t45.5 -15.5q21 0 35 14t20 48h38q-5 -50 -29.5 -78t-64.5 -28q-23 0 -41.5 9t-35 21t-33 21.5t-35.5 9.5q-21 0 -35 -14t-19 -47h-38zM705 358q0 -109 -36 -192t-107.5 -129.5
t-177.5 -46.5q-108 0 -179.5 46.5t-107 130t-35.5 192.5t36.5 191t109 128.5t179.5 46.5q103 0 174 -44.5t107.5 -126.5t36.5 -196zM123 359q0 -95 28 -166.5t86 -111t147 -39.5q90 0 147.5 39t85 110.5t27.5 166.5q0 149 -64.5 232t-192.5 83q-89 0 -148 -39.5t-87.5 -110
t-28.5 -164.5z" />
    <glyph glyph-name="uni022D" unicode="&#x22d;" horiz-adv-x="590" 
d="M158 769v47h276v-47h-276zM130 604q5 51 28.5 78.5t64.5 27.5q30 0 54 -15.5t45.5 -31t45.5 -15.5q21 0 35 14t20 48h38q-5 -50 -29.5 -78t-64.5 -28q-23 0 -41.5 9t-35 21t-33 21.5t-35.5 9.5q-21 0 -35 -14t-19 -47h-38zM533 267q0 -84 -27.5 -146t-81 -96.5
t-130.5 -34.5q-74 0 -127 34t-81.5 96.5t-28.5 146.5q0 129 64 202t177 73q76 0 128.5 -34.5t79.5 -96.5t27 -144zM116 267q0 -103 43.5 -165.5t135.5 -62.5q93 0 136 63t43 165q0 66 -18 117t-57 80t-102 29q-90 0 -135.5 -60t-45.5 -166z" />
    <glyph glyph-name="uni022E" unicode="&#x22e;" horiz-adv-x="768" 
d="M705 358q0 -109 -36 -192t-107.5 -129.5t-177.5 -46.5q-108 0 -179.5 46.5t-107 130t-35.5 192.5t36.5 191t109 128.5t179.5 46.5q103 0 174 -44.5t107.5 -126.5t36.5 -196zM123 359q0 -95 28 -166.5t86 -111t147 -39.5q90 0 147.5 39t85 110.5t27.5 166.5
q0 149 -64.5 232t-192.5 83q-89 0 -148 -39.5t-87.5 -110t-28.5 -164.5zM385 911q39 0 39 -43q0 -44 -39 -44t-39 44q0 43 39 43z" />
    <glyph glyph-name="uni022F" unicode="&#x22f;" horiz-adv-x="590" 
d="M533 267q0 -84 -27.5 -146t-81 -96.5t-130.5 -34.5q-74 0 -127 34t-81.5 96.5t-28.5 146.5q0 129 64 202t177 73q76 0 128.5 -34.5t79.5 -96.5t27 -144zM116 267q0 -103 43.5 -165.5t135.5 -62.5q93 0 136 63t43 165q0 66 -18 117t-57 80t-102 29q-90 0 -135.5 -60
t-45.5 -166zM296 729q39 0 39 -43q0 -44 -39 -44t-39 44q0 43 39 43z" />
    <glyph glyph-name="uni0230" unicode="&#x230;" horiz-adv-x="768" 
d="M523 977v-48h-276v48h276zM385 868q39 0 39 -43q0 -44 -39 -44t-39 44q0 43 39 43zM705 358q0 -109 -36 -192t-107.5 -129.5t-177.5 -46.5q-108 0 -179.5 46.5t-107 130t-35.5 192.5t36.5 191t109 128.5t179.5 46.5q103 0 174 -44.5t107.5 -126.5t36.5 -196zM123 359
q0 -95 28 -166.5t86 -111t147 -39.5q90 0 147.5 39t85 110.5t27.5 166.5q0 149 -64.5 232t-192.5 83q-89 0 -148 -39.5t-87.5 -110t-28.5 -164.5z" />
    <glyph glyph-name="uni0231" unicode="&#x231;" horiz-adv-x="590" 
d="M434 817v-48h-276v48h276zM295 708q39 0 39 -43q0 -44 -39 -44t-39 44q0 43 39 43zM533 267q0 -84 -27.5 -146t-81 -96.5t-130.5 -34.5q-74 0 -127 34t-81.5 96.5t-28.5 146.5q0 129 64 202t177 73q76 0 128.5 -34.5t79.5 -96.5t27 -144zM116 267q0 -103 43.5 -165.5
t135.5 -62.5q93 0 136 63t43 165q0 66 -18 117t-57 80t-102 29q-90 0 -135.5 -60t-45.5 -166z" />
    <glyph glyph-name="uni0232" unicode="&#x232;" horiz-adv-x="536" 
d="M268 332l204 382h64l-238 -438v-276h-58v272l-240 442h64zM406 840v-48h-276v48h276z" />
    <glyph glyph-name="uni0233" unicode="&#x233;" horiz-adv-x="469" 
d="M1 532h60l127 -330q16 -45 28 -79.5t19 -61.5h3q15 50 47 139l124 332h61l-240 -626q-27 -71 -64 -109t-100 -38q-19 0 -34.5 2t-28.5 7v48q12 -4 26 -6.5t30 -2.5q42 0 68.5 26t47.5 80l34 89zM373 658v-48h-276v48h276z" />
    <glyph glyph-name="uni0234" unicode="&#x234;" horiz-adv-x="361" 
d="M16 -7q14 42 33 79.5t41 63.5q-1 14 -1.5 32t-0.5 34v558h57v-577q16 9 37 17t48 8q57 0 87.5 -29.5t30.5 -76.5q0 -50 -34 -81t-87 -31q-48 0 -78 22t-45 60q-12 -18 -23 -44t-19 -52zM226 37q32 0 50 18t18 45q0 29 -18 45t-50 16q-46 0 -79 -35q2 -38 21.5 -63.5
t57.5 -25.5z" />
    <glyph glyph-name="uni0235" unicode="&#x235;" horiz-adv-x="730" 
d="M385 -7q14 42 32.5 79.5t40.5 63.5q-1 28 -1 61v147q0 76 -35 112.5t-102 36.5q-175 0 -175 -203v-290h-57v532h46l8 -92h4q21 44 67 73t113 29q91 0 139 -47t48 -147v-165q16 9 37 17t48 8q56 0 87 -31t31 -77q0 -52 -34 -81t-87 -29q-47 0 -77.5 22t-45.5 59
q-12 -17 -22.5 -43t-18.5 -52zM594 37q33 0 50.5 18t17.5 45q0 29 -18 45t-50 16q-46 0 -79 -35q2 -38 21.5 -63.5t57.5 -25.5z" />
    <glyph glyph-name="uni0236" unicode="&#x236;" horiz-adv-x="365" 
d="M20 -7q14 42 32.5 79.5t40.5 63.5q-1 32 -1 68v282h-79v32l79 19l20 122h37v-127h163v-46h-163v-303q15 9 36.5 17t48.5 8q55 0 86 -31t31 -77q0 -52 -34 -81t-87 -29q-47 0 -77.5 22t-45.5 59q-12 -17 -22.5 -43t-18.5 -52zM230 37q33 0 50.5 18t17.5 45q0 29 -18.5 45
t-49.5 16q-47 0 -80 -35q3 -38 22 -63.5t58 -25.5z" />
    <glyph glyph-name="uni0237" unicode="&#x237;" horiz-adv-x="233" 
d="M17 -240q-23 0 -40 3t-29 8v49q28 -11 63 -11q36 0 56.5 22t20.5 70v631h57v-632q0 -68 -34 -104t-94 -36z" />
    <glyph glyph-name="uni0238" unicode="&#x238;" horiz-adv-x="967" 
d="M286 -10q-116 0 -172.5 74.5t-56.5 200.5q0 135 58.5 206.5t163.5 71.5q71 0 113.5 -31.5t62.5 -74.5h4q-1 18 -2.5 50t-1.5 62v211h57v-210q0 -29 -1 -61.5t-2 -52.5h3q19 43 62 74.5t114 31.5q105 0 163.5 -70.5t58.5 -206.5q0 -126 -57 -200.5t-172 -74.5
q-152 0 -198 144q-23 -72 -73.5 -108t-123.5 -36zM287 39q85 0 127 59.5t42 168.5q0 111 -39.5 169t-131.5 58q-85 0 -127 -60.5t-42 -169.5q0 -108 42 -166.5t129 -58.5zM681 39q86 0 128 58.5t42 168.5q0 227 -170 227q-90 0 -129.5 -57t-39.5 -169q0 -228 169 -228z" />
    <glyph glyph-name="uni0239" unicode="&#x239;" horiz-adv-x="967" 
d="M682 543q115 0 171.5 -74.5t56.5 -200.5q0 -136 -58.5 -207t-163.5 -71q-70 0 -113 31.5t-63 74.5h-4q1 -18 2.5 -50.5t1.5 -61.5v-219h-57v218q0 28 1 61t3 53h-4q-19 -44 -62 -75t-114 -31q-105 0 -163.5 70.5t-58.5 206.5q0 126 57 200.5t173 74.5q151 0 197 -144
q23 72 73.5 108t124.5 36zM286 494q-86 0 -128 -58.5t-42 -168.5q0 -227 171 -227q90 0 129 56.5t39 169.5q0 228 -169 228zM680 494q-85 0 -126.5 -60t-41.5 -168q0 -111 39 -169t131 -58q85 0 127 60.5t42 169.5q0 108 -42 166.5t-129 58.5z" />
    <glyph glyph-name="uni023A" unicode="&#x23a;" horiz-adv-x="608" 
d="M547 0l-95 246h-140l-111 -321h-47l111 321h-109l-96 -246h-60l281 717h53l49 -131l61 174h47l-83 -238l200 -522h-61zM339 556q-6 14 -16 44t-17 53q-8 -27 -17 -53t-15 -45l-99 -256h109l72 208zM434 299l-54 144l-50 -144h104z" />
    <glyph glyph-name="uni023B" unicode="&#x23b;" horiz-adv-x="623" 
d="M546 760l-18 -52q34 -9 64 -23l-23 -51q-29 14 -59 23l-209 -602q42 -13 93 -13q52 0 95.5 8t82.5 21v-51q-37 -14 -81 -22t-103 -8q-57 0 -105 13l-27 -78h-47l32 93q-89 40 -134 128.5t-45 212.5q0 106 40.5 188.5t117 129.5t185.5 47q41 0 79 -6l15 42h47zM404 672
q-88 0 -151 -39.5t-96.5 -110t-33.5 -163.5q0 -103 34.5 -177t102.5 -110l207 595q-31 5 -63 5z" />
    <glyph glyph-name="uni023C" unicode="&#x23c;" horiz-adv-x="476" 
d="M301 -10q-49 0 -90 13l-63 -181h-47l70 199q-114 65 -114 242q0 90 32 152t89.5 94.5t133.5 32.5q21 0 42 -2l65 184h46l-68 -192q26 -7 48 -16l-16 -49q-23 9 -49 15l-151 -430q32 -11 72 -11q39 0 74 8t63 20v-51q-26 -13 -59.5 -20.5t-77.5 -7.5zM116 264
q0 -64 18 -113t56 -77l146 416q-13 1 -24 1q-95 0 -145.5 -61t-50.5 -166z" />
    <glyph glyph-name="uni023D" unicode="&#x23d;" horiz-adv-x="515" 
d="M100 0v331h-91v48h91v335h58v-335h184v-48h-184v-278h335v-53h-393z" />
    <glyph glyph-name="uni023E" unicode="&#x23e;" horiz-adv-x="531" 
d="M294 0h-58v229l-152 -304h-49l201 402v335h-230v52h424l23 46h49l-23 -46h45v-52h-71l-159 -318v-344zM294 662v-220l110 220h-110z" />
    <glyph glyph-name="uni023F" unicode="&#x23f;" horiz-adv-x="469" 
d="M346 -240q-49 0 -79 16.5t-47 49.5t-29 84q-10 40 -28 61.5t-53 30.5q-37 9 -64 23v54q35 -18 80 -29.5t92 -11.5q78 0 113.5 26.5t35.5 72.5q0 44 -37 67.5t-109 48.5q-50 17 -87.5 34.5t-58.5 44.5t-21 74q0 64 52 100t139 36q48 0 89.5 -9t76.5 -24l-21 -47
q-31 13 -70 22.5t-78 9.5q-63 0 -98 -22t-35 -64q0 -32 17 -50.5t49 -31.5t78 -29q48 -17 86 -35t61 -46t23 -75q0 -77 -57.5 -114t-155.5 -36q13 -14 21 -33t14 -42q15 -57 36 -82t72 -25q20 0 40 4t33 10v-49q-12 -5 -33 -9.5t-47 -4.5z" />
    <glyph glyph-name="uni0240" unicode="&#x240;" horiz-adv-x="463" 
d="M371 -240q-55 0 -89 17t-54.5 50.5t-36.5 82.5q-16 50 -45.5 70t-84.5 20h-21v38l312 448h-290v46h358v-40l-313 -448q54 -6 86.5 -36t52.5 -92q18 -57 45.5 -82t84.5 -25q23 0 41.5 3.5t32.5 9.5v-49q-13 -5 -32 -9t-47 -4z" />
    <glyph glyph-name="Glottalstopcased" unicode="&#x241;" horiz-adv-x="423" 
d="M185 724q97 0 152.5 -51.5t55.5 -141.5q0 -64 -25.5 -111.5t-70 -82t-100.5 -60.5v-277h-58v311q54 19 97.5 47t69.5 69.5t26 100.5q0 68 -38.5 106t-110.5 38q-44 0 -85.5 -13.5t-70.5 -31.5l-21 48q34 21 79 35t100 14z" />
    <glyph glyph-name="glottalstopcased" unicode="&#x242;" horiz-adv-x="414" 
d="M185 541q97 0 149.5 -51t52.5 -138q0 -86 -53.5 -146.5t-137.5 -97.5v-108h-57v139q54 18 96.5 46t67.5 68.5t25 96.5q0 68 -37.5 105t-107.5 37q-44 0 -83 -13t-68 -31l-21 44q34 21 76.5 35t97.5 14z" />
    <glyph glyph-name="uni0243" unicode="&#x243;" horiz-adv-x="632" 
d="M100 0v179h-84v51h84v484h198q132 0 195 -41.5t63 -132.5q0 -62 -35.5 -106t-103.5 -56v-3q78 -13 119 -55t41 -117q0 -69 -32 -114t-88.5 -67t-130.5 -22h-226zM311 399q99 0 142 34t43 101q0 69 -47 99t-151 30h-140v-264h153zM321 51q98 0 146 39.5t48 115.5
q0 74 -50 108.5t-153 34.5h-154v-119h151v-51h-151v-128h163z" />
    <glyph glyph-name="uni0244" unicode="&#x244;" horiz-adv-x="722" 
d="M12 370v52h81v292h58v-292h421v292h57v-292h81v-52h-81v-118q0 -122 -70.5 -192t-199.5 -70t-197.5 70t-68.5 194v116h-81zM151 254q0 -104 54 -158t157 -54q101 0 155.5 54.5t54.5 151.5v122h-421v-116z" />
    <glyph glyph-name="uni0245" unicode="&#x245;" horiz-adv-x="583" 
d="M0 0l268 717h53l262 -717h-61l-197 556q-5 14 -14.5 44t-17.5 53q-7 -27 -15.5 -53.5t-15.5 -45.5l-202 -554h-60z" />
    <glyph glyph-name="uni0246" unicode="&#x246;" horiz-adv-x="553" 
d="M492 0h-257l-23 -75h-45l22 75h-89v714h304l14 46h45l-14 -46h43v-52h-58l-79 -261h118v-52h-134l-89 -297h242v-52zM158 401h151l79 261h-230v-261zM158 52h47l89 297h-136v-297z" />
    <glyph glyph-name="uni0247" unicode="&#x247;" horiz-adv-x="552" 
d="M290 542q29 0 56 -7l63 183h47l-69 -198q54 -28 81.5 -86.5t27.5 -135.5v-39h-200l-71 -205q36 -14 82 -14q49 0 86 8.5t81 27.5v-52q-40 -18 -79 -26t-90 -8q-53 0 -97 15l-65 -188h-46l71 207q-54 33 -82.5 93.5t-28.5 144.5q0 81 27.5 144t79.5 99.5t126 36.5z
M289 494q-73 0 -118.5 -49t-52.5 -139h148l64 183q-19 5 -41 5zM437 306q0 57 -16.5 99.5t-50.5 65.5l-57 -165h124zM116 259q0 -128 71 -182l63 182h-134z" />
    <glyph glyph-name="uni0248" unicode="&#x248;" horiz-adv-x="252" 
d="M-12 -182q-25 0 -43.5 3.5t-31.5 9.5v51q15 -5 33.5 -8t39.5 -3q55 0 84 30.5t29 95.5v326h-89v52h89v339h58v-339h89v-52h-89v-321q0 -184 -169 -184z" />
    <glyph glyph-name="uni0249" unicode="&#x249;" horiz-adv-x="233" 
d="M91 670q-8 15 -3 26t16 18q10 6 20.5 4t17.5 -17q9 -14 3.5 -25.5t-15.5 -17.5q-23 -14 -39 12zM17 -240q-23 0 -40 3t-29 8v49q28 -11 63 -11q36 0 56.5 22t20.5 70v349h-79v48h79v234h57v-234h81v-48h-81v-350q0 -68 -34 -104t-94 -36z" />
    <glyph glyph-name="uni024A" unicode="&#x24a;" horiz-adv-x="750" 
d="M367 723q88 0 149 -39.5t85 -98.5h4l8 129h47v-812q0 -50 18 -70.5t54 -20.5q14 0 26 2.5t23 7.5v-51q-11 -5 -24.5 -8t-31.5 -3q-60 0 -91.5 33.5t-31.5 103.5v142q0 21 1 46.5t2 46.5h-3q-26 -61 -85.5 -101t-153.5 -40q-99 0 -166 46.5t-100.5 130t-33.5 192.5t34 191
t102 127.5t168 45.5zM366 672q-81 0 -135 -39.5t-80.5 -110t-26.5 -164.5q0 -95 26 -166t80 -110.5t136 -39.5q118 0 177 64t59 185v135q0 121 -59.5 183.5t-176.5 62.5z" />
    <glyph glyph-name="uni024B" unicode="&#x24b;" horiz-adv-x="599" 
d="M281 542q67 0 109 -29t63 -69h3l9 88h46v-627q0 -55 15.5 -76.5t48.5 -21.5q17 0 29.5 3t22.5 8v-46q-10 -6 -26 -9.5t-37 -3.5q-49 0 -79.5 32t-30.5 110v95q0 21 0.5 50.5t2.5 50.5h-4q-20 -46 -66 -76.5t-116 -30.5q-101 0 -158 69.5t-57 205.5q0 126 57.5 201.5
t167.5 75.5zM287 493q-86 0 -129 -61t-43 -168q0 -110 40.5 -167.5t124.5 -57.5q91 0 132 56t42 162v14q0 109 -39.5 165.5t-127.5 56.5z" />
    <glyph glyph-name="uni024C" unicode="&#x24c;" horiz-adv-x="600" 
d="M278 714q128 0 192.5 -44.5t64.5 -151.5q0 -82 -43.5 -128.5t-108.5 -65.5l196 -324h-69l-182 308h-170v-308h-58v308h-90v50h90v356h178zM273 663h-115v-305h135q87 0 134.5 40.5t47.5 117.5q0 82 -50 114.5t-152 32.5z" />
    <glyph glyph-name="uni024D" unicode="&#x24d;" horiz-adv-x="394" 
d="M280 304v-48h-135v-256h-57v256h-75v48h75v228h48l6 -99h3q20 45 61 76.5t101 31.5q39 0 72 -8l-9 -53q-32 9 -66 9q-71 0 -113.5 -50.5t-45.5 -134.5h135z" />
    <glyph glyph-name="uni024E" unicode="&#x24e;" horiz-adv-x="536" 
d="M524 584v-52h-87l-139 -256v-276h-58v272l-141 260h-89v52h61l-71 130h64l70 -130h268l70 130h64l-71 -130h59zM268 332l107 200h-214z" />
    <glyph glyph-name="uni024F" unicode="&#x24f;" horiz-adv-x="469" 
d="M1 532h60l70 -182h210l68 182h61l-70 -182h63v-48h-81l-152 -396q-27 -71 -64 -109t-100 -38q-19 0 -34.5 2t-28.5 7v48q12 -4 26 -6.5t30 -2.5q42 0 68.5 26t47.5 80l34 89l-118 300h-86v48h67zM235 61h3q15 50 47 139l38 102h-174l39 -100q16 -45 28 -79.5t19 -61.5z
" />
    <glyph glyph-name="uni0250" unicode="&#x250;" horiz-adv-x="536" 
d="M260 -9q-90 0 -134 44t-44 140v357h43l11 -89h3q28 45 69.5 72t116.5 27q76 0 120 -38.5t44 -110.5q0 -79 -64.5 -121t-189.5 -47l-97 -4v-38q0 -78 31.5 -111t93.5 -33q40 0 78 11t76 30l18 -46q-37 -19 -82 -31t-93 -12zM229 268q101 4 151 34.5t50 91.5q0 49 -31 74.5
t-84 25.5q-84 0 -130 -47.5t-46 -131.5v-51z" />
    <glyph glyph-name="uni0251" unicode="&#x251;" horiz-adv-x="599" 
d="M275 -10q-103 0 -160.5 69.5t-57.5 203.5q0 137 59 208t163 71q69 0 112 -30t63 -73h3l8 93h47v-413q0 -46 12 -63t34 -17q18 0 34 5v-44q-8 -4 -21 -7t-26 -3q-42 0 -62 23.5t-26 81.5h-3q-21 -44 -64 -74.5t-115 -30.5zM282 39q93 0 133 56t40 162v9q0 110 -39.5 168.5
t-130.5 58.5q-83 0 -126 -59.5t-43 -171.5q0 -108 41.5 -165.5t124.5 -57.5z" />
    <glyph glyph-name="uni0252" unicode="&#x252;" horiz-adv-x="599" 
d="M325 542q102 0 159.5 -69.5t57.5 -202.5q0 -138 -59 -209t-163 -71q-69 0 -112 30t-63 74h-3l-8 -94h-47v414q0 45 -12 62.5t-34 17.5q-18 0 -33 -6v44q7 4 20 7t27 3q41 0 61 -23.5t26 -80.5h3q21 43 64 73.5t116 30.5zM318 493q-94 0 -134 -56t-40 -161v-10
q0 -110 39.5 -168.5t130.5 -58.5q83 0 126 59.5t43 172.5q0 107 -41.5 164.5t-123.5 57.5z" />
    <glyph glyph-name="uni0253" unicode="&#x253;" horiz-adv-x="599" 
d="M217 765q17 0 32 -3t27 -6v-49q-9 3 -22.5 5.5t-29.5 2.5q-39 0 -59.5 -22.5t-20.5 -70.5v-78q0 -29 -1 -58.5t-2 -49.5h3q20 45 66 75.5t115 30.5q102 0 159.5 -69.5t57.5 -205.5q0 -126 -57.5 -201.5t-167.5 -75.5q-67 0 -109.5 27.5t-62.5 68.5h-4l-11 -86h-43v620
q0 70 33 107.5t97 37.5zM318 493q-93 0 -133.5 -58t-40.5 -168q0 -114 38.5 -171t128.5 -57q85 0 128.5 59.5t43.5 169.5q0 225 -165 225z" />
    <glyph glyph-name="uni0254" unicode="&#x254;" horiz-adv-x="477" 
d="M183 542q114 0 175.5 -67.5t61.5 -199.5t-65.5 -208.5t-184.5 -76.5q-43 0 -76.5 7.5t-58.5 19.5v52q28 -12 62.5 -20t73.5 -8q67 0 108.5 29.5t61.5 82t20 120.5q0 105 -45 162t-139 57q-29 0 -65 -7.5t-63 -19.5l-16 49q26 12 67.5 20t82.5 8z" />
    <glyph glyph-name="uni0255" unicode="&#x255;" horiz-adv-x="513" 
d="M316 542q38 0 72 -7t60 -19l-16 -49q-27 11 -58 17.5t-59 6.5q-94 0 -144.5 -61t-50.5 -166q0 -36 5.5 -67.5t19.5 -57.5q34 40 81.5 64.5t104.5 24.5q65 0 103 -31t38 -81q0 -61 -47.5 -93.5t-116.5 -32.5q-105 0 -168 57q-11 -19 -20 -42t-16 -48l-46 18q17 60 47 112
q-44 68 -44 176q0 90 31.5 152t89.5 94.5t134 32.5zM327 179q-94 0 -157 -84q23 -27 57.5 -41.5t79.5 -14.5q53 0 81.5 21.5t28.5 53.5q0 27 -22 46t-68 19z" />
    <glyph glyph-name="uni0256" unicode="&#x256;" horiz-adv-x="599" 
d="M581 -238q-56 0 -91.5 34.5t-35.5 118.5v82q0 19 1.5 49.5t2.5 49.5h-4q-21 -43 -65 -74.5t-116 -31.5q-102 0 -159.5 69t-57.5 204q0 136 59.5 207.5t162.5 71.5q71 0 113 -30t63 -72h4q-1 23 -2.5 52t-1.5 53v215h57v-841q0 -63 21 -86t59 -23q19 0 34 3.5t24 7.5v-46
q-10 -6 -28 -9.5t-40 -3.5zM280 39q90 0 132 56t42 162v9q0 114 -41.5 170.5t-128.5 56.5q-82 0 -125.5 -60t-43.5 -171q0 -223 165 -223z" />
    <glyph glyph-name="uni0257" unicode="&#x257;" horiz-adv-x="599" 
d="M279 -10q-107 0 -164.5 68.5t-57.5 202.5q0 137 60 209t167 72q67 0 108.5 -29.5t62.5 -71.5h4q-1 23 -2.5 51.5t-1.5 52.5v90q0 64 30.5 97t82.5 33q19 0 35.5 -3.5t28.5 -8.5v-49q-24 10 -57 10q-63 0 -63 -78v-636h-46l-8 93h-3q-21 -43 -63 -73t-113 -30zM286 39
q92 0 131 56t39 162v9q0 110 -38.5 168.5t-127.5 58.5q-86 0 -130 -60.5t-44 -172.5q0 -108 42 -164.5t128 -56.5z" />
    <glyph glyph-name="uni0258" unicode="&#x258;" horiz-adv-x="552" 
d="M263 542q74 0 125.5 -36.5t79 -99.5t27.5 -144q0 -126 -64 -199t-183 -73q-52 0 -91 8t-79 26v52q44 -19 81 -27.5t87 -8.5q91 0 140.5 56.5t49.5 162.5h-380v39q0 71 23.5 126t69.5 86.5t114 31.5zM263 494q-75 0 -111 -52t-36 -136h319q-8 90 -53 139t-119 49z" />
    <glyph glyph-name="uni0259" unicode="&#x259;" horiz-adv-x="552" 
d="M248 542q119 0 183 -73t64 -198q0 -82 -27.5 -145t-79 -99.5t-125.5 -36.5q-68 0 -114 31.5t-69.5 86.5t-23.5 127v39h380q0 105 -49.5 161.5t-140.5 56.5q-50 0 -87 -8t-81 -28v52q40 18 79 26t91 8zM116 226q0 -84 36 -135.5t111 -51.5q74 0 119 48.5t53 138.5h-319z
" />
    <glyph glyph-name="uni025A" unicode="&#x25a;" horiz-adv-x="763" 
d="M261 -10q-102 0 -154 64t-52 175l376 99q-7 46 -29 83.5t-61 59t-97 21.5q-47 0 -87 -9.5t-79 -25.5v52q39 15 79 24t90 9q101 0 162 -53.5t78 -145.5l99 27l14 -53q14 -49 30.5 -68.5t45.5 -19.5q20 0 38 5.5t34 13.5l15 -46q-21 -11 -45 -18.5t-49 -7.5q-51 0 -79 34.5
t-45 99.5l-52 -14q0 -91 -23 -160t-74 -107.5t-135 -38.5zM262 39q66 0 103.5 31.5t53.5 86t16 123.5l-320 -83q2 -42 17 -78t46.5 -58t83.5 -22z" />
    <glyph glyph-name="uni025B" unicode="&#x25b;" horiz-adv-x="459" 
d="M336 305v-49h-67q-81 0 -123.5 -27t-42.5 -84q0 -51 40 -78.5t113 -27.5q50 0 90.5 10.5t75.5 25.5v-51q-28 -14 -70.5 -24t-98.5 -10q-106 0 -157 43t-51 109q0 57 32 90t86 47v4q-99 29 -99 120q0 47 25.5 78t69 46t96.5 15t91.5 -9t76.5 -25l-21 -47q-32 14 -68 23
t-79 9q-136 0 -136 -94q0 -48 41.5 -71t120.5 -23h55z" />
    <glyph glyph-name="uni025C" unicode="&#x25c;" horiz-adv-x="460" 
d="M213 542q84 0 131.5 -36t47.5 -101q0 -47 -25.5 -77t-69.5 -42v-3q54 -13 84 -46.5t30 -87.5q0 -72 -55 -115.5t-154 -43.5q-54 0 -98 10t-72 25v55q35 -19 78 -30t92 -11q65 0 108.5 27.5t43.5 85.5q0 55 -40 79.5t-117 24.5h-72v49h65q66 0 106 22.5t40 73.5
q0 45 -32.5 68.5t-92.5 23.5q-44 0 -78 -9.5t-71 -26.5l-20 47q38 18 80 28t91 10z" />
    <glyph glyph-name="uni025D" unicode="&#x25d;" horiz-adv-x="648" 
d="M213 542q66 0 110 -22.5t60 -64.5l88 24l14 -52q14 -49 30.5 -69t45.5 -20q20 0 38 5.5t34 14.5l15 -46q-21 -11 -45 -18.5t-49 -7.5q-51 0 -79 34.5t-45 98.5l-39 -10l1 -4q0 -47 -25.5 -77t-69.5 -42v-3q54 -13 84 -46.5t30 -87.5q0 -72 -55 -115.5t-154 -43.5
q-54 0 -98 10t-72 25v55q35 -19 78 -30t92 -11q65 0 108.5 27.5t43.5 85.5q0 55 -40 79.5t-117 24.5h-72v49h65q66 0 106 22.5t40 73.5q0 45 -32.5 68.5t-92.5 23.5q-44 0 -78 -9.5t-71 -26.5l-20 47q38 18 80 28t91 10z" />
    <glyph glyph-name="uni025E" unicode="&#x25e;" horiz-adv-x="562" 
d="M314 542q87 0 135.5 -38t48.5 -102q0 -48 -26 -77.5t-74 -41.5v-3q52 -11 85 -41t33 -88q0 -68 -53.5 -114.5t-162.5 -46.5q-124 0 -183.5 73.5t-59.5 199.5q0 128 65 203.5t192 75.5zM313 493q-102 0 -149.5 -61.5t-47.5 -168.5q0 -110 46.5 -167t143.5 -57
q74 0 113.5 31t39.5 83q0 55 -43 78t-124 23h-41v49h31q78 0 119.5 21.5t41.5 73.5q0 42 -32 68.5t-98 26.5z" />
    <glyph glyph-name="uni025F" unicode="&#x25f;" horiz-adv-x="233" 
d="M17 -240q-23 0 -40 3t-29 8v49q28 -11 63 -11q36 0 56.5 22t20.5 70v349h-79v48h79v234h57v-234h81v-48h-81v-350q0 -68 -34 -104t-94 -36z" />
    <glyph glyph-name="uni0260" unicode="&#x260;" horiz-adv-x="599" 
d="M568 765q18 0 34.5 -3.5t28.5 -8.5v-49q-24 10 -57 10q-63 0 -63 -78v-653q0 -105 -54 -164t-176 -59q-60 0 -106 9.5t-83 26.5v55q37 -19 86 -30.5t106 -11.5q87 0 128.5 46t41.5 125v31q0 21 1 44.5t2 38.5h-3q-46 -104 -178 -104q-104 0 -161.5 70t-57.5 202
q0 129 58 204.5t167 75.5q63 0 104.5 -25t67.5 -67h4q-2 19 -3 42t-1 46v97q0 64 30.5 97t83.5 33zM288 493q-86 0 -129 -61t-43 -171q0 -108 42.5 -165t123.5 -57q66 0 103.5 26.5t53.5 73.5t16 107v35q0 101 -38 156.5t-129 55.5z" />
    <glyph glyph-name="uni0261" unicode="&#x261;" horiz-adv-x="599" 
d="M283 542q62 0 103.5 -24.5t66.5 -66.5h4l8 81h46v-549q0 -105 -54 -164t-175 -59q-60 0 -106.5 9.5t-83.5 26.5v55q37 -19 86 -30.5t106 -11.5q87 0 129 46t42 125v31q0 21 0.5 42.5t1.5 40.5h-3q-46 -104 -178 -104q-103 0 -161 70t-58 202q0 129 58 204.5t168 75.5z
M289 493q-87 0 -130 -61t-43 -171q0 -108 43 -165t124 -57q66 0 103.5 26.5t53 73.5t15.5 107v35q0 101 -37.5 156.5t-128.5 55.5z" />
    <glyph glyph-name="uni0262" unicode="&#x262;" horiz-adv-x="574" 
d="M330 543q50 0 91 -9.5t73 -25.5l-21 -51q-32 16 -68 25.5t-74 9.5q-103 0 -161 -60.5t-58 -165.5q0 -106 52 -165t151 -59q39 0 70 5.5t58 14.5v169h-141v48h198v-251q-44 -17 -88.5 -27t-99.5 -10q-117 0 -188 70.5t-71 203.5q0 88 35 150t97.5 95t144.5 33z" />
    <glyph glyph-name="uni0263" unicode="&#x263;" horiz-adv-x="469" 
d="M237 -239q-47 0 -75 31.5t-28 81.5q0 49 21 98.5t50 104.5l-205 455h62l122 -277q14 -33 29.5 -69.5t23.5 -61.5h3q7 24 22.5 60.5t30.5 70.5l121 277h62l-205 -454q30 -60 49.5 -108t19.5 -96q0 -49 -28 -81t-75 -32zM238 -190q22 0 36 16t14 50q0 33 -14.5 72.5
t-35.5 80.5q-22 -41 -36.5 -81t-14.5 -72q0 -34 14 -50t37 -16z" />
    <glyph glyph-name="uni0264" unicode="&#x264;" horiz-adv-x="507" 
d="M466 541q15 0 25.5 -2.5t18.5 -6.5v-48q-6 3 -16.5 6t-21.5 3q-21 0 -36.5 -14t-36.5 -46l-113 -173q31 -46 48.5 -83t17.5 -81q0 -48 -27 -76.5t-73 -28.5q-47 0 -73 28t-26 76q0 45 18.5 82.5t50.5 82.5l-117 177q-19 29 -34 42t-36 14q-14 0 -23.5 -3.5t-14.5 -6.5v47
q8 4 20 7.5t28 3.5q32 0 53.5 -16.5t48.5 -56.5l66 -103q12 -20 22 -36t18 -31h2q8 14 18 31t23 36l67 104q24 38 46.5 55t56.5 17zM254 219q-23 -32 -36 -60.5t-13 -59.5t13.5 -45t33.5 -14q19 0 33.5 14t14.5 45q0 32 -13.5 60.5t-32.5 59.5z" />
    <glyph glyph-name="uni0265" unicode="&#x265;" horiz-adv-x="596" 
d="M451 16q0 21 1 39.5t3 37.5h-4q-21 -45 -67 -73.5t-113 -28.5q-92 0 -140 46.5t-48 147.5v347h56v-344q0 -76 35 -112t102 -36q175 0 175 203v289h57v-760h-57v244z" />
    <glyph glyph-name="uni0266" unicode="&#x266;" horiz-adv-x="596" 
d="M88 635q0 64 30.5 97t82.5 33q19 0 35.5 -3.5t27.5 -8.5v-49q-23 10 -56 10q-63 0 -63 -78v-119q0 -21 -1 -40t-3 -37h4q21 44 66.5 73t113.5 29q92 0 140 -47t48 -147v-348h-56v344q0 76 -35 112.5t-102 36.5q-175 0 -175 -203v-290h-57v635z" />
    <glyph glyph-name="uni0267" unicode="&#x267;" horiz-adv-x="604" 
d="M201 765q19 0 35.5 -3.5t27.5 -8.5v-49q-23 10 -56 10q-63 0 -63 -78v-119q0 -21 -1 -40t-3 -37h4q21 44 66.5 73t113.5 29q92 0 140 -47t48 -147v-458q0 -65 -30.5 -97.5t-82.5 -32.5q-19 0 -35.5 3.5t-27.5 8.5v49q23 -10 57 -10q63 0 63 78v455q0 76 -35 112.5
t-102 36.5q-175 0 -175 -203v-290h-57v635q0 64 30.5 97t82.5 33z" />
    <glyph glyph-name="uni0268" unicode="&#x268;" horiz-adv-x="233" 
d="M117 729q39 0 39 -43q0 -44 -39 -44t-39 44q0 43 39 43zM223 307v-48h-78v-259h-57v259h-78v48h78v225h57v-225h78z" />
    <glyph glyph-name="uni0269" unicode="&#x269;" horiz-adv-x="303" 
d="M209 -10q-61 0 -94.5 36t-33.5 104v402h57v-401q0 -48 20.5 -70t56.5 -22q35 0 63 11v-49q-13 -5 -30 -8t-39 -3z" />
    <glyph glyph-name="iotaserifed" unicode="&#x26a;" horiz-adv-x="307" 
d="M257 532v-36l-75 -11v-438l75 -11v-36h-207v36l75 11v438l-75 11v36h207z" />
    <glyph glyph-name="uni026B" unicode="&#x26b;" horiz-adv-x="293" 
d="M118 380q-12 7 -23.5 13.5t-24.5 6.5q-23 0 -38 -14.5t-21 -51.5h-38q5 54 31 83.5t69 29.5q13 0 24 -4.5t21 -10.5v328h57v-360q11 -8 22.5 -13.5t24.5 -5.5q23 0 38.5 14.5t21.5 51.5h38q-5 -54 -31.5 -83.5t-68.5 -29.5q-14 0 -24.5 3.5t-20.5 9.5v-347h-57v380z" />
    <glyph glyph-name="uni026C" unicode="&#x26c;" horiz-adv-x="305" 
d="M143 0v308h-51q-51 0 -77.5 24t-26.5 67q0 35 22.5 61t70.5 26q40 0 62 -30v304h57v-404h95v-48h-95v-308h-57zM98 356h45v9q-1 29 -13.5 51t-43.5 22q-24 0 -34.5 -11.5t-10.5 -27.5q0 -22 15.5 -32.5t41.5 -10.5z" />
    <glyph glyph-name="uni026D" unicode="&#x26d;" horiz-adv-x="232" 
d="M221 -240q-61 0 -97 33t-36 114v853h57v-848q0 -55 20.5 -79t62.5 -24q16 0 32 2.5t27 6.5v-46q-12 -5 -28 -8.5t-38 -3.5z" />
    <glyph glyph-name="uni026E" unicode="&#x26e;" horiz-adv-x="607" 
d="M329 -240q-55 0 -98 9t-76 25v55q34 -17 79 -28.5t97 -11.5q86 0 136 50t50 134q0 88 -58.5 129.5t-170.5 41.5h-49v42l243 277h-337v-483h-57v760h57v-228h409v-42l-246 -278q267 -7 267 -218q0 -70 -30 -122.5t-85 -82t-131 -29.5z" />
    <glyph glyph-name="uni026F" unicode="&#x26f;" horiz-adv-x="894" 
d="M250 -10q-79 0 -123.5 45t-44.5 142v355h56v-352q0 -72 32 -106t88 -34q76 0 117 44.5t41 137.5v310h56v-352q0 -72 32.5 -106t87.5 -34q75 0 116 46.5t41 144.5v301h57v-532h-46l-8 85h-4q-20 -40 -61 -67.5t-103 -27.5q-58 0 -98 25t-57 75h-3q-23 -48 -68.5 -74
t-107.5 -26z" />
    <glyph glyph-name="uni0270" unicode="&#x270;" horiz-adv-x="894" 
d="M749 2q0 18 1 41t2 40h-4q-21 -39 -61.5 -66t-102.5 -27q-57 0 -97.5 25t-58.5 74h-3q-24 -49 -69.5 -74t-105.5 -25q-79 0 -123.5 45t-44.5 142v355h56v-352q0 -72 32 -106t88 -34q76 0 117 44.5t41 137.5v310h56v-352q0 -72 32.5 -106t87.5 -34q75 0 116 46.5t41 144.5
v301h57v-772h-57v242z" />
    <glyph glyph-name="uni0271" unicode="&#x271;" horiz-adv-x="894" 
d="M644 542q79 0 123.5 -45t44.5 -142v-465q0 -65 -30.5 -97.5t-82.5 -32.5q-19 0 -35.5 3.5t-27.5 8.5v49q23 -10 57 -10q63 0 63 78v464q0 71 -32.5 105.5t-87.5 34.5q-76 0 -117 -44.5t-41 -137.5v-311h-56v353q0 71 -32.5 105.5t-87.5 34.5q-76 0 -116.5 -47t-40.5 -144
v-302h-57v532h46l8 -84h4q20 39 60.5 66.5t103.5 27.5q57 0 96.5 -24.5t57.5 -73.5h5q24 48 69.5 73t105.5 25z" />
    <glyph glyph-name="uni0272" unicode="&#x272;" horiz-adv-x="596" 
d="M326 542q91 0 139 -47t48 -147v-348h-56v344q0 76 -35 112.5t-102 36.5q-175 0 -175 -203v-386q0 -53 -16.5 -84.5t-43.5 -45.5t-59 -14q-20 0 -37 3.5t-28 9.5v47q24 -11 56 -11q35 0 53 22t18 75v626h46l8 -92h4q21 44 67 73t113 29z" />
    <glyph glyph-name="uni0273" unicode="&#x273;" horiz-adv-x="596" 
d="M513 -81q0 -63 21.5 -86t60.5 -23q16 0 31.5 3.5t24.5 7.5v-46q-10 -6 -28 -9.5t-37 -3.5q-57 0 -93 34.5t-36 118.5v429q0 76 -35 112.5t-102 36.5q-175 0 -175 -203v-290h-57v532h46l8 -92h4q21 44 67 73t113 29q91 0 139 -47t48 -147v-429z" />
    <glyph glyph-name="uni0274" unicode="&#x274;" horiz-adv-x="597" 
d="M84 0v536h66l318 -460q-1 26 -2 59t-1 56v345h54v-536h-65l-318 461q1 -24 2 -58t1 -55v-348h-55z" />
    <glyph glyph-name="uni0275" unicode="&#x275;" horiz-adv-x="590" 
d="M533 267q0 -84 -27.5 -146t-81 -96.5t-130.5 -34.5q-74 0 -127 34t-81.5 96.5t-28.5 146.5q0 129 64 202t177 73q76 0 128.5 -34.5t79.5 -96.5t27 -144zM297 493q-85 0 -130 -51t-50 -145h357q-6 88 -48 142t-129 54zM295 39q90 0 132.5 56.5t46.5 152.5h-358
q3 -97 47 -153t132 -56z" />
    <glyph glyph-name="uni0276" unicode="&#x276;" horiz-adv-x="857" 
d="M296 546q63 0 109.5 -28t73.5 -78v96h330v-49h-275v-181h259v-49h-259v-208h275v-49h-330v100q-27 -50 -74 -79.5t-110 -29.5q-73 0 -127.5 34.5t-84.5 97.5t-30 147t29.5 146t84 96t129.5 34zM295 497q-85 0 -134 -62.5t-49 -164.5t46 -166t138 -64q90 0 136.5 63.5
t46.5 166.5q0 105 -47 166t-137 61z" />
    <glyph glyph-name="uni0277" unicode="&#x277;" horiz-adv-x="744" 
d="M373 542q147 0 230.5 -82t83.5 -228q0 -66 -18.5 -121t-58 -88t-102.5 -33q-55 0 -88 25.5t-47 70.5h-3q-14 -45 -48 -70.5t-87 -25.5q-85 0 -131.5 64t-46.5 178q0 146 81.5 228t234.5 82zM373 493q-124 0 -191 -65.5t-67 -194.5q0 -95 32.5 -144.5t92.5 -49.5
q52 0 78.5 38.5t26.5 104.5v149h55v-149q0 -69 26 -106t78 -37q61 0 93 51t32 143q0 128 -67.5 194t-188.5 66z" />
    <glyph glyph-name="uni0278" unicode="&#x278;" horiz-adv-x="681" 
d="M368 540q119 -8 187.5 -80t68.5 -193q0 -118 -67.5 -192t-188.5 -83v-232h-56v232q-119 7 -187.5 79.5t-68.5 195.5q0 121 67.5 193t190.5 80v220h54v-220zM314 491q-100 -6 -149 -65t-49 -159q0 -103 49.5 -161.5t148.5 -64.5v450zM368 41q97 7 147 67.5t50 158.5
q0 100 -49.5 158t-147.5 66v-450z" />
    <glyph glyph-name="uni0279" unicode="&#x279;" horiz-adv-x="394" 
d="M88 -9q-40 0 -72 9l8 52q32 -8 67 -8q72 0 115 53.5t43 143.5v291h57v-532h-48l-6 100h-3q-20 -45 -60.5 -77t-100.5 -32z" />
    <glyph glyph-name="uni027A" unicode="&#x27a;" horiz-adv-x="394" 
d="M88 -9q-40 0 -72 9l8 52q32 -8 67 -8q72 0 115 53.5t43 143.5v519h57v-760h-48l-6 100h-3q-20 -45 -60.5 -77t-100.5 -32z" />
    <glyph glyph-name="uni027B" unicode="&#x27b;" horiz-adv-x="394" 
d="M375 -238q-55 0 -90.5 34.5t-35.5 118.5v109q0 17 1 38.5t2 37.5h-3q-20 -45 -60.5 -77t-100.5 -32q-40 0 -72 9l8 52q32 -8 67 -8q72 0 115 53.5t43 143.5v291h57v-613q0 -63 21 -86t59 -23q19 0 34 3.5t24 7.5v-46q-10 -6 -28 -9.5t-41 -3.5z" />
    <glyph glyph-name="uni027C" unicode="&#x27c;" horiz-adv-x="394" 
d="M307 541q39 0 72 -8l-9 -53q-32 9 -66 9q-73 0 -116 -54t-43 -143v-532h-57v772h48l6 -99h3q20 45 61 76.5t101 31.5z" />
    <glyph glyph-name="uni027D" unicode="&#x27d;" horiz-adv-x="394" 
d="M307 541q39 0 72 -8l-9 -53q-32 9 -66 9q-73 0 -116 -54t-43 -143v-373q0 -57 23 -83t66 -26q19 0 34 3t27 8v-46q-12 -6 -28.5 -9.5t-38.5 -3.5q-64 0 -102 34.5t-38 118.5v617h48l6 -99h3q20 45 61 76.5t101 31.5z" />
    <glyph glyph-name="uni027E" unicode="&#x27e;" horiz-adv-x="337" 
d="M238 542q25 0 47.5 -5.5t36.5 -10.5l-8 -50q-13 5 -32.5 10.5t-44.5 5.5q-47 0 -72 -29t-25 -93v-370h-57v374q0 89 41.5 128.5t113.5 39.5z" />
    <glyph glyph-name="uni027F" unicode="&#x27f;" horiz-adv-x="337" 
d="M103 542q73 0 112.5 -39.5t39.5 -128.5v-614h-57v610q0 63 -23 92.5t-74 29.5q-25 0 -45 -5.5t-33 -10.5l-8 50q14 5 37.5 10.5t50.5 5.5z" />
    <glyph glyph-name="uni0280" unicode="&#x280;" horiz-adv-x="512" 
d="M84 0v536h188q94 0 143 -39t49 -112q0 -46 -18 -77.5t-46 -49.5t-60 -25l155 -233h-67l-146 225h-141v-225h-57zM273 274q66 0 101 29.5t35 80.5q0 49 -34 76t-110 27h-124v-213h132z" />
    <glyph glyph-name="uni0281" unicode="&#x281;" horiz-adv-x="512" 
d="M84 536h57v-225h141l146 225h67l-155 -232q32 -7 60 -25.5t46 -50t18 -76.5q0 -74 -49 -113t-143 -39h-188v536zM273 262h-132v-213h124q76 0 110 27t34 77t-35 79.5t-101 29.5z" />
    <glyph glyph-name="uni0282" unicode="&#x282;" horiz-adv-x="469" 
d="M423 141q0 -72 -54 -111.5t-152 -39.5q-33 0 -62.5 4.5t-51.5 10.5v-59q0 -44 15.5 -62.5t48.5 -18.5q16 0 31 3t27 7v-46q-13 -5 -27.5 -9t-37.5 -4q-51 0 -82.5 26.5t-31.5 98.5v138q35 -18 80 -29.5t92 -11.5q78 0 113.5 26.5t35.5 72.5q0 44 -37 67.5t-109 48.5
q-50 17 -87.5 34.5t-58.5 44.5t-21 74q0 64 52 100t139 36q48 0 89.5 -9t76.5 -24l-21 -47q-31 13 -70 22.5t-78 9.5q-63 0 -98 -22t-35 -64q0 -32 17 -50.5t49 -31.5t78 -29q48 -17 86 -35t61 -46t23 -75z" />
    <glyph glyph-name="uni0283" unicode="&#x283;" horiz-adv-x="230" 
d="M213 764q16 0 30.5 -3t23.5 -7v-46q-8 3 -20.5 5.5t-25.5 2.5q-39 0 -59 -23.5t-20 -83.5v-693q0 -83 -34.5 -119.5t-90.5 -36.5q-41 0 -65 13v46q10 -4 24.5 -7t31.5 -3q39 0 58 24.5t19 84.5v693q0 82 35.5 117.5t92.5 35.5z" />
    <glyph glyph-name="uni0284" unicode="&#x284;" horiz-adv-x="230" 
d="M17 -240q-41 0 -65 13v46q10 -4 24.5 -7t31.5 -3q39 0 58 24.5t19 84.5v348h-84v48h84v297q0 82 35.5 117.5t92.5 35.5q16 0 30.5 -3t23.5 -7v-46q-8 3 -20.5 5.5t-25.5 2.5q-39 0 -59 -23.5t-20 -83.5v-295h86v-48h-86v-350q0 -83 -34.5 -119.5t-90.5 -36.5z" />
    <glyph glyph-name="uni0285" unicode="&#x285;" horiz-adv-x="230" 
d="M206 -240q-55 0 -89.5 34t-34.5 118v484q0 52 -19.5 76.5t-57.5 24.5q-13 0 -25.5 -2.5t-19.5 -5.5v46q8 4 23 7.5t33 3.5q56 0 89.5 -35.5t33.5 -111.5v-484q0 -60 19 -83t57 -23q16 0 30.5 3t25.5 7v-46q-25 -13 -65 -13z" />
    <glyph glyph-name="uni0286" unicode="&#x286;" horiz-adv-x="230" 
d="M20 -240q-52 0 -84.5 29t-32.5 77q0 50 32 80t98 30h52v631q0 84 36.5 118.5t93.5 34.5q20 0 37 -3.5t27 -9.5v-46q-9 4 -24 7.5t-31 3.5q-39 0 -60.5 -23t-21.5 -86v-627h76v-49h-76q-2 -95 -35 -131t-87 -36zM17 -191q31 0 49.5 22t18.5 78v18h-48q-38 0 -58.5 -14.5
t-20.5 -45.5q0 -26 14 -42t45 -16z" />
    <glyph glyph-name="uni0287" unicode="&#x287;" horiz-adv-x="340" 
d="M102 494q-22 0 -42 -3.5t-35 -8.5v46q15 6 37 10t48 4q66 0 102.5 -37t36.5 -121v-337h78v-32l-78 -19l-21 -123h-36v127h-164v47h164v335q0 112 -90 112z" />
    <glyph glyph-name="uni0288" unicode="&#x288;" horiz-adv-x="340" 
d="M238 -191q22 0 42 3.5t35 8.5v-46q-15 -6 -37 -10t-47 -4q-67 0 -103 37t-36 121v567h-79v32l79 19l20 122h37v-127h163v-46h-163v-565q0 -112 89 -112z" />
    <glyph glyph-name="uni0289" unicode="&#x289;" horiz-adv-x="596" 
d="M10 258v48h71v226h57v-226h312v226h57v-226h75v-48h-75v-258h-46l-9 91h-3q-22 -44 -67.5 -72.5t-113.5 -28.5q-187 0 -187 194v74h-71zM138 189q0 -77 34.5 -113.5t102.5 -36.5q175 0 175 203v16h-312v-69z" />
    <glyph glyph-name="uni028A" unicode="&#x28a;" horiz-adv-x="575" 
d="M288 -11q-72 0 -126 30t-84 86.5t-30 135.5q0 82 31 141t92 101h-145v49h220v-46q-66 -35 -102.5 -95.5t-36.5 -149.5q0 -93 46.5 -148t135.5 -55q86 0 133.5 56t47.5 147q0 90 -40.5 151.5t-98.5 93.5v46h219v-49h-146q56 -41 90.5 -99.5t34.5 -142.5q0 -77 -30.5 -134
t-84.5 -87.5t-126 -30.5z" />
    <glyph glyph-name="uni028B" unicode="&#x28b;" horiz-adv-x="572" 
d="M360 546q61 0 96 -33.5t35 -112.5v-203q0 -100 -50.5 -153.5t-153.5 -53.5q-205 0 -205 207v335h57v-332q0 -85 37 -123t111 -38q75 0 111 38.5t36 122.5v193q0 57 -19.5 80t-58.5 23q-15 0 -28.5 -2.5t-23.5 -5.5v50q11 3 26 5.5t30 2.5z" />
    <glyph glyph-name="uni028C" unicode="&#x28c;" horiz-adv-x="469" 
d="M266 532l203 -532h-60l-132 353q-13 33 -23.5 65t-16.5 57h-3q-8 -25 -18.5 -57.5t-22.5 -64.5l-132 -353h-61l204 532h62z" />
    <glyph glyph-name="uni028D" unicode="&#x28d;" horiz-adv-x="736" 
d="M330 187q11 -34 19 -64t14 -54h3q6 24 14 54.5t19 63.5l112 345h61l150 -532h-60l-89 329q-12 44 -20 77.5t-13 59.5h-3q-6 -24 -14 -57t-21 -72l-110 -337h-58l-106 336q-11 36 -20.5 70t-14.5 60h-3q-3 -24 -11.5 -58.5t-19.5 -78.5l-87 -329h-58l145 532h62z" />
    <glyph glyph-name="uni028E" unicode="&#x28e;" horiz-adv-x="469" 
d="M469 0h-61l-126 331q-17 44 -29 78.5t-19 61.5h-3q-15 -50 -47 -139l-124 -332h-61l240 627q27 70 64 108.5t100 38.5q19 0 34.5 -2.5t29.5 -6.5v-48q-13 3 -26.5 5.5t-30.5 2.5q-42 0 -68.5 -26t-46.5 -79l-35 -90z" />
    <glyph glyph-name="uni028F" unicode="&#x28f;" horiz-adv-x="446" 
d="M443 532l-192 -328v-204h-57v204l-191 328h64l156 -279l156 279h64z" />
    <glyph glyph-name="uni0290" unicode="&#x290;" horiz-adv-x="463" 
d="M471 -240q-47 0 -75.5 28.5t-28.5 94.5v117h-327v39l313 447h-291v46h358v-43l-313 -442h315v-160q0 -45 15 -62t43 -17q12 0 25.5 3t22.5 7v-45q-9 -6 -24.5 -9.5t-32.5 -3.5z" />
    <glyph glyph-name="uni0291" unicode="&#x291;" horiz-adv-x="530" 
d="M158 -68q6 18 12.5 35t14.5 33h-145v39l313 447h-291v46h358v-43l-313 -442h99q41 81 89.5 124.5t115.5 43.5q49 0 79 -27.5t30 -69.5q0 -53 -38.5 -85.5t-125.5 -32.5h-117q-19 -39 -35 -85zM357 47q61 0 84.5 20.5t23.5 49.5q0 21 -15 36.5t-44 15.5q-44 0 -79.5 -32
t-65.5 -90h96z" />
    <glyph glyph-name="uni0292" unicode="&#x292;" horiz-adv-x="468" 
d="M414 532v-42l-245 -278q128 -4 197 -59t69 -159q0 -70 -29.5 -122.5t-84.5 -82t-131 -29.5q-55 0 -98 9t-77 25v55q35 -17 79.5 -28.5t97.5 -11.5q86 0 136 50t50 134q0 88 -58.5 129.5t-171.5 41.5h-48v42l242 277h-311v49h383z" />
    <glyph glyph-name="uni0293" unicode="&#x293;" horiz-adv-x="468" 
d="M162 -240q-47 0 -88 14t-66 43t-25 74q0 51 40 85.5t120 34.5q64 0 119.5 -22.5t102.5 -61.5q4 10 8.5 28.5t4.5 41.5q-2 89 -61 128t-170 39h-47v42l242 277h-311v49h383v-42l-245 -278q128 -4 197 -58t69 -156q0 -36 -8 -63t-18 -46q18 -20 36 -41t36 -45l-40 -35
q-17 22 -33.5 42t-31.5 37q-29 -30 -82 -58.5t-132 -28.5zM163 -191q61 0 104.5 22t69.5 52q-47 42 -94.5 60.5t-98.5 18.5q-58 0 -82 -21t-24 -51q0 -39 35 -60t90 -21z" />
    <glyph glyph-name="uni0294" unicode="&#x294;" horiz-adv-x="412" 
d="M185 764q97 0 149.5 -51.5t52.5 -141.5q0 -92 -53.5 -152.5t-137.5 -98.5v-320h-57v351q54 19 96.5 47.5t67.5 70t25 100.5q0 71 -37.5 108.5t-107.5 37.5q-44 0 -83 -13t-68 -31l-21 44q34 21 76.5 35t97.5 14z" />
    <glyph glyph-name="uni0295" unicode="&#x295;" horiz-adv-x="412" 
d="M227 764q54 0 97 -14t77 -35l-21 -44q-30 18 -68.5 31t-82.5 13q-70 0 -107.5 -37.5t-37.5 -108.5q0 -59 24.5 -100.5t67.5 -70t97 -47.5v-351h-57v320q-85 38 -138 98.5t-53 152.5q0 90 52.5 141.5t149.5 51.5z" />
    <glyph glyph-name="uni0296" unicode="&#x296;" horiz-adv-x="412" 
d="M185 -10q-55 0 -97.5 14t-76.5 35l21 45q29 -19 68 -32t83 -13q70 0 107.5 37.5t37.5 109.5q0 58 -25 99.5t-67.5 70t-96.5 47.5v354h57v-323q84 -38 137.5 -98.5t53.5 -152.5q0 -90 -52.5 -141.5t-149.5 -51.5z" />
    <glyph glyph-name="uni0297" unicode="&#x297;" horiz-adv-x="474" 
d="M305 -239q-77 0 -132.5 39t-85.5 125.5t-30 229.5q0 144 34 229t92 121.5t130 36.5q41 0 75 -7t57 -17l-16 -50q-26 9 -56 16t-61 7q-58 0 -102.5 -33t-69 -106.5t-24.5 -195.5q0 -132 23.5 -207t66.5 -106t100 -31q41 0 73 8t58 19v-52q-25 -12 -57 -19t-75 -7z" />
    <glyph glyph-name="uni0298" unicode="&#x298;" horiz-adv-x="768" 
d="M705 358q0 -109 -36 -192t-107.5 -129.5t-177.5 -46.5q-108 0 -179.5 46.5t-107 130t-35.5 192.5t36.5 191t109 128.5t179.5 46.5q103 0 174 -44.5t107.5 -126.5t36.5 -196zM123 359q0 -95 28 -166.5t86 -111t147 -39.5q90 0 147.5 39t85 110.5t27.5 166.5
q0 149 -64.5 232t-192.5 83q-89 0 -148 -39.5t-87.5 -110t-28.5 -164.5zM343 357q0 49 43 49q45 0 45 -49q0 -50 -45 -50q-43 0 -43 50z" />
    <glyph glyph-name="uni0299" unicode="&#x299;" horiz-adv-x="568" 
d="M88 0v532h223q87 0 134 -32.5t47 -97.5q0 -51 -27 -79.5t-70 -38.5v-3q51 -8 84 -39t33 -90q0 -69 -47 -110.5t-149 -41.5h-228zM299 304q135 0 135 92q0 41 -29.5 64t-98.5 23h-161v-179h154zM307 48q73 0 109.5 25t36.5 79q0 55 -38 79t-111 24h-159v-207h162z" />
    </font>
</defs>
</svg>
