<?xml version="1.0" standalone="no"?>
<!DOCTYPE svg PUBLIC "-//W3C//DTD SVG 1.1//EN" "http://www.w3.org/Graphics/SVG/1.1/DTD/svg11.dtd" >
<svg xmlns="http://www.w3.org/2000/svg" xmlns:xlink="http://www.w3.org/1999/xlink" version="1.1">
<metadata>
Created by FontForge 20170731 at Mon Feb  7 20:28:34 2022
 By Aleksey,,,
Copyright 2015-2021 Google LLC. All Rights Reserved.
</metadata>
<defs>
<font id="NotoSans-Medium" horiz-adv-x="0" >
  <font-face 
    font-family="Noto Sans Medium"
    font-weight="500"
    font-stretch="normal"
    units-per-em="1000"
    panose-1="2 11 6 2 4 5 4 2 2 4"
    ascent="800"
    descent="-200"
    x-height="539"
    cap-height="714"
    bbox="-622 -394 2800 1347"
    underline-thickness="50"
    underline-position="-175"
    unicode-range="U+000D-FFFD"
  />
<missing-glyph horiz-adv-x="600" 
d="M94 0v714h411v-714h-411zM145 51h309v612h-309v-612z" />
    <glyph glyph-name="f_f" unicode="ff" horiz-adv-x="713" 
d="M346 458h-133v-458h-106v458h-91v50l91 33v34q0 103 47.5 146.5t132.5 43.5q35 0 64 -6t49 -13l-27 -81q-17 5 -37.5 9.5t-43.5 4.5q-79 0 -79 -105v-35h133v-81zM703 458h-133v-458h-106v458h-91v50l91 33v34q0 103 47.5 146.5t132.5 43.5q35 0 64 -6t49 -13l-27 -81
q-17 5 -37.5 9.5t-43.5 4.5q-79 0 -79 -105v-35h133v-81z" />
    <glyph glyph-name="fi" unicode="fi" horiz-adv-x="629" 
d="M346 458h-133v-458h-106v458h-91v50l91 33v34q0 103 47.5 146.5t132.5 43.5q35 0 64 -6t49 -13l-27 -81q-17 5 -37.5 9.5t-43.5 4.5q-79 0 -79 -105v-35h133v-81zM494 744q24 0 42 -14t18 -47q0 -32 -18 -46.5t-42 -14.5q-26 0 -43.5 14.5t-17.5 46.5q0 33 17.5 47
t43.5 14zM546 539v-539h-106v539h106z" />
    <glyph glyph-name="fl" unicode="fl" horiz-adv-x="629" 
d="M346 458h-133v-458h-106v458h-91v50l91 33v34q0 103 47.5 146.5t132.5 43.5q35 0 64 -6t49 -13l-27 -81q-17 5 -37.5 9.5t-43.5 4.5q-79 0 -79 -105v-35h133v-81zM546 0h-106v760h106v-760z" />
    <glyph glyph-name="f_f_i" unicode="ffi" horiz-adv-x="985" 
d="M346 458h-133v-458h-106v458h-91v50l91 33v34q0 103 47.5 146.5t132.5 43.5q35 0 64 -6t49 -13l-27 -81q-17 5 -37.5 9.5t-43.5 4.5q-79 0 -79 -105v-35h133v-81zM703 458h-133v-458h-106v458h-91v50l91 33v34q0 103 47.5 146.5t132.5 43.5q35 0 64 -6t49 -13l-27 -81
q-17 5 -37.5 9.5t-43.5 4.5q-79 0 -79 -105v-35h133v-81zM850 744q24 0 42 -14t18 -47q0 -32 -18 -46.5t-42 -14.5q-26 0 -43.5 14.5t-17.5 46.5q0 33 17.5 47t43.5 14zM902 539v-539h-106v539h106z" />
    <glyph glyph-name="f_f_l" unicode="ffl" horiz-adv-x="985" 
d="M346 458h-133v-458h-106v458h-91v50l91 33v34q0 103 47.5 146.5t132.5 43.5q35 0 64 -6t49 -13l-27 -81q-17 5 -37.5 9.5t-43.5 4.5q-79 0 -79 -105v-35h133v-81zM703 458h-133v-458h-106v458h-91v50l91 33v34q0 103 47.5 146.5t132.5 43.5q35 0 64 -6t49 -13l-27 -81
q-17 5 -37.5 9.5t-43.5 4.5q-79 0 -79 -105v-35h133v-81zM902 0h-106v760h106v-760z" />
    <glyph glyph-name=".notdef" horiz-adv-x="600" 
d="M94 0v714h411v-714h-411zM145 51h309v612h-309v-612z" />
    <glyph glyph-name=".null" 
 />
    <glyph glyph-name="nonmarkingreturn" horiz-adv-x="333" 
 />
    <glyph glyph-name="NULL" 
 />
    <glyph glyph-name="NULL" 
 />
    <glyph glyph-name="CR" unicode="&#xd;" horiz-adv-x="260" 
 />
    <glyph glyph-name="space" unicode=" " horiz-adv-x="260" 
 />
    <glyph glyph-name="exclam" unicode="!" horiz-adv-x="274" 
d="M175 212h-75l-25 502h125zM68 59q0 39 20 55t49 16q27 0 47.5 -16t20.5 -55t-20.5 -56t-47.5 -17q-29 0 -49 17t-20 56z" />
    <glyph glyph-name="quotedbl" unicode="&#x22;" horiz-adv-x="427" 
d="M172 714l-20 -258h-67l-20 258h107zM362 714l-20 -258h-67l-20 258h107z" />
    <glyph glyph-name="numbersign" unicode="#" horiz-adv-x="646" 
d="M482 429l-28 -146h133v-77h-148l-40 -206h-82l40 206h-129l-38 -206h-80l37 206h-123v77h138l29 146h-130v77h144l39 208h83l-40 -208h131l39 208h80l-40 -208h124v-77h-139zM243 283h129l29 146h-129z" />
    <glyph glyph-name="dollar" unicode="$" horiz-adv-x="572" 
d="M253 46q-58 1 -109.5 10.5t-86.5 25.5v98q36 -17 90.5 -30.5t105.5 -14.5v187q-104 32 -150.5 73.5t-46.5 113.5q0 74 54 117t143 49v84h65v-83q54 -2 99 -12t85 -27l-33 -86q-35 14 -74 23.5t-77 12.5v-184q62 -20 107.5 -42t70.5 -55t25 -85q0 -71 -52 -116t-151 -55
v-108h-65v104zM253 585q-47 -4 -70 -22.5t-23 -48.5q0 -34 20.5 -53.5t72.5 -34.5v159zM318 139q51 6 75 25.5t24 50.5q0 32 -21.5 50t-77.5 34v-160z" />
    <glyph glyph-name="percent" unicode="%" horiz-adv-x="852" 
d="M196 724q77 0 116.5 -58.5t39.5 -164.5t-37.5 -165.5t-118.5 -59.5q-74 0 -113 59.5t-39 165.5t36.5 164.5t115.5 58.5zM668 714l-396 -714h-89l396 714h89zM196 650q-65 0 -65 -149q0 -151 65 -151q69 0 69 151q0 149 -69 149zM652 438q76 0 116 -58.5t40 -164.5
q0 -105 -37.5 -165t-118.5 -60q-75 0 -114 60t-39 165q0 106 36.5 164.5t116.5 58.5zM652 364q-65 0 -65 -149q0 -150 65 -150q68 0 68 150q0 149 -68 149z" />
    <glyph glyph-name="ampersand" unicode="&#x26;" horiz-adv-x="737" 
d="M306 725q82 0 131.5 -40.5t49.5 -114.5q0 -64 -41 -109t-102 -81l177 -171q24 32 40 71.5t27 84.5h108q-15 -62 -41 -119.5t-65 -103.5l146 -142h-138l-78 75q-46 -38 -102.5 -61.5t-133.5 -23.5q-109 0 -172 52.5t-63 145.5q0 76 39.5 122.5t107.5 85.5q-34 38 -58 78.5
t-24 91.5q0 74 52 116.5t140 42.5zM303 640q-37 0 -62 -19.5t-25 -56.5q0 -33 17 -61.5t48 -61.5q55 31 79.5 59t24.5 66q0 34 -23 54t-59 20zM259 331q-46 -29 -72.5 -59.5t-26.5 -77.5q0 -51 35.5 -81.5t93.5 -30.5q55 0 95.5 17t69.5 42z" />
    <glyph glyph-name="quotesingle" unicode="'" horiz-adv-x="237" 
d="M172 714l-20 -258h-67l-20 258h107z" />
    <glyph glyph-name="parenleft" unicode="(" horiz-adv-x="312" 
d="M40 274q0 122 35.5 235.5t111.5 204.5h95q-70 -94 -105.5 -207t-35.5 -232q0 -116 35.5 -228t104.5 -205h-94q-76 88 -111.5 199.5t-35.5 232.5z" />
    <glyph glyph-name="parenright" unicode=")" horiz-adv-x="312" 
d="M272 274q0 -121 -36 -232.5t-111 -199.5h-94q69 93 104 205t35 228q0 119 -35.5 232t-104.5 207h95q75 -91 111 -204.5t36 -235.5z" />
    <glyph glyph-name="asterisk" unicode="*" horiz-adv-x="549" 
d="M326 760l-20 -188l189 53l15 -101l-179 -15l116 -154l-93 -50l-83 168l-74 -168l-96 50l114 154l-177 15l16 101l186 -53l-21 188h107z" />
    <glyph glyph-name="plus" unicode="+" horiz-adv-x="572" 
d="M326 393h196v-81h-196v-201h-82v201h-196v81h196v202h82v-202z" />
    <glyph glyph-name="comma" unicode="," horiz-adv-x="273" 
d="M201 105q-13 -53 -37 -116.5t-49 -117.5h-77q14 58 28 125.5t22 119.5h106z" />
    <glyph glyph-name="hyphen" unicode="-" horiz-adv-x="322" 
d="M37 223v90h248v-90h-248z" />
    <glyph glyph-name="period" unicode="." horiz-adv-x="273" 
d="M68 59q0 39 19.5 55t48.5 16q28 0 48.5 -16t20.5 -55t-20.5 -56t-48.5 -17q-29 0 -48.5 17t-19.5 56z" />
    <glyph glyph-name="slash" unicode="/" horiz-adv-x="384" 
d="M376 714l-266 -714h-101l266 714h101z" />
    <glyph glyph-name="slash" unicode="&#x2215;" horiz-adv-x="384" 
d="M376 714l-266 -714h-101l266 714h101z" />
    <glyph glyph-name="zero" unicode="0" horiz-adv-x="572" 
d="M527 358q0 -116 -24.5 -198t-77.5 -126t-140 -44q-123 0 -181.5 97.5t-58.5 270.5q0 115 23.5 197.5t76.5 126t140 43.5q122 0 182 -96.5t60 -270.5zM151 358q0 -140 30 -209.5t104 -69.5q73 0 104 69t31 210q0 139 -31 208.5t-104 69.5q-74 0 -104 -69.5t-30 -208.5z
" />
    <glyph glyph-name="one" unicode="1" horiz-adv-x="572" 
d="M372 0h-105v474q0 37 1 68t3 60q-13 -13 -27 -25.5t-32 -27.5l-78 -63l-54 68l204 160h88v-714z" />
    <glyph glyph-name="two" unicode="2" horiz-adv-x="572" 
d="M526 0h-480v82l184 187q54 55 90 95.5t54 78t18 81.5q0 54 -32 82t-83 28q-49 0 -88 -18t-81 -52l-57 71q43 36 98 62.5t131 26.5q102 0 160.5 -52t58.5 -139q0 -57 -23 -105.5t-65 -96.5t-99 -103l-133 -129v-5h347v-94z" />
    <glyph glyph-name="three" unicode="3" horiz-adv-x="572" 
d="M498 549q0 -73 -41.5 -116t-107.5 -57v-4q85 -10 128 -53.5t43 -114.5q0 -62 -29.5 -110.5t-91 -76t-157.5 -27.5q-57 0 -106 9t-93 30v96q45 -23 96.5 -35t98.5 -12q91 0 131 34.5t40 96.5q0 60 -48 88t-144 28h-65v87h66q91 0 132 34t41 89q0 48 -31.5 74.5t-90.5 26.5
q-55 0 -95.5 -17t-75.5 -41l-52 73q39 30 95.5 51.5t130.5 21.5q111 0 168.5 -48.5t57.5 -126.5z" />
    <glyph glyph-name="four" unicode="4" horiz-adv-x="572" 
d="M553 158h-99v-158h-103v158h-331v84l329 475h105v-469h99v-90zM351 442q0 47 2 88.5t3 69.5h-4q-8 -20 -19.5 -41t-23.5 -37l-189 -274h231v194z" />
    <glyph glyph-name="five" unicode="5" horiz-adv-x="572" 
d="M282 443q106 0 171 -55t65 -157q0 -112 -71 -176.5t-201 -64.5q-56 0 -104.5 10t-82.5 29v97q36 -21 87.5 -34t98.5 -13q75 0 120 34.5t45 107.5q0 65 -40.5 99.5t-127.5 34.5q-29 0 -63 -5t-55 -10l-49 29l27 345h367v-94h-275l-16 -187q17 3 43 6.5t61 3.5z" />
    <glyph glyph-name="six" unicode="6" horiz-adv-x="572" 
d="M49 304q0 62 8.5 122.5t30 114t59.5 94.5t96.5 64.5t141.5 23.5q21 0 47 -2t44 -6v-89q-38 12 -86 12q-69 0 -114 -21t-71 -58t-38 -86t-15 -105h6q22 36 62 60t103 24q93 0 149.5 -57.5t56.5 -162.5q0 -113 -62.5 -177.5t-169.5 -64.5q-69 0 -125.5 34t-89.5 103.5
t-33 176.5zM296 78q57 0 93 37.5t36 116.5q0 63 -31.5 100t-94.5 37q-43 0 -75 -18t-50 -46t-18 -57q0 -41 16 -80t47 -64.5t77 -25.5z" />
    <glyph glyph-name="seven" unicode="7" horiz-adv-x="572" 
d="M129 0l285 620h-375v94h489v-76l-284 -638h-115z" />
    <glyph glyph-name="eight" unicode="8" horiz-adv-x="572" 
d="M285 724q63 0 112 -19.5t77.5 -57.5t28.5 -95q0 -64 -39 -105t-94 -69q42 -21 77.5 -47.5t57 -62t21.5 -83.5q0 -60 -29.5 -103.5t-83.5 -67.5t-126 -24q-116 0 -179 50.5t-63 141.5q0 48 20 84.5t53 62.5t72 44q-52 30 -87 72.5t-35 107.5q0 56 29 93.5t78 57.5t110 20z
M284 641q-50 0 -82 -24.5t-32 -69.5q0 -50 34.5 -77.5t83.5 -49.5q47 20 79.5 48.5t32.5 78.5q0 45 -32 69.5t-84 24.5zM147 184q0 -48 34 -80t104 -32q68 0 103.5 31.5t35.5 81.5q0 49 -38.5 81t-97.5 57l-15 6q-61 -26 -93.5 -60.5t-32.5 -84.5z" />
    <glyph glyph-name="nine" unicode="9" horiz-adv-x="572" 
d="M525 409q0 -61 -8.5 -121.5t-30 -114t-59.5 -95t-97 -65t-142 -23.5q-21 0 -48 2t-44 7v89q40 -12 88 -12q68 0 113.5 20.5t71.5 57.5t38 86t14 104h-6q-22 -34 -61 -58.5t-105 -24.5q-93 0 -148.5 57.5t-55.5 161.5q0 113 63 178t169 65q70 0 126 -34t89 -103.5
t33 -176.5zM278 636q-57 0 -93 -38t-36 -116q0 -64 31 -101t94 -37q44 0 76 18t50 46t18 58q0 40 -15.5 79t-47 65t-77.5 26z" />
    <glyph glyph-name="colon" unicode=":" horiz-adv-x="273" 
d="M68 479q0 40 19.5 56.5t48.5 16.5q28 0 48.5 -16.5t20.5 -56.5q0 -38 -20.5 -55t-48.5 -17q-29 0 -48.5 17t-19.5 55zM68 59q0 39 19.5 55t48.5 16q28 0 48.5 -16t20.5 -55t-20.5 -56t-48.5 -17q-29 0 -48.5 17t-19.5 56z" />
    <glyph glyph-name="semicolon" unicode=";" horiz-adv-x="273" 
d="M66 479q0 40 20 56.5t49 16.5q28 0 48.5 -16.5t20.5 -56.5q0 -38 -20.5 -55t-48.5 -17q-29 0 -49 17t-20 55zM195 105q-13 -53 -37.5 -116.5t-48.5 -117.5h-78q10 38 19.5 81.5t17.5 86t13 77.5h107z" />
    <glyph glyph-name="less" unicode="&#x3c;" horiz-adv-x="572" 
d="M523 111l-475 209v56l475 237v-89l-364 -172l364 -152v-89z" />
    <glyph glyph-name="equal" unicode="=" horiz-adv-x="572" 
d="M52 410v81h466v-81h-466zM52 213v82h466v-82h-466z" />
    <glyph glyph-name="greater" unicode="&#x3e;" horiz-adv-x="572" 
d="M48 200l364 152l-364 172v89l475 -237v-56l-475 -209v89z" />
    <glyph glyph-name="question" unicode="?" horiz-adv-x="447" 
d="M139 241q0 55 18.5 90.5t67.5 75.5q36 29 57 49.5t29.5 40.5t8.5 48q0 43 -28.5 66t-82.5 23q-47 0 -86 -12.5t-76 -30.5l-38 80q43 23 94 38t113 15q98 0 151.5 -48t53.5 -128q0 -43 -14 -74.5t-40.5 -57.5t-62.5 -56q-33 -26 -49.5 -45t-22.5 -38t-6 -45v-20h-87v29z
M118 59q0 39 19.5 55t49.5 16q27 0 47.5 -16t20.5 -55t-20.5 -56t-47.5 -17q-30 0 -49.5 17t-19.5 56z" />
    <glyph glyph-name="at" unicode="@" horiz-adv-x="898" 
d="M843 357q0 -46 -11 -90t-32.5 -80t-54.5 -57.5t-78 -21.5q-43 0 -70 23.5t-34 56.5h-6q-19 -33 -53.5 -56.5t-85.5 -23.5q-80 0 -123.5 51.5t-43.5 136.5q0 66 26.5 117t76 80t116.5 29q45 0 89.5 -7.5t70.5 -17.5l-10 -203q-1 -16 -1 -24.5v-11.5q0 -49 16.5 -64.5
t37.5 -15.5q29 0 48.5 24.5t30 65.5t10.5 90q0 90 -36.5 153t-100 96t-144.5 33q-111 0 -187.5 -46t-116 -126t-39.5 -184q0 -144 76.5 -221t220.5 -77q60 0 117.5 13.5t103.5 30.5v-76q-44 -18 -99.5 -30t-120.5 -12q-120 0 -205 44t-130 126.5t-45 198.5q0 93 29 172
t84.5 137.5t134 91t177.5 32.5q105 0 186.5 -43t128.5 -123t47 -191zM339 294q0 -61 24.5 -88.5t66.5 -27.5q54 0 77.5 40.5t27.5 104.5l6 120q-13 3 -31 6t-38 3q-48 0 -77.5 -23t-42.5 -59t-13 -76z" />
    <glyph glyph-name="A" unicode="A" horiz-adv-x="654" 
d="M540 0l-76 206h-276l-76 -206h-112l271 717h112l270 -717h-113zM362 501q-3 11 -10.5 33t-14.5 46t-11 39q-8 -31 -18 -66t-16 -52l-72 -201h214z" />
    <glyph glyph-name="B" unicode="B" horiz-adv-x="656" 
d="M304 714q136 0 206.5 -40t70.5 -138q0 -63 -33.5 -104.5t-95.5 -52.5v-5q42 -7 76.5 -26t54.5 -53.5t20 -90.5q0 -97 -68 -150.5t-184 -53.5h-256v714h209zM322 416q84 0 115.5 27t31.5 80t-38 76.5t-121 23.5h-107v-207h119zM203 328v-238h131q86 0 120.5 34t34.5 90
q0 51 -35.5 82.5t-126.5 31.5h-124z" />
    <glyph glyph-name="C" unicode="C" horiz-adv-x="633" 
d="M400 631q-107 0 -167 -73.5t-60 -201.5q0 -127 56 -200t170 -73q46 0 88.5 8.5t86.5 22.5v-93q-42 -16 -85.5 -23.5t-102.5 -7.5q-110 0 -182 45.5t-108 128t-36 193.5q0 108 39.5 191t115.5 129.5t186 46.5q54 0 105.5 -11.5t94.5 -32.5l-40 -90q-35 16 -75.5 28.5
t-85.5 12.5z" />
    <glyph glyph-name="D" unicode="D" horiz-adv-x="733" 
d="M673 364q0 -181 -99.5 -272.5t-278.5 -91.5h-200v714h221q109 0 189 -40t124 -117.5t44 -192.5zM560 361q0 135 -65.5 198.5t-185.5 63.5h-106v-532h87q270 0 270 270z" />
    <glyph glyph-name="E" unicode="E" horiz-adv-x="557" 
d="M497 0h-402v714h402v-92h-294v-204h276v-91h-276v-234h294v-93z" />
    <glyph glyph-name="F" unicode="F" horiz-adv-x="528" 
d="M202 0h-107v714h402v-92h-295v-233h276v-92h-276v-297z" />
    <glyph glyph-name="G" unicode="G" horiz-adv-x="727" 
d="M393 384h258v-356q-57 -19 -116.5 -28.5t-135.5 -9.5q-164 0 -251.5 97.5t-87.5 269.5q0 112 43.5 194.5t126.5 127.5t201 45q59 0 113 -11.5t100 -31.5l-39 -90q-37 16 -82.5 28t-95.5 12q-119 0 -187 -74t-68 -201q0 -81 25 -142.5t79 -96.5t141 -35q43 0 72.5 4.5
t54.5 10.5v194h-151v93z" />
    <glyph glyph-name="H" unicode="H" horiz-adv-x="748" 
d="M652 0h-108v326h-341v-326h-108v714h108v-296h341v296h108v-714z" />
    <glyph glyph-name="I" unicode="I" horiz-adv-x="354" 
d="M315 0h-277v62l85 25v539l-85 26v62h277v-62l-84 -26v-539l84 -25v-62z" />
    <glyph glyph-name="J" unicode="J" horiz-adv-x="290" 
d="M2 -196q-26 0 -45.5 3.5t-33.5 9.5v90q16 -4 34 -7t38 -3q25 0 47 10t35.5 36t13.5 73v698h108v-693q0 -113 -54.5 -165t-142.5 -52z" />
    <glyph glyph-name="K" unicode="K" horiz-adv-x="632" 
d="M632 0h-125l-234 329l-70 -58v-271h-108v714h108v-345q26 30 52 60.5t52 60.5l193 224h124l-273 -312z" />
    <glyph glyph-name="L" unicode="L" horiz-adv-x="536" 
d="M95 0v714h108v-621h305v-93h-413z" />
    <glyph glyph-name="M" unicode="M" horiz-adv-x="918" 
d="M406 0l-216 607h-4q1 -21 3 -54.5t3 -72.5t1 -77v-403h-98v714h154l205 -573h4l211 573h154v-714h-105v409q0 34 1.5 71.5t3 70.5l2.5 55h-4l-222 -606h-93z" />
    <glyph glyph-name="N" unicode="N" horiz-adv-x="776" 
d="M681 0h-131l-361 577h-4q2 -40 5 -91.5t3 -105.5v-380h-98v714h130l360 -574h3q-1 21 -2.5 53t-2.5 68.5t-2 68.5v384h100v-714z" />
    <glyph glyph-name="O" unicode="O" horiz-adv-x="785" 
d="M725 358q0 -111 -37 -193.5t-111 -128.5t-184 -46q-113 0 -187 46t-110 129t-36 194q0 110 36.5 192t110.5 128t187 46q110 0 183.5 -45.5t110.5 -128t37 -193.5zM174 358q0 -128 53 -202t166 -74q114 0 166 74t52 202t-51.5 201t-165.5 73t-167 -73t-53 -201z" />
    <glyph glyph-name="P" unicode="P" horiz-adv-x="612" 
d="M295 714q140 0 204 -56.5t64 -157.5q0 -60 -26.5 -112t-88.5 -84.5t-168 -32.5h-77v-271h-108v714h200zM287 623h-84v-261h65q91 0 137.5 31t46.5 103q0 64 -40 95.5t-125 31.5z" />
    <glyph glyph-name="Q" unicode="Q" horiz-adv-x="785" 
d="M725 358q0 -128 -49.5 -219t-148.5 -127l171 -182h-148l-136 161q-5 0 -10.5 -0.5t-10.5 -0.5q-113 0 -187 46t-110 129t-36 194q0 110 36.5 192t110.5 128t187 46q110 0 183.5 -45.5t110.5 -128t37 -193.5zM174 358q0 -128 53 -202t166 -74q114 0 166 74t52 202
t-51.5 201t-165.5 73t-167 -73t-53 -201z" />
    <glyph glyph-name="R" unicode="R" horiz-adv-x="633" 
d="M295 714q137 0 202.5 -51t65.5 -155q0 -55 -20.5 -92.5t-52.5 -61t-67 -37.5l200 -317h-124l-172 289h-124v-289h-108v714h200zM288 622h-85v-243h90q83 0 121 31.5t38 93.5q0 64 -40 91t-124 27z" />
    <glyph glyph-name="S" unicode="S" horiz-adv-x="550" 
d="M505 193q0 -95 -69 -149t-189 -54q-58 0 -109.5 9.5t-87.5 27.5v102q40 -18 94 -32.5t110 -14.5q72 0 108 28t36 75q0 33 -16.5 55.5t-51.5 41.5t-92 42q-53 20 -93.5 47t-63.5 67t-23 98q0 88 64 138t168 50q58 0 107.5 -11.5t94.5 -31.5l-34 -89q-41 17 -83.5 28
t-87.5 11q-59 0 -90 -26t-31 -68q0 -33 15 -55.5t48 -40.5t87 -40q60 -24 102.5 -50.5t64.5 -64t22 -93.5z" />
    <glyph glyph-name="T" unicode="T" horiz-adv-x="563" 
d="M335 0h-108v621h-214v93h536v-93h-214v-621z" />
    <glyph glyph-name="U" unicode="U" horiz-adv-x="738" 
d="M649 252q0 -74 -31 -133.5t-93.5 -94t-158.5 -34.5q-136 0 -206.5 72.5t-70.5 191.5v460h108v-455q0 -177 174 -177q90 0 130.5 48t40.5 130v454h107v-462z" />
    <glyph glyph-name="V" unicode="V" horiz-adv-x="615" 
d="M615 714l-252 -714h-112l-251 714h111l153 -448q13 -36 25 -79t18 -78q6 35 18 78t25 80l153 447h112z" />
    <glyph glyph-name="W" unicode="W" horiz-adv-x="941" 
d="M932 714l-188 -714h-115l-126 441q-7 24 -14.5 54t-13.5 56.5t-8 37.5q-1 -11 -6 -37t-12.5 -57t-14.5 -57l-124 -438h-115l-187 714h111l105 -422q11 -43 20 -90.5t14 -84.5q5 38 15 87t22 88l119 422h108l123 -424q12 -40 22 -89.5t15 -83.5q5 36 14.5 84t20.5 91
l105 422h110z" />
    <glyph glyph-name="X" unicode="X" horiz-adv-x="610" 
d="M607 0h-123l-182 298l-184 -298h-115l237 371l-222 343h120l168 -273l169 273h115l-222 -344z" />
    <glyph glyph-name="Y" unicode="Y" horiz-adv-x="583" 
d="M292 380l175 334h116l-238 -437v-277h-107v273l-238 441h117z" />
    <glyph glyph-name="Z" unicode="Z" horiz-adv-x="574" 
d="M539 0h-505v77l366 544h-355v93h485v-77l-366 -544h375v-93z" />
    <glyph glyph-name="bracketleft" unicode="[" horiz-adv-x="330" 
d="M305 -158h-228v872h228v-81h-130v-710h130v-81z" />
    <glyph glyph-name="backslash" unicode="\" horiz-adv-x="384" 
d="M109 714l267 -714h-101l-266 714h100z" />
    <glyph glyph-name="bracketright" unicode="]" horiz-adv-x="330" 
d="M25 -77h129v710h-129v81h228v-872h-228v81z" />
    <glyph glyph-name="asciicircum" unicode="^" horiz-adv-x="572" 
d="M34 263l212 456h56l236 -456h-89l-173 346l-154 -346h-88z" />
    <glyph glyph-name="underscore" unicode="_" horiz-adv-x="434" 
d="M436 -155h-438v65h438v-65z" />
    <glyph glyph-name="grave" unicode="`" horiz-adv-x="305" 
d="M163 766q12 -22 30 -49.5t37 -53.5t35 -45v-12h-71q-24 18 -54.5 46t-58 57t-41.5 47v10h123z" />
    <glyph glyph-name="a" unicode="a" horiz-adv-x="574" 
d="M292 549q101 0 151.5 -44.5t50.5 -139.5v-365h-75l-21 75h-4q-35 -44 -73.5 -64.5t-106.5 -20.5q-73 0 -121 39.5t-48 123.5q0 82 62 125t191 47l92 3v30q0 59 -27 83.5t-76 24.5q-41 0 -79 -12t-73 -29l-34 77q38 20 87.5 33.5t103.5 13.5zM317 257q-92 -4 -127.5 -30.5
t-35.5 -74.5q0 -42 25 -61t65 -19q62 0 103.5 35t41.5 105v47z" />
    <glyph glyph-name="b" unicode="b" horiz-adv-x="620" 
d="M189 577q0 -33 -2 -63t-3 -46h5q22 34 61.5 57t101.5 23q97 0 156.5 -70t59.5 -208q0 -139 -60 -209.5t-157 -70.5q-63 0 -101.5 22.5t-60.5 53.5h-8l-20 -66h-78v760h106v-183zM327 462q-78 0 -108 -45.5t-30 -139.5v-8q0 -93 29.5 -142.5t110.5 -49.5q64 0 97 50
t33 144q0 191 -132 191z" />
    <glyph glyph-name="c" unicode="c" horiz-adv-x="490" 
d="M300 -10q-112 0 -180 66.5t-68 209.5q0 100 33 162t91 91.5t132 29.5q45 0 84.5 -9.5t65.5 -21.5l-32 -86q-28 11 -59.5 19t-59.5 8q-146 0 -146 -192q0 -92 36 -140t106 -48q45 0 79.5 10t63.5 26v-92q-29 -17 -63 -25t-83 -8z" />
    <glyph glyph-name="d" unicode="d" horiz-adv-x="620" 
d="M268 -10q-97 0 -156.5 70t-59.5 208q0 139 60 210t158 71q61 0 100 -23t63 -56h6q-2 13 -5 40t-3 48v202h106v-760h-83l-18 72h-5q-23 -35 -62 -58.5t-101 -23.5zM293 77q78 0 110 43.5t32 130.5v16q0 94 -30.5 144.5t-112.5 50.5q-65 0 -98 -52.5t-33 -143.5t33 -140
t99 -49z" />
    <glyph glyph-name="e" unicode="e" horiz-adv-x="572" 
d="M295 549q106 0 167 -65.5t61 -178.5v-58h-362q2 -83 43.5 -127t116.5 -44q52 0 92.5 9.5t83.5 28.5v-88q-41 -18 -82 -27t-98 -9q-79 0 -138.5 31t-93 92.5t-33.5 151.5q0 91 30.5 154t85 96.5t127.5 33.5zM295 467q-57 0 -91.5 -37t-40.5 -105h254q-1 63 -30.5 102.5
t-91.5 39.5z" />
    <glyph glyph-name="f" unicode="f" horiz-adv-x="357" 
d="M346 458h-133v-458h-106v458h-91v50l91 33v34q0 103 47.5 146.5t132.5 43.5q35 0 64 -6t49 -13l-27 -81q-17 5 -37.5 9.5t-43.5 4.5q-79 0 -79 -105v-35h133v-81z" />
    <glyph glyph-name="g" unicode="g" horiz-adv-x="620" 
d="M269 549q107 0 165 -81h5l12 71h86v-546q0 -115 -61.5 -174t-187.5 -59q-59 0 -107.5 8t-89.5 25v93q86 -42 203 -42q66 0 102 37.5t36 105.5v18q0 13 1 34t2 32h-4q-27 -42 -68 -61.5t-94 -19.5q-102 0 -159.5 73.5t-57.5 204.5q0 130 57.5 205.5t159.5 75.5zM291 461
q-63 0 -96.5 -50t-33.5 -144t33.5 -143t98.5 -49q74 0 108.5 40.5t34.5 132.5v20q0 103 -35 148t-110 45z" />
    <glyph glyph-name="h" unicode="h" horiz-adv-x="630" 
d="M189 557q0 -26 -2 -50.5t-4 -40.5h7q26 42 69.5 62t94.5 20q95 0 145.5 -47t50.5 -150v-351h-105v336q0 126 -111 126q-83 0 -114 -49.5t-31 -141.5v-271h-106v760h106v-203z" />
    <glyph glyph-name="i" unicode="i" horiz-adv-x="272" 
d="M137 744q24 0 42 -14t18 -47q0 -32 -18 -46.5t-42 -14.5q-26 0 -43.5 14.5t-17.5 46.5q0 33 17.5 47t43.5 14zM189 539v-539h-106v539h106z" />
    <glyph glyph-name="j" unicode="j" horiz-adv-x="272" 
d="M76 683q0 33 17.5 47t43.5 14q24 0 42 -14t18 -47q0 -32 -18 -46.5t-42 -14.5q-26 0 -43.5 14.5t-17.5 46.5zM26 -240q-26 0 -47.5 3.5t-36.5 8.5v85q16 -5 32 -7.5t36 -2.5q31 0 52 17.5t21 66.5v608h106v-613q0 -75 -38.5 -120.5t-124.5 -45.5z" />
    <glyph glyph-name="k" unicode="k" horiz-adv-x="559" 
d="M188 380q0 -20 -2 -48t-3 -50h3q11 15 30.5 39.5t34.5 40.5l165 177h123l-217 -231l231 -308h-125l-178 241l-62 -52v-189h-105v760h105v-380z" />
    <glyph glyph-name="l" unicode="l" horiz-adv-x="272" 
d="M189 0h-106v760h106v-760z" />
    <glyph glyph-name="m" unicode="m" horiz-adv-x="949" 
d="M687 549q91 0 137 -47t46 -151v-351h-106v337q0 125 -101 125q-72 0 -103 -44.5t-31 -127.5v-290h-105v337q0 125 -102 125q-76 0 -104.5 -49t-28.5 -141v-272h-106v539h84l15 -72h6q24 42 67 62t91 20q125 0 164 -87h8q26 45 72 66t97 21z" />
    <glyph glyph-name="n" unicode="n" horiz-adv-x="630" 
d="M356 549q94 0 144 -47t50 -151v-351h-105v336q0 126 -111 126q-83 0 -114 -49t-31 -141v-272h-106v539h84l15 -72h6q26 42 71.5 62t96.5 20z" />
    <glyph glyph-name="o" unicode="o" horiz-adv-x="609" 
d="M558 270q0 -134 -69 -207t-186 -73q-73 0 -129.5 33t-89 95.5t-32.5 151.5q0 134 68 206.5t186 72.5q74 0 130.5 -32.5t89 -94.5t32.5 -152zM161 270q0 -91 34.5 -142t109.5 -51t109.5 51t34.5 142q0 92 -35 141.5t-110 49.5t-109 -49.5t-34 -141.5z" />
    <glyph glyph-name="p" unicode="p" horiz-adv-x="620" 
d="M352 549q97 0 156.5 -70t59.5 -209q0 -137 -60 -208.5t-157 -71.5q-62 0 -100.5 22.5t-61.5 53.5h-7q3 -18 5 -42.5t2 -43.5v-220h-106v779h86l15 -72h5q23 34 61.5 58t101.5 24zM327 462q-75 0 -106 -43.5t-32 -131.5v-16q0 -93 30 -143.5t110 -50.5q66 0 98 54t32 141
q0 88 -32 139t-100 51z" />
    <glyph glyph-name="q" unicode="q" horiz-adv-x="620" 
d="M431 -11q0 19 1.5 42t4.5 41h-6q-23 -35 -62.5 -58.5t-101.5 -23.5q-96 0 -155.5 70t-59.5 208q0 139 60.5 210t157.5 71q62 0 101 -24t63 -58h4l13 72h86v-779h-106v229zM294 76q76 0 108 43t33 130v18q0 96 -31 145.5t-112 49.5q-66 0 -98.5 -52.5t-32.5 -143.5
t32.5 -140.5t100.5 -49.5z" />
    <glyph glyph-name="r" unicode="r" horiz-adv-x="425" 
d="M349 549q14 0 30.5 -1.5t28.5 -3.5l-11 -99q-26 7 -54 7q-40 0 -75.5 -20t-57 -57.5t-21.5 -90.5v-284h-106v539h84l14 -96h4q26 43 67 74.5t97 31.5z" />
    <glyph glyph-name="s" unicode="s" horiz-adv-x="484" 
d="M441 152q0 -79 -58 -120.5t-161 -41.5q-57 0 -97.5 8.5t-74.5 24.5v93q35 -17 82.5 -30.5t92.5 -13.5q60 0 86.5 19t26.5 51q0 18 -10 32.5t-37.5 30t-80.5 35.5q-52 21 -87.5 41.5t-54.5 49t-19 73.5q0 70 56.5 107.5t149.5 37.5q49 0 92.5 -10t84.5 -28l-35 -81
q-35 15 -72 25.5t-75 10.5q-48 0 -73 -15t-25 -42q0 -19 12 -33t40.5 -28t78.5 -34q50 -19 85.5 -39t54 -49t18.5 -74z" />
    <glyph glyph-name="t" unicode="t" horiz-adv-x="383" 
d="M277 76q21 0 43 3.5t38 9.5v-80q-18 -8 -46.5 -13.5t-57.5 -5.5q-44 0 -81 15t-58.5 52t-21.5 103v298h-75v48l79 40l37 114h65v-121h154v-81h-154v-296q0 -44 21.5 -65t56.5 -21z" />
    <glyph glyph-name="u" unicode="u" horiz-adv-x="630" 
d="M547 539v-539h-85l-15 71h-5q-26 -42 -72 -61.5t-97 -19.5q-95 0 -145 47t-50 149v353h107v-337q0 -125 109 -125q83 0 115 49t32 140v273h106z" />
    <glyph glyph-name="v" unicode="v" horiz-adv-x="526" 
d="M204 0l-204 539h112l112 -315q11 -31 22 -69.5t14 -63.5h4q4 25 16 64t22 69l112 315h112l-205 -539h-117z" />
    <glyph glyph-name="w" unicode="w" horiz-adv-x="807" 
d="M447 270q-8 26 -16.5 60t-15.5 64.5t-11 46.5h-4q-3 -16 -10 -47t-15.5 -65t-16.5 -60l-80 -268h-118l-149 539h108l70 -273q11 -42 20.5 -89.5t13.5 -76.5h4q3 17 8.5 45t12 56.5t12.5 46.5l86 291h116l84 -291q6 -20 13 -47.5t12.5 -54t7.5 -45.5h4q2 16 7 44t12.5 60
t14.5 61l72 273h107l-151 -539h-121z" />
    <glyph glyph-name="x" unicode="x" horiz-adv-x="543" 
d="M206 275l-183 264h121l128 -194l128 194h120l-183 -264l192 -275h-120l-137 206l-138 -206h-120z" />
    <glyph glyph-name="y" unicode="y" horiz-adv-x="527" 
d="M1 539h114l112 -306q13 -35 22.5 -67.5t14.5 -63.5h4q5 26 15.5 61t23.5 71l106 305h114l-231 -612q-29 -78 -77.5 -122.5t-126.5 -44.5q-25 0 -43 2.5t-31 5.5v84q10 -2 26 -4t33 -2q46 0 74 26.5t44 69.5l22 58z" />
    <glyph glyph-name="z" unicode="z" horiz-adv-x="475" 
d="M439 0h-404v67l278 390h-261v82h379v-75l-272 -382h280v-82z" />
    <glyph glyph-name="braceleft" unicode="{" horiz-adv-x="384" 
d="M350 -158q-103 1 -153 37.5t-50 114.5v149q0 50 -31.5 71t-91.5 21v86q60 1 91.5 21.5t31.5 69.5v150q0 78 51.5 115t151.5 37v-83q-48 -1 -76 -20.5t-28 -66.5v-144q0 -100 -110 -118v-6q110 -19 110 -118v-147q0 -47 27.5 -66t76.5 -20v-83z" />
    <glyph glyph-name="bar" unicode="|" horiz-adv-x="551" 
d="M234 759h83v-996h-83v996z" />
    <glyph glyph-name="braceright" unicode="}" horiz-adv-x="384" 
d="M34 -75q48 1 76 20.5t28 66.5v145q0 99 110 118v6q-110 19 -110 118v146q0 47 -27.5 66t-76.5 20v83q103 -1 153 -37.5t50 -114.5v-149q0 -50 31.5 -71t91.5 -21v-86q-60 0 -91.5 -21t-31.5 -70v-150q0 -78 -51.5 -115t-151.5 -37v83z" />
    <glyph glyph-name="asciitilde" unicode="~" horiz-adv-x="572" 
d="M269 314q-37 15 -61 21t-46 6q-28 0 -59 -17.5t-55 -41.5v88q49 53 121 53q29 0 58 -6t75 -26q37 -15 61 -21t45 -6q29 0 60 17.5t55 41.5v-87q-49 -54 -121 -54q-29 0 -58.5 6t-74.5 26z" />
    <glyph glyph-name="uni00A0" unicode="&#xa0;" horiz-adv-x="260" 
 />
    <glyph glyph-name="exclamdown" unicode="&#xa1;" horiz-adv-x="274" 
d="M205 474q0 -40 -20 -56t-49 -16q-28 0 -48 16t-20 56q0 38 20 55t48 17q29 0 49 -17t20 -55zM98 320h76l25 -501h-126z" />
    <glyph glyph-name="cent" unicode="&#xa2;" horiz-adv-x="572" 
d="M356 645q40 -2 75 -10.5t61 -20.5l-32 -86q-28 12 -60.5 20t-60.5 8q-74 0 -110 -48t-36 -145q0 -98 36.5 -142.5t107.5 -44.5q44 0 77 8.5t66 23.5v-91q-28 -14 -57.5 -22t-67.5 -9v-96h-73v99q-91 13 -144 76.5t-53 196.5q0 92 24.5 150t69 89t103.5 40v83h74v-79z" />
    <glyph glyph-name="sterling" unicode="&#xa3;" horiz-adv-x="572" 
d="M336 723q55 0 100 -11.5t81 -28.5l-35 -83q-31 14 -67 25t-74 11q-49 0 -77 -26.5t-28 -86.5v-125h197v-79h-197v-94q0 -58 -22 -87t-48 -44h374v-94h-506v88q43 13 69.5 43t26.5 93v95h-93v79h93v132q0 95 57.5 144t148.5 49z" />
    <glyph glyph-name="currency" unicode="&#xa4;" horiz-adv-x="572" 
d="M91 353q0 29 8.5 56t23.5 50l-65 66l56 54l64 -63q23 15 50.5 23.5t57.5 8.5q29 0 55.5 -8.5t50.5 -23.5l65 63l55 -53l-63 -66q14 -22 23 -50t9 -57q0 -60 -32 -108l62 -64l-54 -54l-65 63q-23 -14 -50 -22.5t-56 -8.5q-62 0 -108 32l-64 -63l-55 54l64 64
q-15 23 -23.5 50.5t-8.5 56.5zM168 353q0 -33 15.5 -59.5t42.5 -42.5t60 -16t60 16t43 42.5t16 59.5t-16 60.5t-43 43.5t-60 16t-60 -16t-42.5 -43.5t-15.5 -60.5z" />
    <glyph glyph-name="yen" unicode="&#xa5;" horiz-adv-x="572" 
d="M285 381l164 333h110l-197 -372h116v-71h-142v-77h142v-71h-142v-123h-102v123h-142v71h142v77h-142v71h113l-194 372h111z" />
    <glyph glyph-name="brokenbar" unicode="&#xa6;" horiz-adv-x="551" 
d="M234 759h83v-386h-83v386zM234 149h83v-386h-83v386z" />
    <glyph glyph-name="section" unicode="&#xa7;" horiz-adv-x="505" 
d="M65 394q0 47 22.5 77.5t52.5 46.5q-35 20 -54 47.5t-19 67.5q0 61 52 96.5t145 35.5q54 0 94 -10t79 -26l-31 -75q-34 14 -68 25t-79 11q-54 0 -76.5 -14.5t-22.5 -40.5q0 -27 26.5 -46t96.5 -45q75 -28 118 -65t43 -97q0 -50 -21 -81.5t-50 -49.5q34 -18 52 -44.5
t18 -64.5q0 -70 -57.5 -109t-159.5 -39q-55 0 -96 9t-73 25v83q34 -16 81 -29.5t91 -13.5q69 0 94.5 20t25.5 47q0 18 -9 31.5t-35 28t-77 34.5q-52 19 -88.5 40.5t-55.5 51t-19 73.5zM150 404q0 -35 30 -60t104 -53l17 -6q21 12 39 32.5t18 51.5q0 24 -12.5 43t-44 36.5
t-88.5 36.5q-24 -8 -43.5 -29t-19.5 -52z" />
    <glyph glyph-name="dieresis" unicode="&#xa8;" horiz-adv-x="588" 
d="M145 682q0 29 15.5 41.5t37.5 12.5t38 -12.5t16 -41.5q0 -27 -16 -40.5t-38 -13.5t-37.5 13.5t-15.5 40.5zM336 682q0 29 15.5 41.5t37.5 12.5q21 0 37 -12.5t16 -41.5q0 -27 -16 -40.5t-37 -13.5q-22 0 -37.5 13.5t-15.5 40.5z" />
    <glyph glyph-name="copyright" unicode="&#xa9;" horiz-adv-x="832" 
d="M416 -10q-80 0 -147 27t-116.5 76.5t-76.5 116.5t-27 147q0 79 27.5 146t77 116.5t116.5 77t146 27.5q76 0 142.5 -27t117 -76.5t79 -116.5t28.5 -147t-27 -147t-76.5 -116.5t-116.5 -76.5t-147 -27zM416 46q63 0 118.5 23t98 64.5t66 98.5t23.5 125q0 64 -22.5 120.5
t-64 99.5t-97 67t-122.5 24q-89 0 -158.5 -40t-109 -110t-39.5 -161q0 -87 39.5 -157.5t108.5 -112t159 -41.5zM431 132q-100 0 -149.5 61.5t-49.5 163.5q0 65 23.5 116t68.5 80t111 29q65 0 123 -30l-29 -63q-50 26 -93 26q-59 0 -91.5 -42t-32.5 -116q0 -76 28.5 -117.5
t94.5 -41.5q23 0 51.5 6.5t53.5 16.5v-65q-24 -11 -49 -17.5t-60 -6.5z" />
    <glyph glyph-name="ordfeminine" unicode="&#xaa;" horiz-adv-x="365" 
d="M184 722q133 0 133 -119v-219h-52l-13 46q-21 -23 -49.5 -37.5t-65.5 -14.5q-49 0 -78.5 25t-29.5 77q0 53 41 78.5t121 28.5l54 2v18q0 30 -19.5 43t-49.5 13q-26 0 -52 -7.5t-50 -19.5l-25 54q28 13 62 22.5t73 9.5zM197 538q-56 -3 -74.5 -18t-18.5 -39t13.5 -34.5
t35.5 -10.5q47 0 69.5 22.5t22.5 60.5v21z" />
    <glyph glyph-name="guillemotleft" unicode="&#xab;" horiz-adv-x="540" 
d="M40 273l172 207l76 -42l-139 -171l139 -171l-76 -43l-172 207v13zM252 273l174 207l75 -42l-139 -171l139 -171l-75 -43l-174 207v13z" />
    <glyph glyph-name="logicalnot" unicode="&#xac;" horiz-adv-x="572" 
d="M522 393v-267h-81v186h-393v81h474z" />
    <glyph glyph-name="uni00AD" unicode="&#xad;" horiz-adv-x="322" 
d="M37 223v90h248v-90h-248z" />
    <glyph glyph-name="registered" unicode="&#xae;" horiz-adv-x="832" 
d="M416 -10q-80 0 -147 27t-116.5 76.5t-76.5 116.5t-27 147q0 79 27.5 146t77 116.5t116.5 77t146 27.5q76 0 142.5 -27t117 -76.5t79 -116.5t28.5 -147t-27 -147t-76.5 -116.5t-116.5 -76.5t-147 -27zM416 46q63 0 118.5 23t98 64.5t66 98.5t23.5 125q0 64 -22.5 120.5
t-64 99.5t-97 67t-122.5 24q-89 0 -158.5 -40t-109 -110t-39.5 -161q0 -87 39.5 -157.5t108.5 -112t159 -41.5zM278 138v438h129q82 0 120 -32.5t38 -97.5q0 -47 -24 -74.5t-54 -39.5l116 -194h-87l-99 172h-62v-172h-77zM405 373q39 0 60.5 20t21.5 51q0 35 -19.5 51
t-63.5 16h-49v-138h50z" />
    <glyph glyph-name="overscore" unicode="&#xaf;" horiz-adv-x="500" 
d="M503 760h-506v75h506v-75z" />
    <glyph glyph-name="degree" unicode="&#xb0;" horiz-adv-x="428" 
d="M214 408q-74 0 -119 44t-45 114q0 69 44.5 113.5t119.5 44.5q72 0 117.5 -44t45.5 -114t-45.5 -114t-117.5 -44zM215 477q43 0 65.5 24.5t22.5 64.5q0 41 -23.5 65.5t-64.5 24.5q-44 0 -67 -24.5t-23 -65.5q0 -40 23 -64.5t67 -24.5z" />
    <glyph glyph-name="plusminus" unicode="&#xb1;" horiz-adv-x="572" 
d="M326 404h196v-81h-196v-201h-82v201h-196v81h196v202h82v-202zM48 0v82h475v-82h-475z" />
    <glyph glyph-name="uni00B2" unicode="&#xb2;" horiz-adv-x="359" 
d="M317 416h-292v62l113 111q38 36 57.5 59t27 41t7.5 39q0 28 -17 42.5t-43 14.5q-27 0 -51 -11.5t-49 -31.5l-43 54q30 26 66 41.5t82 15.5q64 0 101.5 -31.5t37.5 -87.5q0 -48 -28.5 -86.5t-84.5 -91.5l-72 -67h188v-73z" />
    <glyph glyph-name="uni00B3" unicode="&#xb3;" horiz-adv-x="359" 
d="M171 853q68 0 105 -31t37 -80q0 -38 -21 -63.5t-55 -36.5v-4q42 -9 65.5 -35t23.5 -65q0 -58 -42.5 -94t-131.5 -36q-37 0 -69 7t-62 23v72q33 -18 66.5 -27.5t65.5 -9.5q47 0 69 18t22 51q0 64 -102 64h-56v61h53q51 0 71.5 18.5t20.5 46.5t-18 42t-46 14t-53 -10
t-52 -28l-40 53q31 22 66 36t83 14z" />
    <glyph glyph-name="acute" unicode="&#xb4;" horiz-adv-x="305" 
d="M265 756q-15 -18 -42 -47t-58 -57t-55 -46h-70v12q15 19 34 45t37 53.5t30 49.5h124v-10z" />
    <glyph glyph-name="uni00B5" unicode="&#xb5;" horiz-adv-x="634" 
d="M551 539v-539h-83l-16 72h-6q-24 -40 -60.5 -61t-89.5 -21q-36 0 -63 12t-45 33h-4q2 -18 3.5 -50t1.5 -69v-156h-106v779h106v-338q0 -124 111 -124q82 0 113.5 49t31.5 140v273h106z" />
    <glyph glyph-name="paragraph" unicode="&#xb6;" horiz-adv-x="655" 
d="M555 -127h-64v819h-96v-819h-64v400q-15 -4 -34 -6.5t-37 -2.5q-62 0 -108 23t-71.5 77t-25.5 145q0 96 27.5 150.5t77.5 77.5t115 23h280v-887z" />
    <glyph glyph-name="periodcentered" unicode="&#xb7;" horiz-adv-x="273" 
d="M68 353q0 39 19.5 55t48.5 16q28 0 48.5 -16t20.5 -55t-20.5 -56t-48.5 -17q-29 0 -48.5 17t-19.5 56z" />
    <glyph glyph-name="cedilla" unicode="&#xb8;" horiz-adv-x="219" 
d="M210 -134q0 -50 -36 -78t-113 -28q-34 0 -56 6v63q25 -6 58 -6q29 0 45.5 8.5t16.5 31.5q0 24 -24 36.5t-64 17.5l42 83h68l-22 -46q34 -9 59.5 -29.5t25.5 -58.5z" />
    <glyph glyph-name="uni00B9" unicode="&#xb9;" horiz-adv-x="359" 
d="M253 844v-428h-84v259q0 24 1.5 49t2.5 43q-9 -8 -21 -19t-23 -19l-49 -37l-41 53l135 99h79z" />
    <glyph glyph-name="ordmasculine" unicode="&#xba;" horiz-adv-x="380" 
d="M349 551q0 -82 -43.5 -127.5t-116.5 -45.5q-69 0 -113.5 44.5t-44.5 128.5q0 82 43 126.5t117 44.5q70 0 114 -44t44 -127zM104 551q0 -56 20 -84t66 -28q44 0 64.5 28t20.5 84t-20.5 83t-64.5 27q-45 0 -65.5 -27t-20.5 -83z" />
    <glyph glyph-name="guillemotright" unicode="&#xbb;" horiz-adv-x="540" 
d="M500 260l-173 -207l-75 43l139 171l-139 171l75 42l173 -207v-13zM287 260l-172 -207l-76 43l139 171l-139 171l76 42l172 -207v-13z" />
    <glyph glyph-name="onequarter" unicode="&#xbc;" horiz-adv-x="770" 
d="M135 0l424 714h87l-424 -714h-87zM160 545q0 24 1.5 49t2.5 43q-9 -8 -21 -19t-23 -19l-49 -37l-41 53l135 99h79v-428h-84v259zM613 0v90h-193v58l195 283h85v-275h61v-66h-61v-90h-87zM496 156h117v89q0 21 0.5 47.5t2.5 50.5q-5 -12 -19.5 -36.5t-25.5 -40.5z" />
    <glyph glyph-name="onehalf" unicode="&#xbd;" horiz-adv-x="801" 
d="M114 0l424 714h87l-424 -714h-87zM152 545q0 24 1 49t3 43q-9 -8 -21 -19t-23 -19l-50 -37l-40 53l135 99h79v-428h-84v259zM468 0v62l113 111q37 36 57 59t27 41t7 39q0 28 -16.5 42.5t-43.5 14.5q-26 0 -50 -11.5t-50 -31.5l-42 54q30 26 66 41.5t82 15.5
q64 0 101.5 -31.5t37.5 -87.5q0 -48 -28.5 -86.5t-84.5 -91.5l-72 -67h188v-73h-292z" />
    <glyph glyph-name="threequarters" unicode="&#xbe;" horiz-adv-x="800" 
d="M155 278q-37 0 -69 7t-62 23v72q33 -18 66.5 -27.5t65.5 -9.5q47 0 69 18t22 51q0 64 -102 64h-56v61h53q51 0 71.5 18.5t20.5 46.5t-18 42t-46 14t-53 -10t-52 -28l-40 53q31 22 66 36t83 14q68 0 105 -31t37 -80q0 -38 -21 -63.5t-55 -36.5v-4q42 -9 65.5 -35t23.5 -65
q0 -58 -42.5 -94t-131.5 -36zM176 0l424 714h88l-424 -714h-88zM643 0v90h-193v58l194 283h86v-275h61v-66h-61v-90h-87zM526 156h117v89q0 21 0.5 47.5t2.5 50.5q-5 -12 -20 -36.5t-25 -40.5z" />
    <glyph glyph-name="questiondown" unicode="&#xbf;" horiz-adv-x="447" 
d="M329 473q0 -39 -20 -55t-50 -16q-27 0 -47.5 16t-20.5 55t20.5 56t47.5 17q30 0 50 -17t20 -56zM308 291q0 -55 -19 -90.5t-68 -75.5q-36 -29 -57 -49.5t-29.5 -40.5t-8.5 -48q0 -43 29 -66t82 -23q48 0 86.5 12.5t75.5 30.5l38 -80q-43 -23 -94 -38t-113 -15
q-98 0 -151.5 48t-53.5 128q0 43 14 74.5t40.5 57.5t63.5 56q32 26 48.5 45t22.5 38t6 45v20h88v-29z" />
    <glyph glyph-name="Agrave" unicode="&#xc0;" horiz-adv-x="654" 
d="M540 0l-76 206h-276l-76 -206h-112l271 717h112l270 -717h-113zM362 501q-3 11 -10.5 33t-14.5 46t-11 39q-8 -31 -18 -66t-16 -52l-72 -201h214zM304 941q12 -22 30 -49.5t37 -53.5t35 -45v-12h-71q-24 18 -54.5 46t-58 57t-41.5 47v10h123z" />
    <glyph glyph-name="Aacute" unicode="&#xc1;" horiz-adv-x="654" 
d="M540 0l-76 206h-276l-76 -206h-112l271 717h112l270 -717h-113zM362 501q-3 11 -10.5 33t-14.5 46t-11 39q-8 -31 -18 -66t-16 -52l-72 -201h214zM493 931q-15 -18 -42 -47t-58 -57t-55 -46h-70v12q15 19 34 45t37 53.5t30 49.5h124v-10z" />
    <glyph glyph-name="Acircumflex" unicode="&#xc2;" horiz-adv-x="654" 
d="M540 0l-76 206h-276l-76 -206h-112l271 717h112l270 -717h-113zM362 501q-3 11 -10.5 33t-14.5 46t-11 39q-8 -31 -18 -66t-16 -52l-72 -201h214zM382 941q13 -22 35.5 -49.5t47 -54t42.5 -44.5v-12h-73q-26 16 -54.5 39t-55.5 50q-54 -55 -108 -89h-72v12q19 19 42.5 45
t45.5 53.5t36 49.5h114z" />
    <glyph glyph-name="Atilde" unicode="&#xc3;" horiz-adv-x="654" 
d="M540 0l-76 206h-276l-76 -206h-112l271 717h112l270 -717h-113zM362 501q-3 11 -10.5 33t-14.5 46t-11 39q-8 -31 -18 -66t-16 -52l-72 -201h214zM137 781q6 64 37 99t80 35q28 0 54.5 -13.5t50.5 -27.5t46 -14q39 0 53 56h57q-6 -64 -37 -99t-79 -35q-27 0 -53.5 13.5
t-51 27.5t-46.5 14q-41 0 -54 -56h-57z" />
    <glyph glyph-name="Adieresis" unicode="&#xc4;" horiz-adv-x="654" 
d="M540 0l-76 206h-276l-76 -206h-112l271 717h112l270 -717h-113zM362 501q-3 11 -10.5 33t-14.5 46t-11 39q-8 -31 -18 -66t-16 -52l-72 -201h214zM178 857q0 29 15.5 41.5t37.5 12.5t38 -12.5t16 -41.5q0 -27 -16 -40.5t-38 -13.5t-37.5 13.5t-15.5 40.5zM369 857
q0 29 15.5 41.5t37.5 12.5q21 0 37 -12.5t16 -41.5q0 -27 -16 -40.5t-37 -13.5q-22 0 -37.5 13.5t-15.5 40.5z" />
    <glyph glyph-name="Aring" unicode="&#xc5;" horiz-adv-x="654" 
d="M540 0l-76 206h-276l-76 -206h-112l271 717h112l270 -717h-113zM362 501q-3 11 -10.5 33t-14.5 46t-11 39q-8 -31 -18 -66t-16 -52l-72 -201h214zM325 662q-51 0 -82 28.5t-31 80.5q0 50 31 79t82 29q48 0 81 -28.5t33 -78.5q0 -52 -32.5 -81t-81.5 -29zM325 717
q23 0 38 14.5t15 39.5t-15.5 39t-37.5 14q-23 0 -38.5 -14t-15.5 -39t14 -39.5t40 -14.5z" />
    <glyph glyph-name="AE" unicode="&#xc6;" horiz-adv-x="902" 
d="M842 0h-388v206h-247l-97 -206h-111l334 714h509v-92h-280v-204h262v-91h-262v-234h280v-93zM248 300h206v320h-59z" />
    <glyph glyph-name="Ccedilla" unicode="&#xc7;" horiz-adv-x="633" 
d="M400 631q-107 0 -167 -73.5t-60 -201.5q0 -127 56 -200t170 -73q46 0 88.5 8.5t86.5 22.5v-93q-42 -16 -85.5 -23.5t-102.5 -7.5q-110 0 -182 45.5t-108 128t-36 193.5q0 108 39.5 191t115.5 129.5t186 46.5q54 0 105.5 -11.5t94.5 -32.5l-40 -90q-35 16 -75.5 28.5
t-85.5 12.5zM477 -134q0 -50 -36 -78t-113 -28q-34 0 -56 6v63q25 -6 58 -6q29 0 45.5 8.5t16.5 31.5q0 24 -24 36.5t-64 17.5l42 83h68l-22 -46q34 -9 59.5 -29.5t25.5 -58.5z" />
    <glyph glyph-name="Egrave" unicode="&#xc8;" horiz-adv-x="557" 
d="M497 0h-402v714h402v-92h-294v-204h276v-91h-276v-234h294v-93zM282 941q12 -22 30 -49.5t37 -53.5t35 -45v-12h-71q-24 18 -54.5 46t-58 57t-41.5 47v10h123z" />
    <glyph glyph-name="Eacute" unicode="&#xc9;" horiz-adv-x="557" 
d="M497 0h-402v714h402v-92h-294v-204h276v-91h-276v-234h294v-93zM471 931q-15 -18 -42 -47t-58 -57t-55 -46h-70v12q15 19 34 45t37 53.5t30 49.5h124v-10z" />
    <glyph glyph-name="Ecircumflex" unicode="&#xca;" horiz-adv-x="557" 
d="M497 0h-402v714h402v-92h-294v-204h276v-91h-276v-234h294v-93zM360 941q13 -22 35.5 -49.5t47 -54t42.5 -44.5v-12h-73q-26 16 -54.5 39t-55.5 50q-54 -55 -108 -89h-72v12q19 19 42.5 45t45.5 53.5t36 49.5h114z" />
    <glyph glyph-name="Edieresis" unicode="&#xcb;" horiz-adv-x="557" 
d="M497 0h-402v714h402v-92h-294v-204h276v-91h-276v-234h294v-93zM155 857q0 29 15.5 41.5t37.5 12.5t38 -12.5t16 -41.5q0 -27 -16 -40.5t-38 -13.5t-37.5 13.5t-15.5 40.5zM346 857q0 29 15.5 41.5t37.5 12.5q21 0 37 -12.5t16 -41.5q0 -27 -16 -40.5t-37 -13.5
q-22 0 -37.5 13.5t-15.5 40.5z" />
    <glyph glyph-name="Igrave" unicode="&#xcc;" horiz-adv-x="354" 
d="M315 0h-277v62l85 25v539l-85 26v62h277v-62l-84 -26v-539l84 -25v-62zM155 941q12 -22 30 -49.5t37 -53.5t35 -45v-12h-71q-24 18 -54.5 46t-58 57t-41.5 47v10h123z" />
    <glyph glyph-name="Iacute" unicode="&#xcd;" horiz-adv-x="354" 
d="M315 0h-277v62l85 25v539l-85 26v62h277v-62l-84 -26v-539l84 -25v-62zM344 931q-15 -18 -42 -47t-58 -57t-55 -46h-70v12q15 19 34 45t37 53.5t30 49.5h124v-10z" />
    <glyph glyph-name="Icircumflex" unicode="&#xce;" horiz-adv-x="354" 
d="M315 0h-277v62l85 25v539l-85 26v62h277v-62l-84 -26v-539l84 -25v-62zM234 941q13 -22 35.5 -49.5t47 -54t42.5 -44.5v-12h-73q-26 16 -54.5 39t-55.5 50q-54 -55 -108 -89h-72v12q19 19 42.5 45t45.5 53.5t36 49.5h114z" />
    <glyph glyph-name="Idieresis" unicode="&#xcf;" horiz-adv-x="354" 
d="M315 0h-277v62l85 25v539l-85 26v62h277v-62l-84 -26v-539l84 -25v-62zM29 857q0 29 15.5 41.5t37.5 12.5t38 -12.5t16 -41.5q0 -27 -16 -40.5t-38 -13.5t-37.5 13.5t-15.5 40.5zM220 857q0 29 15.5 41.5t37.5 12.5q21 0 37 -12.5t16 -41.5q0 -27 -16 -40.5t-37 -13.5
q-22 0 -37.5 13.5t-15.5 40.5z" />
    <glyph glyph-name="Eth" unicode="&#xd0;" horiz-adv-x="733" 
d="M316 714q109 0 189 -40t124 -117.5t44 -192.5q0 -181 -100 -272.5t-279 -91.5h-194v307h-72v92h72v315h216zM309 623h-101v-224h160v-92h-160v-216h82q270 0 270 270q0 135 -66 198.5t-185 63.5z" />
    <glyph glyph-name="Ntilde" unicode="&#xd1;" horiz-adv-x="776" 
d="M681 0h-131l-361 577h-4q2 -40 5 -91.5t3 -105.5v-380h-98v714h130l360 -574h3q-1 21 -2.5 53t-2.5 68.5t-2 68.5v384h100v-714zM199 781q6 64 37 99t80 35q28 0 54.5 -13.5t50.5 -27.5t46 -14q39 0 53 56h57q-6 -64 -37 -99t-79 -35q-27 0 -53.5 13.5t-51 27.5t-46.5 14
q-41 0 -54 -56h-57z" />
    <glyph glyph-name="Ograve" unicode="&#xd2;" horiz-adv-x="785" 
d="M725 358q0 -111 -37 -193.5t-111 -128.5t-184 -46q-113 0 -187 46t-110 129t-36 194q0 110 36.5 192t110.5 128t187 46q110 0 183.5 -45.5t110.5 -128t37 -193.5zM174 358q0 -128 53 -202t166 -74q114 0 166 74t52 202t-51.5 201t-165.5 73t-167 -73t-53 -201zM371 941
q12 -22 30 -49.5t37 -53.5t35 -45v-12h-71q-24 18 -54.5 46t-58 57t-41.5 47v10h123z" />
    <glyph glyph-name="Oacute" unicode="&#xd3;" horiz-adv-x="785" 
d="M725 358q0 -111 -37 -193.5t-111 -128.5t-184 -46q-113 0 -187 46t-110 129t-36 194q0 110 36.5 192t110.5 128t187 46q110 0 183.5 -45.5t110.5 -128t37 -193.5zM174 358q0 -128 53 -202t166 -74q114 0 166 74t52 202t-51.5 201t-165.5 73t-167 -73t-53 -201zM560 931
q-15 -18 -42 -47t-58 -57t-55 -46h-70v12q15 19 34 45t37 53.5t30 49.5h124v-10z" />
    <glyph glyph-name="Ocircumflex" unicode="&#xd4;" horiz-adv-x="785" 
d="M725 358q0 -111 -37 -193.5t-111 -128.5t-184 -46q-113 0 -187 46t-110 129t-36 194q0 110 36.5 192t110.5 128t187 46q110 0 183.5 -45.5t110.5 -128t37 -193.5zM174 358q0 -128 53 -202t166 -74q114 0 166 74t52 202t-51.5 201t-165.5 73t-167 -73t-53 -201zM449 941
q13 -22 35.5 -49.5t47 -54t42.5 -44.5v-12h-73q-26 16 -54.5 39t-55.5 50q-54 -55 -108 -89h-72v12q19 19 42.5 45t45.5 53.5t36 49.5h114z" />
    <glyph glyph-name="Otilde" unicode="&#xd5;" horiz-adv-x="785" 
d="M725 358q0 -111 -37 -193.5t-111 -128.5t-184 -46q-113 0 -187 46t-110 129t-36 194q0 110 36.5 192t110.5 128t187 46q110 0 183.5 -45.5t110.5 -128t37 -193.5zM174 358q0 -128 53 -202t166 -74q114 0 166 74t52 202t-51.5 201t-165.5 73t-167 -73t-53 -201zM204 781
q6 64 37 99t80 35q28 0 54.5 -13.5t50.5 -27.5t46 -14q39 0 53 56h57q-6 -64 -37 -99t-79 -35q-27 0 -53.5 13.5t-51 27.5t-46.5 14q-41 0 -54 -56h-57z" />
    <glyph glyph-name="Odieresis" unicode="&#xd6;" horiz-adv-x="785" 
d="M725 358q0 -111 -37 -193.5t-111 -128.5t-184 -46q-113 0 -187 46t-110 129t-36 194q0 110 36.5 192t110.5 128t187 46q110 0 183.5 -45.5t110.5 -128t37 -193.5zM174 358q0 -128 53 -202t166 -74q114 0 166 74t52 202t-51.5 201t-165.5 73t-167 -73t-53 -201zM245 857
q0 29 15.5 41.5t37.5 12.5t38 -12.5t16 -41.5q0 -27 -16 -40.5t-38 -13.5t-37.5 13.5t-15.5 40.5zM436 857q0 29 15.5 41.5t37.5 12.5q21 0 37 -12.5t16 -41.5q0 -27 -16 -40.5t-37 -13.5q-22 0 -37.5 13.5t-15.5 40.5z" />
    <glyph glyph-name="multiply" unicode="&#xd7;" horiz-adv-x="572" 
d="M449 574l58 -57l-164 -164l162 -164l-56 -57l-165 162l-161 -162l-58 58l162 163l-163 163l58 58l163 -163z" />
    <glyph glyph-name="Oslash" unicode="&#xd8;" horiz-adv-x="785" 
d="M725 358q0 -111 -37 -193.5t-111 -128.5t-184 -46q-107 0 -179 43l-47 -68l-66 44l50 72q-46 48 -68.5 119t-22.5 159q0 110 36.5 192t110.5 128t187 46q51 0 95 -11t80 -31l45 65l66 -44l-49 -69q94 -98 94 -277zM174 358q0 -57 10 -103t31 -81l298 427q-48 31 -119 31
q-114 0 -167 -73t-53 -201zM611 358q0 117 -43 185l-297 -428q23 -15 54 -24t68 -9q114 0 166 74t52 202z" />
    <glyph glyph-name="Ugrave" unicode="&#xd9;" horiz-adv-x="738" 
d="M649 252q0 -74 -31 -133.5t-93.5 -94t-158.5 -34.5q-136 0 -206.5 72.5t-70.5 191.5v460h108v-455q0 -177 174 -177q90 0 130.5 48t40.5 130v454h107v-462zM347 941q12 -22 30 -49.5t37 -53.5t35 -45v-12h-71q-24 18 -54.5 46t-58 57t-41.5 47v10h123z" />
    <glyph glyph-name="Uacute" unicode="&#xda;" horiz-adv-x="738" 
d="M649 252q0 -74 -31 -133.5t-93.5 -94t-158.5 -34.5q-136 0 -206.5 72.5t-70.5 191.5v460h108v-455q0 -177 174 -177q90 0 130.5 48t40.5 130v454h107v-462zM536 931q-15 -18 -42 -47t-58 -57t-55 -46h-70v12q15 19 34 45t37 53.5t30 49.5h124v-10z" />
    <glyph glyph-name="Ucircumflex" unicode="&#xdb;" horiz-adv-x="738" 
d="M649 252q0 -74 -31 -133.5t-93.5 -94t-158.5 -34.5q-136 0 -206.5 72.5t-70.5 191.5v460h108v-455q0 -177 174 -177q90 0 130.5 48t40.5 130v454h107v-462zM426 941q13 -22 35.5 -49.5t47 -54t42.5 -44.5v-12h-73q-26 16 -54.5 39t-55.5 50q-54 -55 -108 -89h-72v12
q19 19 42.5 45t45.5 53.5t36 49.5h114z" />
    <glyph glyph-name="Udieresis" unicode="&#xdc;" horiz-adv-x="738" 
d="M649 252q0 -74 -31 -133.5t-93.5 -94t-158.5 -34.5q-136 0 -206.5 72.5t-70.5 191.5v460h108v-455q0 -177 174 -177q90 0 130.5 48t40.5 130v454h107v-462zM221 857q0 29 15.5 41.5t37.5 12.5t38 -12.5t16 -41.5q0 -27 -16 -40.5t-38 -13.5t-37.5 13.5t-15.5 40.5z
M412 857q0 29 15.5 41.5t37.5 12.5q21 0 37 -12.5t16 -41.5q0 -27 -16 -40.5t-37 -13.5q-22 0 -37.5 13.5t-15.5 40.5z" />
    <glyph glyph-name="Yacute" unicode="&#xdd;" horiz-adv-x="583" 
d="M292 380l175 334h116l-238 -437v-277h-107v273l-238 441h117zM458 931q-15 -18 -42 -47t-58 -57t-55 -46h-70v12q15 19 34 45t37 53.5t30 49.5h124v-10z" />
    <glyph glyph-name="Thorn" unicode="&#xde;" horiz-adv-x="612" 
d="M563 380q0 -60 -26 -112t-87 -84.5t-168 -32.5h-79v-151h-108v714h108v-120h93q141 0 204 -57t63 -157zM268 241q95 0 139.5 31.5t44.5 104.5q0 64 -40 95t-128 31h-81v-262h65z" />
    <glyph glyph-name="germandbls" unicode="&#xdf;" horiz-adv-x="655" 
d="M548 614q0 -35 -14 -61t-35 -45.5t-42 -35.5t-35 -30.5t-14 -30.5q0 -14 7.5 -24.5t27.5 -25t57 -39.5q53 -34 83 -71t30 -96q0 -85 -53.5 -125t-144.5 -40q-47 0 -83 8.5t-63 24.5v91q25 -16 64 -29t77 -13q50 0 73.5 20.5t23.5 57.5q0 22 -8 39t-28.5 34t-57.5 40
q-62 39 -85.5 68.5t-23.5 69.5q0 31 14 52.5t34 38.5t40.5 32.5t34 34t13.5 44.5q0 38 -34.5 57t-87.5 19q-35 0 -64.5 -9.5t-47 -32.5t-17.5 -63v-574h-106v576q0 68 31 109.5t84 60.5t120 19q68 0 119.5 -17t81 -50.5t29.5 -83.5z" />
    <glyph glyph-name="agrave" unicode="&#xe0;" horiz-adv-x="574" 
d="M292 549q101 0 151.5 -44.5t50.5 -139.5v-365h-75l-21 75h-4q-35 -44 -73.5 -64.5t-106.5 -20.5q-73 0 -121 39.5t-48 123.5q0 82 62 125t191 47l92 3v30q0 59 -27 83.5t-76 24.5q-41 0 -79 -12t-73 -29l-34 77q38 20 87.5 33.5t103.5 13.5zM317 257q-92 -4 -127.5 -30.5
t-35.5 -74.5q0 -42 25 -61t65 -19q62 0 103.5 35t41.5 105v47zM265 766q12 -22 30 -49.5t37 -53.5t35 -45v-12h-71q-24 18 -54.5 46t-58 57t-41.5 47v10h123z" />
    <glyph glyph-name="aacute" unicode="&#xe1;" horiz-adv-x="574" 
d="M292 549q101 0 151.5 -44.5t50.5 -139.5v-365h-75l-21 75h-4q-35 -44 -73.5 -64.5t-106.5 -20.5q-73 0 -121 39.5t-48 123.5q0 82 62 125t191 47l92 3v30q0 59 -27 83.5t-76 24.5q-41 0 -79 -12t-73 -29l-34 77q38 20 87.5 33.5t103.5 13.5zM317 257q-92 -4 -127.5 -30.5
t-35.5 -74.5q0 -42 25 -61t65 -19q62 0 103.5 35t41.5 105v47zM454 756q-15 -18 -42 -47t-58 -57t-55 -46h-70v12q15 19 34 45t37 53.5t30 49.5h124v-10z" />
    <glyph glyph-name="acircumflex" unicode="&#xe2;" horiz-adv-x="574" 
d="M292 549q101 0 151.5 -44.5t50.5 -139.5v-365h-75l-21 75h-4q-35 -44 -73.5 -64.5t-106.5 -20.5q-73 0 -121 39.5t-48 123.5q0 82 62 125t191 47l92 3v30q0 59 -27 83.5t-76 24.5q-41 0 -79 -12t-73 -29l-34 77q38 20 87.5 33.5t103.5 13.5zM317 257q-92 -4 -127.5 -30.5
t-35.5 -74.5q0 -42 25 -61t65 -19q62 0 103.5 35t41.5 105v47zM344 766q13 -22 35.5 -49.5t47 -54t42.5 -44.5v-12h-73q-26 16 -54.5 39t-55.5 50q-54 -55 -108 -89h-72v12q19 19 42.5 45t45.5 53.5t36 49.5h114z" />
    <glyph glyph-name="atilde" unicode="&#xe3;" horiz-adv-x="574" 
d="M292 549q101 0 151.5 -44.5t50.5 -139.5v-365h-75l-21 75h-4q-35 -44 -73.5 -64.5t-106.5 -20.5q-73 0 -121 39.5t-48 123.5q0 82 62 125t191 47l92 3v30q0 59 -27 83.5t-76 24.5q-41 0 -79 -12t-73 -29l-34 77q38 20 87.5 33.5t103.5 13.5zM317 257q-92 -4 -127.5 -30.5
t-35.5 -74.5q0 -42 25 -61t65 -19q62 0 103.5 35t41.5 105v47zM99 606q6 64 37 99t80 35q28 0 54.5 -13.5t50.5 -27.5t46 -14q39 0 53 56h57q-6 -64 -37 -99t-79 -35q-27 0 -53.5 13.5t-51 27.5t-46.5 14q-41 0 -54 -56h-57z" />
    <glyph glyph-name="adieresis" unicode="&#xe4;" horiz-adv-x="574" 
d="M292 549q101 0 151.5 -44.5t50.5 -139.5v-365h-75l-21 75h-4q-35 -44 -73.5 -64.5t-106.5 -20.5q-73 0 -121 39.5t-48 123.5q0 82 62 125t191 47l92 3v30q0 59 -27 83.5t-76 24.5q-41 0 -79 -12t-73 -29l-34 77q38 20 87.5 33.5t103.5 13.5zM317 257q-92 -4 -127.5 -30.5
t-35.5 -74.5q0 -42 25 -61t65 -19q62 0 103.5 35t41.5 105v47zM139 682q0 29 15.5 41.5t37.5 12.5t38 -12.5t16 -41.5q0 -27 -16 -40.5t-38 -13.5t-37.5 13.5t-15.5 40.5zM330 682q0 29 15.5 41.5t37.5 12.5q21 0 37 -12.5t16 -41.5q0 -27 -16 -40.5t-37 -13.5
q-22 0 -37.5 13.5t-15.5 40.5z" />
    <glyph glyph-name="aring" unicode="&#xe5;" horiz-adv-x="574" 
d="M292 549q101 0 151.5 -44.5t50.5 -139.5v-365h-75l-21 75h-4q-35 -44 -73.5 -64.5t-106.5 -20.5q-73 0 -121 39.5t-48 123.5q0 82 62 125t191 47l92 3v30q0 59 -27 83.5t-76 24.5q-41 0 -79 -12t-73 -29l-34 77q38 20 87.5 33.5t103.5 13.5zM317 257q-92 -4 -127.5 -30.5
t-35.5 -74.5q0 -42 25 -61t65 -19q62 0 103.5 35t41.5 105v47zM286 606q-51 0 -82 28.5t-31 80.5q0 50 31 79t82 29q48 0 81 -28.5t33 -78.5q0 -52 -32.5 -81t-81.5 -29zM286 661q23 0 38 14.5t15 39.5t-15.5 39t-37.5 14q-23 0 -38.5 -14t-15.5 -39t14 -39.5t40 -14.5z" />
    <glyph glyph-name="ae" unicode="&#xe6;" horiz-adv-x="880" 
d="M614 549q66 0 115 -30t75.5 -84.5t26.5 -127.5v-60h-346q5 -171 149 -171q50 0 90 9.5t81 28.5v-88q-40 -18 -80.5 -27t-94.5 -9q-68 0 -121 27.5t-85 81.5q-37 -52 -83 -80.5t-125 -28.5q-48 0 -87 17.5t-61.5 53.5t-22.5 92q0 164 241 172l91 3v36q0 56 -27.5 79
t-75.5 23q-39 0 -77 -11.5t-72 -28.5l-33 76q37 20 87.5 33.5t102.5 13.5q60 0 101 -19.5t64 -60.5q28 38 70 59t97 21zM613 467q-56 0 -88.5 -36t-37.5 -106h237q0 63 -27.5 102.5t-83.5 39.5zM307 257q-86 -4 -119.5 -30.5t-33.5 -74.5q0 -42 23.5 -61t62.5 -19
q58 0 97 35t39 105v47z" />
    <glyph glyph-name="ccedilla" unicode="&#xe7;" horiz-adv-x="490" 
d="M300 -10q-112 0 -180 66.5t-68 209.5q0 100 33 162t91 91.5t132 29.5q45 0 84.5 -9.5t65.5 -21.5l-32 -86q-28 11 -59.5 19t-59.5 8q-146 0 -146 -192q0 -92 36 -140t106 -48q45 0 79.5 10t63.5 26v-92q-29 -17 -63 -25t-83 -8zM390 -134q0 -50 -36 -78t-113 -28
q-34 0 -56 6v63q25 -6 58 -6q29 0 45.5 8.5t16.5 31.5q0 24 -24 36.5t-64 17.5l42 83h68l-22 -46q34 -9 59.5 -29.5t25.5 -58.5z" />
    <glyph glyph-name="egrave" unicode="&#xe8;" horiz-adv-x="572" 
d="M295 549q106 0 167 -65.5t61 -178.5v-58h-362q2 -83 43.5 -127t116.5 -44q52 0 92.5 9.5t83.5 28.5v-88q-41 -18 -82 -27t-98 -9q-79 0 -138.5 31t-93 92.5t-33.5 151.5q0 91 30.5 154t85 96.5t127.5 33.5zM295 467q-57 0 -91.5 -37t-40.5 -105h254q-1 63 -30.5 102.5
t-91.5 39.5zM266 766q12 -22 30 -49.5t37 -53.5t35 -45v-12h-71q-24 18 -54.5 46t-58 57t-41.5 47v10h123z" />
    <glyph glyph-name="eacute" unicode="&#xe9;" horiz-adv-x="572" 
d="M295 549q106 0 167 -65.5t61 -178.5v-58h-362q2 -83 43.5 -127t116.5 -44q52 0 92.5 9.5t83.5 28.5v-88q-41 -18 -82 -27t-98 -9q-79 0 -138.5 31t-93 92.5t-33.5 151.5q0 91 30.5 154t85 96.5t127.5 33.5zM295 467q-57 0 -91.5 -37t-40.5 -105h254q-1 63 -30.5 102.5
t-91.5 39.5zM455 756q-15 -18 -42 -47t-58 -57t-55 -46h-70v12q15 19 34 45t37 53.5t30 49.5h124v-10z" />
    <glyph glyph-name="ecircumflex" unicode="&#xea;" horiz-adv-x="572" 
d="M295 549q106 0 167 -65.5t61 -178.5v-58h-362q2 -83 43.5 -127t116.5 -44q52 0 92.5 9.5t83.5 28.5v-88q-41 -18 -82 -27t-98 -9q-79 0 -138.5 31t-93 92.5t-33.5 151.5q0 91 30.5 154t85 96.5t127.5 33.5zM295 467q-57 0 -91.5 -37t-40.5 -105h254q-1 63 -30.5 102.5
t-91.5 39.5zM345 766q13 -22 35.5 -49.5t47 -54t42.5 -44.5v-12h-73q-26 16 -54.5 39t-55.5 50q-54 -55 -108 -89h-72v12q19 19 42.5 45t45.5 53.5t36 49.5h114z" />
    <glyph glyph-name="edieresis" unicode="&#xeb;" horiz-adv-x="572" 
d="M295 549q106 0 167 -65.5t61 -178.5v-58h-362q2 -83 43.5 -127t116.5 -44q52 0 92.5 9.5t83.5 28.5v-88q-41 -18 -82 -27t-98 -9q-79 0 -138.5 31t-93 92.5t-33.5 151.5q0 91 30.5 154t85 96.5t127.5 33.5zM295 467q-57 0 -91.5 -37t-40.5 -105h254q-1 63 -30.5 102.5
t-91.5 39.5zM140 682q0 29 15.5 41.5t37.5 12.5t38 -12.5t16 -41.5q0 -27 -16 -40.5t-38 -13.5t-37.5 13.5t-15.5 40.5zM331 682q0 29 15.5 41.5t37.5 12.5q21 0 37 -12.5t16 -41.5q0 -27 -16 -40.5t-37 -13.5q-22 0 -37.5 13.5t-15.5 40.5z" />
    <glyph glyph-name="igrave" unicode="&#xec;" horiz-adv-x="272" 
d="M189 0h-106v539h106v-539zM114 766q12 -22 30 -49.5t37 -53.5t35 -45v-12h-71q-24 18 -54.5 46t-58 57t-41.5 47v10h123z" />
    <glyph glyph-name="iacute" unicode="&#xed;" horiz-adv-x="272" 
d="M189 0h-106v539h106v-539zM303 756q-15 -18 -42 -47t-58 -57t-55 -46h-70v12q15 19 34 45t37 53.5t30 49.5h124v-10z" />
    <glyph glyph-name="icircumflex" unicode="&#xee;" horiz-adv-x="272" 
d="M189 0h-106v539h106v-539zM192 766q13 -22 35.5 -49.5t47 -54t42.5 -44.5v-12h-73q-26 16 -54.5 39t-55.5 50q-54 -55 -108 -89h-72v12q19 19 42.5 45t45.5 53.5t36 49.5h114z" />
    <glyph glyph-name="idieresis" unicode="&#xef;" horiz-adv-x="272" 
d="M189 0h-106v539h106v-539zM-12 682q0 29 15.5 41.5t37.5 12.5t38 -12.5t16 -41.5q0 -27 -16 -40.5t-38 -13.5t-37.5 13.5t-15.5 40.5zM179 682q0 29 15.5 41.5t37.5 12.5q21 0 37 -12.5t16 -41.5q0 -27 -16 -40.5t-37 -13.5q-22 0 -37.5 13.5t-15.5 40.5z" />
    <glyph glyph-name="eth" unicode="&#xf0;" horiz-adv-x="609" 
d="M218 765q33 -15 65.5 -33t60.5 -38l114 67l41 -60l-94 -55q69 -65 111 -157t42 -213q0 -141 -68.5 -213.5t-186.5 -72.5q-73 0 -130 29.5t-89 84t-32 131.5q0 114 64 178t171 64q52 0 90 -13.5t60 -41.5l4 2q-16 52 -46.5 95t-69.5 79l-124 -73l-42 61l105 61
q-40 26 -85 50zM305 394q-77 0 -111 -41.5t-34 -120.5q0 -70 34.5 -114.5t110.5 -44.5t110.5 46t34.5 135q0 57 -35.5 98.5t-109.5 41.5z" />
    <glyph glyph-name="ntilde" unicode="&#xf1;" horiz-adv-x="630" 
d="M356 549q94 0 144 -47t50 -151v-351h-105v336q0 126 -111 126q-83 0 -114 -49t-31 -141v-272h-106v539h84l15 -72h6q26 42 71.5 62t96.5 20zM126 606q6 64 37 99t80 35q28 0 54.5 -13.5t50.5 -27.5t46 -14q39 0 53 56h57q-6 -64 -37 -99t-79 -35q-27 0 -53.5 13.5
t-51 27.5t-46.5 14q-41 0 -54 -56h-57z" />
    <glyph glyph-name="ograve" unicode="&#xf2;" horiz-adv-x="609" 
d="M558 270q0 -134 -69 -207t-186 -73q-73 0 -129.5 33t-89 95.5t-32.5 151.5q0 134 68 206.5t186 72.5q74 0 130.5 -32.5t89 -94.5t32.5 -152zM161 270q0 -91 34.5 -142t109.5 -51t109.5 51t34.5 142q0 92 -35 141.5t-110 49.5t-109 -49.5t-34 -141.5zM283 766
q12 -22 30 -49.5t37 -53.5t35 -45v-12h-71q-24 18 -54.5 46t-58 57t-41.5 47v10h123z" />
    <glyph glyph-name="oacute" unicode="&#xf3;" horiz-adv-x="609" 
d="M558 270q0 -134 -69 -207t-186 -73q-73 0 -129.5 33t-89 95.5t-32.5 151.5q0 134 68 206.5t186 72.5q74 0 130.5 -32.5t89 -94.5t32.5 -152zM161 270q0 -91 34.5 -142t109.5 -51t109.5 51t34.5 142q0 92 -35 141.5t-110 49.5t-109 -49.5t-34 -141.5zM472 756
q-15 -18 -42 -47t-58 -57t-55 -46h-70v12q15 19 34 45t37 53.5t30 49.5h124v-10z" />
    <glyph glyph-name="ocircumflex" unicode="&#xf4;" horiz-adv-x="609" 
d="M558 270q0 -134 -69 -207t-186 -73q-73 0 -129.5 33t-89 95.5t-32.5 151.5q0 134 68 206.5t186 72.5q74 0 130.5 -32.5t89 -94.5t32.5 -152zM161 270q0 -91 34.5 -142t109.5 -51t109.5 51t34.5 142q0 92 -35 141.5t-110 49.5t-109 -49.5t-34 -141.5zM361 766
q13 -22 35.5 -49.5t47 -54t42.5 -44.5v-12h-73q-26 16 -54.5 39t-55.5 50q-54 -55 -108 -89h-72v12q19 19 42.5 45t45.5 53.5t36 49.5h114z" />
    <glyph glyph-name="otilde" unicode="&#xf5;" horiz-adv-x="609" 
d="M558 270q0 -134 -69 -207t-186 -73q-73 0 -129.5 33t-89 95.5t-32.5 151.5q0 134 68 206.5t186 72.5q74 0 130.5 -32.5t89 -94.5t32.5 -152zM161 270q0 -91 34.5 -142t109.5 -51t109.5 51t34.5 142q0 92 -35 141.5t-110 49.5t-109 -49.5t-34 -141.5zM116 606q6 64 37 99
t80 35q28 0 54.5 -13.5t50.5 -27.5t46 -14q39 0 53 56h57q-6 -64 -37 -99t-79 -35q-27 0 -53.5 13.5t-51 27.5t-46.5 14q-41 0 -54 -56h-57z" />
    <glyph glyph-name="odieresis" unicode="&#xf6;" horiz-adv-x="609" 
d="M558 270q0 -134 -69 -207t-186 -73q-73 0 -129.5 33t-89 95.5t-32.5 151.5q0 134 68 206.5t186 72.5q74 0 130.5 -32.5t89 -94.5t32.5 -152zM161 270q0 -91 34.5 -142t109.5 -51t109.5 51t34.5 142q0 92 -35 141.5t-110 49.5t-109 -49.5t-34 -141.5zM157 682
q0 29 15.5 41.5t37.5 12.5t38 -12.5t16 -41.5q0 -27 -16 -40.5t-38 -13.5t-37.5 13.5t-15.5 40.5zM348 682q0 29 15.5 41.5t37.5 12.5q21 0 37 -12.5t16 -41.5q0 -27 -16 -40.5t-37 -13.5q-22 0 -37.5 13.5t-15.5 40.5z" />
    <glyph glyph-name="divide" unicode="&#xf7;" horiz-adv-x="572" 
d="M285 458q-25 0 -42.5 15.5t-17.5 49.5q0 36 17.5 50t42.5 14q24 0 41.5 -14t17.5 -50q0 -34 -17.5 -49.5t-41.5 -15.5zM48 312v81h475v-81h-475zM285 117q-25 0 -42.5 15.5t-17.5 49.5q0 36 17.5 50t42.5 14q24 0 41.5 -14t17.5 -50q0 -34 -17.5 -49.5t-41.5 -15.5z" />
    <glyph glyph-name="oslash" unicode="&#xf8;" horiz-adv-x="609" 
d="M558 270q0 -134 -69 -207t-186 -73q-70 0 -125 30l-37 -54l-63 42l41 59q-32 36 -49.5 87t-17.5 116q0 134 68 206.5t186 72.5q71 0 128 -33l36 51l63 -42l-40 -56q30 -36 47.5 -85.5t17.5 -113.5zM161 270q0 -34 4.5 -62.5t15.5 -51.5l200 285q-31 20 -77 20
q-75 0 -109 -49.5t-34 -141.5zM449 270q0 64 -18 108l-200 -283q30 -18 74 -18q75 0 109.5 51t34.5 142z" />
    <glyph glyph-name="ugrave" unicode="&#xf9;" horiz-adv-x="630" 
d="M547 539v-539h-85l-15 71h-5q-26 -42 -72 -61.5t-97 -19.5q-95 0 -145 47t-50 149v353h107v-337q0 -125 109 -125q83 0 115 49t32 140v273h106zM293 766q12 -22 30 -49.5t37 -53.5t35 -45v-12h-71q-24 18 -54.5 46t-58 57t-41.5 47v10h123z" />
    <glyph glyph-name="uacute" unicode="&#xfa;" horiz-adv-x="630" 
d="M547 539v-539h-85l-15 71h-5q-26 -42 -72 -61.5t-97 -19.5q-95 0 -145 47t-50 149v353h107v-337q0 -125 109 -125q83 0 115 49t32 140v273h106zM482 756q-15 -18 -42 -47t-58 -57t-55 -46h-70v12q15 19 34 45t37 53.5t30 49.5h124v-10z" />
    <glyph glyph-name="ucircumflex" unicode="&#xfb;" horiz-adv-x="630" 
d="M547 539v-539h-85l-15 71h-5q-26 -42 -72 -61.5t-97 -19.5q-95 0 -145 47t-50 149v353h107v-337q0 -125 109 -125q83 0 115 49t32 140v273h106zM371 766q13 -22 35.5 -49.5t47 -54t42.5 -44.5v-12h-73q-26 16 -54.5 39t-55.5 50q-54 -55 -108 -89h-72v12q19 19 42.5 45
t45.5 53.5t36 49.5h114z" />
    <glyph glyph-name="udieresis" unicode="&#xfc;" horiz-adv-x="630" 
d="M547 539v-539h-85l-15 71h-5q-26 -42 -72 -61.5t-97 -19.5q-95 0 -145 47t-50 149v353h107v-337q0 -125 109 -125q83 0 115 49t32 140v273h106zM166 682q0 29 15.5 41.5t37.5 12.5t38 -12.5t16 -41.5q0 -27 -16 -40.5t-38 -13.5t-37.5 13.5t-15.5 40.5zM357 682
q0 29 15.5 41.5t37.5 12.5q21 0 37 -12.5t16 -41.5q0 -27 -16 -40.5t-37 -13.5q-22 0 -37.5 13.5t-15.5 40.5z" />
    <glyph glyph-name="yacute" unicode="&#xfd;" horiz-adv-x="527" 
d="M1 539h114l112 -306q13 -35 22.5 -67.5t14.5 -63.5h4q5 26 15.5 61t23.5 71l106 305h114l-231 -612q-29 -78 -77.5 -122.5t-126.5 -44.5q-25 0 -43 2.5t-31 5.5v84q10 -2 26 -4t33 -2q46 0 74 26.5t44 69.5l22 58zM431 756q-15 -18 -42 -47t-58 -57t-55 -46h-70v12
q15 19 34 45t37 53.5t30 49.5h124v-10z" />
    <glyph glyph-name="thorn" unicode="&#xfe;" horiz-adv-x="620" 
d="M568 270q0 -137 -59.5 -208.5t-156.5 -71.5q-61 0 -100.5 22t-62.5 53h-6q2 -13 4 -39.5t2 -42.5v-223h-106v1000h106v-214q0 -17 -1.5 -41t-2.5 -38h5q23 34 61.5 58t100.5 24q97 0 156.5 -70.5t59.5 -208.5zM459 272q0 95 -32 142.5t-99 47.5q-76 0 -107 -43t-32 -130
v-18q0 -93 30 -143.5t110 -50.5q67 0 98.5 50.5t31.5 144.5z" />
    <glyph glyph-name="ydieresis" unicode="&#xff;" horiz-adv-x="527" 
d="M1 539h114l112 -306q13 -35 22.5 -67.5t14.5 -63.5h4q5 26 15.5 61t23.5 71l106 305h114l-231 -612q-29 -78 -77.5 -122.5t-126.5 -44.5q-25 0 -43 2.5t-31 5.5v84q10 -2 26 -4t33 -2q46 0 74 26.5t44 69.5l22 58zM115 682q0 29 15.5 41.5t37.5 12.5t38 -12.5t16 -41.5
q0 -27 -16 -40.5t-38 -13.5t-37.5 13.5t-15.5 40.5zM306 682q0 29 15.5 41.5t37.5 12.5q21 0 37 -12.5t16 -41.5q0 -27 -16 -40.5t-37 -13.5q-22 0 -37.5 13.5t-15.5 40.5z" />
    <glyph glyph-name="Amacron" unicode="&#x100;" horiz-adv-x="654" 
d="M540 0l-76 206h-276l-76 -206h-112l271 717h112l270 -717h-113zM362 501q-3 11 -10.5 33t-14.5 46t-11 39q-8 -31 -18 -66t-16 -52l-72 -201h214zM479 861v-80h-307v80h307z" />
    <glyph glyph-name="amacron" unicode="&#x101;" horiz-adv-x="574" 
d="M292 549q101 0 151.5 -44.5t50.5 -139.5v-365h-75l-21 75h-4q-35 -44 -73.5 -64.5t-106.5 -20.5q-73 0 -121 39.5t-48 123.5q0 82 62 125t191 47l92 3v30q0 59 -27 83.5t-76 24.5q-41 0 -79 -12t-73 -29l-34 77q38 20 87.5 33.5t103.5 13.5zM317 257q-92 -4 -127.5 -30.5
t-35.5 -74.5q0 -42 25 -61t65 -19q62 0 103.5 35t41.5 105v47zM440 686v-80h-307v80h307z" />
    <glyph glyph-name="Abreve" unicode="&#x102;" horiz-adv-x="654" 
d="M540 0l-76 206h-276l-76 -206h-112l271 717h112l270 -717h-113zM362 501q-3 11 -10.5 33t-14.5 46t-11 39q-8 -31 -18 -66t-16 -52l-72 -201h214zM492 924q-6 -64 -50 -103.5t-119 -39.5q-78 0 -119 39t-45 104h63q4 -41 31 -51.5t72 -10.5q38 0 68 11.5t35 50.5h64z" />
    <glyph glyph-name="abreve" unicode="&#x103;" horiz-adv-x="574" 
d="M292 549q101 0 151.5 -44.5t50.5 -139.5v-365h-75l-21 75h-4q-35 -44 -73.5 -64.5t-106.5 -20.5q-73 0 -121 39.5t-48 123.5q0 82 62 125t191 47l92 3v30q0 59 -27 83.5t-76 24.5q-41 0 -79 -12t-73 -29l-34 77q38 20 87.5 33.5t103.5 13.5zM317 257q-92 -4 -127.5 -30.5
t-35.5 -74.5q0 -42 25 -61t65 -19q62 0 103.5 35t41.5 105v47zM454 749q-6 -64 -50 -103.5t-119 -39.5q-78 0 -119 39t-45 104h63q4 -41 31 -51.5t72 -10.5q38 0 68 11.5t35 50.5h64z" />
    <glyph glyph-name="Aogonek" unicode="&#x104;" horiz-adv-x="654" 
d="M540 0l-76 206h-276l-76 -206h-112l271 717h112l270 -717h-113zM362 501q-3 11 -10.5 33t-14.5 46t-11 39q-8 -31 -18 -66t-16 -52l-72 -201h214zM554 -115q0 -21 11.5 -32t31.5 -11q17 0 29.5 2.5t21.5 4.5v-65q-15 -4 -30.5 -7t-35.5 -3q-55 0 -82 27t-27 72
q0 29 14.5 56t37 49.5t45.5 37.5l53 -16q-33 -32 -51 -58.5t-18 -56.5z" />
    <glyph glyph-name="aogonek" unicode="&#x105;" horiz-adv-x="574" 
d="M292 549q101 0 151.5 -44.5t50.5 -139.5v-365h-75l-21 75h-4q-35 -44 -73.5 -64.5t-106.5 -20.5q-73 0 -121 39.5t-48 123.5q0 82 62 125t191 47l92 3v30q0 59 -27 83.5t-76 24.5q-41 0 -79 -12t-73 -29l-34 77q38 20 87.5 33.5t103.5 13.5zM317 257q-92 -4 -127.5 -30.5
t-35.5 -74.5q0 -42 25 -61t65 -19q62 0 103.5 35t41.5 105v47zM422 -115q0 -21 11.5 -32t31.5 -11q17 0 29.5 2.5t21.5 4.5v-65q-15 -4 -30.5 -7t-35.5 -3q-55 0 -82 27t-27 72q0 29 14.5 56t37 49.5t45.5 37.5l53 -16q-33 -32 -51 -58.5t-18 -56.5z" />
    <glyph glyph-name="Cacute" unicode="&#x106;" horiz-adv-x="633" 
d="M400 631q-107 0 -167 -73.5t-60 -201.5q0 -127 56 -200t170 -73q46 0 88.5 8.5t86.5 22.5v-93q-42 -16 -85.5 -23.5t-102.5 -7.5q-110 0 -182 45.5t-108 128t-36 193.5q0 108 39.5 191t115.5 129.5t186 46.5q54 0 105.5 -11.5t94.5 -32.5l-40 -90q-35 16 -75.5 28.5
t-85.5 12.5zM546 931q-15 -18 -42 -47t-58 -57t-55 -46h-70v12q15 19 34 45t37 53.5t30 49.5h124v-10z" />
    <glyph glyph-name="cacute" unicode="&#x107;" horiz-adv-x="490" 
d="M300 -10q-112 0 -180 66.5t-68 209.5q0 100 33 162t91 91.5t132 29.5q45 0 84.5 -9.5t65.5 -21.5l-32 -86q-28 11 -59.5 19t-59.5 8q-146 0 -146 -192q0 -92 36 -140t106 -48q45 0 79.5 10t63.5 26v-92q-29 -17 -63 -25t-83 -8zM452 756q-15 -18 -42 -47t-58 -57t-55 -46
h-70v12q15 19 34 45t37 53.5t30 49.5h124v-10z" />
    <glyph glyph-name="Ccircumflex" unicode="&#x108;" horiz-adv-x="633" 
d="M400 631q-107 0 -167 -73.5t-60 -201.5q0 -127 56 -200t170 -73q46 0 88.5 8.5t86.5 22.5v-93q-42 -16 -85.5 -23.5t-102.5 -7.5q-110 0 -182 45.5t-108 128t-36 193.5q0 108 39.5 191t115.5 129.5t186 46.5q54 0 105.5 -11.5t94.5 -32.5l-40 -90q-35 16 -75.5 28.5
t-85.5 12.5zM435 941q13 -22 35.5 -49.5t47 -54t42.5 -44.5v-12h-73q-26 16 -54.5 39t-55.5 50q-54 -55 -108 -89h-72v12q19 19 42.5 45t45.5 53.5t36 49.5h114z" />
    <glyph glyph-name="ccircumflex" unicode="&#x109;" horiz-adv-x="490" 
d="M300 -10q-112 0 -180 66.5t-68 209.5q0 100 33 162t91 91.5t132 29.5q45 0 84.5 -9.5t65.5 -21.5l-32 -86q-28 11 -59.5 19t-59.5 8q-146 0 -146 -192q0 -92 36 -140t106 -48q45 0 79.5 10t63.5 26v-92q-29 -17 -63 -25t-83 -8zM341 766q13 -22 35.5 -49.5t47 -54
t42.5 -44.5v-12h-73q-26 16 -54.5 39t-55.5 50q-54 -55 -108 -89h-72v12q19 19 42.5 45t45.5 53.5t36 49.5h114z" />
    <glyph glyph-name="Cdotaccent" unicode="&#x10a;" horiz-adv-x="633" 
d="M400 631q-107 0 -167 -73.5t-60 -201.5q0 -127 56 -200t170 -73q46 0 88.5 8.5t86.5 22.5v-93q-42 -16 -85.5 -23.5t-102.5 -7.5q-110 0 -182 45.5t-108 128t-36 193.5q0 108 39.5 191t115.5 129.5t186 46.5q54 0 105.5 -11.5t94.5 -32.5l-40 -90q-35 16 -75.5 28.5
t-85.5 12.5zM380 919q24 0 41.5 -14t17.5 -47q0 -32 -17.5 -46.5t-41.5 -14.5q-26 0 -43.5 14.5t-17.5 46.5q0 33 17.5 47t43.5 14z" />
    <glyph glyph-name="cdotaccent" unicode="&#x10b;" horiz-adv-x="490" 
d="M300 -10q-112 0 -180 66.5t-68 209.5q0 100 33 162t91 91.5t132 29.5q45 0 84.5 -9.5t65.5 -21.5l-32 -86q-28 11 -59.5 19t-59.5 8q-146 0 -146 -192q0 -92 36 -140t106 -48q45 0 79.5 10t63.5 26v-92q-29 -17 -63 -25t-83 -8zM286 744q24 0 41.5 -14t17.5 -47
q0 -32 -17.5 -46.5t-41.5 -14.5q-26 0 -43.5 14.5t-17.5 46.5q0 33 17.5 47t43.5 14z" />
    <glyph glyph-name="Ccaron" unicode="&#x10c;" horiz-adv-x="633" 
d="M400 631q-107 0 -167 -73.5t-60 -201.5q0 -127 56 -200t170 -73q46 0 88.5 8.5t86.5 22.5v-93q-42 -16 -85.5 -23.5t-102.5 -7.5q-110 0 -182 45.5t-108 128t-36 193.5q0 108 39.5 191t115.5 129.5t186 46.5q54 0 105.5 -11.5t94.5 -32.5l-40 -90q-35 16 -75.5 28.5
t-85.5 12.5zM321 781q-14 23 -36 50t-46 52.5t-42 44.5v13h72q26 -17 54.5 -40t53.5 -50q27 27 55.5 50t54.5 40h73v-13q-18 -19 -42.5 -44.5t-47 -52.5t-35.5 -50h-114z" />
    <glyph glyph-name="ccaron" unicode="&#x10d;" horiz-adv-x="490" 
d="M300 -10q-112 0 -180 66.5t-68 209.5q0 100 33 162t91 91.5t132 29.5q45 0 84.5 -9.5t65.5 -21.5l-32 -86q-28 11 -59.5 19t-59.5 8q-146 0 -146 -192q0 -92 36 -140t106 -48q45 0 79.5 10t63.5 26v-92q-29 -17 -63 -25t-83 -8zM227 606q-14 23 -36 50t-46 52.5t-42 44.5
v13h72q26 -17 54.5 -40t53.5 -50q27 27 55.5 50t54.5 40h73v-13q-18 -19 -42.5 -44.5t-47 -52.5t-35.5 -50h-114z" />
    <glyph glyph-name="Dcaron" unicode="&#x10e;" horiz-adv-x="733" 
d="M673 364q0 -181 -99.5 -272.5t-278.5 -91.5h-200v714h221q109 0 189 -40t124 -117.5t44 -192.5zM560 361q0 135 -65.5 198.5t-185.5 63.5h-106v-532h87q270 0 270 270zM306 781q-14 23 -36 50t-46 52.5t-42 44.5v13h72q26 -17 54.5 -40t53.5 -50q27 27 55.5 50t54.5 40
h73v-13q-18 -19 -42.5 -44.5t-47 -52.5t-35.5 -50h-114z" />
    <glyph glyph-name="dcaron" unicode="&#x10f;" horiz-adv-x="620" 
d="M708 751q-9 -29 -30 -72.5t-44 -78.5h-60v12q10 29 19.5 72.5t12.5 75.5h102v-9zM268 -10q-97 0 -156.5 70t-59.5 208q0 139 60 210t158 71q61 0 100 -23t63 -56h6q-2 13 -5 40t-3 48v202h106v-760h-83l-18 72h-5q-23 -35 -62 -58.5t-101 -23.5zM293 77q78 0 110 43.5
t32 130.5v16q0 94 -30.5 144.5t-112.5 50.5q-65 0 -98 -52.5t-33 -143.5t33 -140t99 -49z" />
    <glyph glyph-name="Dcroat" unicode="&#x110;" horiz-adv-x="733" 
d="M316 714q109 0 189 -40t124 -117.5t44 -192.5q0 -181 -100 -272.5t-279 -91.5h-194v307h-72v92h72v315h216zM309 623h-101v-224h160v-92h-160v-216h82q270 0 270 270q0 135 -66 198.5t-185 63.5z" />
    <glyph glyph-name="dcroat" unicode="&#x111;" horiz-adv-x="626" 
d="M268 -10q-98 0 -157 69t-59 204q0 138 60 206.5t157 68.5q62 0 101 -23t63 -56h6q-3 15 -5.5 43t-2.5 46v51h-195v75h195v86h106v-86h76v-75h-76v-599h-84l-18 72h-4q-24 -35 -63 -58.5t-100 -23.5zM294 77q77 0 109 42t32 127v16q0 92 -30.5 140.5t-112.5 48.5
q-65 0 -98 -50.5t-33 -139.5t33.5 -136.5t99.5 -47.5z" />
    <glyph glyph-name="Emacron" unicode="&#x112;" horiz-adv-x="557" 
d="M497 0h-402v714h402v-92h-294v-204h276v-91h-276v-234h294v-93zM457 861v-80h-307v80h307z" />
    <glyph glyph-name="emacron" unicode="&#x113;" horiz-adv-x="572" 
d="M295 549q106 0 167 -65.5t61 -178.5v-58h-362q2 -83 43.5 -127t116.5 -44q52 0 92.5 9.5t83.5 28.5v-88q-41 -18 -82 -27t-98 -9q-79 0 -138.5 31t-93 92.5t-33.5 151.5q0 91 30.5 154t85 96.5t127.5 33.5zM295 467q-57 0 -91.5 -37t-40.5 -105h254q-1 63 -30.5 102.5
t-91.5 39.5zM441 686v-80h-307v80h307z" />
    <glyph glyph-name="Ebreve" unicode="&#x114;" horiz-adv-x="557" 
d="M497 0h-402v714h402v-92h-294v-204h276v-91h-276v-234h294v-93zM470 924q-6 -64 -50 -103.5t-119 -39.5q-78 0 -119 39t-45 104h63q4 -41 31 -51.5t72 -10.5q38 0 68 11.5t35 50.5h64z" />
    <glyph glyph-name="ebreve" unicode="&#x115;" horiz-adv-x="572" 
d="M295 549q106 0 167 -65.5t61 -178.5v-58h-362q2 -83 43.5 -127t116.5 -44q52 0 92.5 9.5t83.5 28.5v-88q-41 -18 -82 -27t-98 -9q-79 0 -138.5 31t-93 92.5t-33.5 151.5q0 91 30.5 154t85 96.5t127.5 33.5zM295 467q-57 0 -91.5 -37t-40.5 -105h254q-1 63 -30.5 102.5
t-91.5 39.5zM455 749q-6 -64 -50 -103.5t-119 -39.5q-78 0 -119 39t-45 104h63q4 -41 31 -51.5t72 -10.5q38 0 68 11.5t35 50.5h64z" />
    <glyph glyph-name="Edotaccent" unicode="&#x116;" horiz-adv-x="557" 
d="M497 0h-402v714h402v-92h-294v-204h276v-91h-276v-234h294v-93zM305 919q24 0 41.5 -14t17.5 -47q0 -32 -17.5 -46.5t-41.5 -14.5q-26 0 -43.5 14.5t-17.5 46.5q0 33 17.5 47t43.5 14z" />
    <glyph glyph-name="edotaccent" unicode="&#x117;" horiz-adv-x="572" 
d="M295 549q106 0 167 -65.5t61 -178.5v-58h-362q2 -83 43.5 -127t116.5 -44q52 0 92.5 9.5t83.5 28.5v-88q-41 -18 -82 -27t-98 -9q-79 0 -138.5 31t-93 92.5t-33.5 151.5q0 91 30.5 154t85 96.5t127.5 33.5zM295 467q-57 0 -91.5 -37t-40.5 -105h254q-1 63 -30.5 102.5
t-91.5 39.5zM289 744q24 0 41.5 -14t17.5 -47q0 -32 -17.5 -46.5t-41.5 -14.5q-26 0 -43.5 14.5t-17.5 46.5q0 33 17.5 47t43.5 14z" />
    <glyph glyph-name="Eogonek" unicode="&#x118;" horiz-adv-x="557" 
d="M497 0h-402v714h402v-92h-294v-204h276v-91h-276v-234h294v-93zM400 -115q0 -21 11.5 -32t31.5 -11q17 0 29.5 2.5t21.5 4.5v-65q-15 -4 -30.5 -7t-35.5 -3q-55 0 -82 27t-27 72q0 29 14.5 56t37 49.5t45.5 37.5l53 -16q-33 -32 -51 -58.5t-18 -56.5z" />
    <glyph glyph-name="eogonek" unicode="&#x119;" horiz-adv-x="572" 
d="M396 -115q0 -21 11.5 -32t31.5 -11q17 0 29.5 2.5t21.5 4.5v-65q-15 -4 -30.5 -7t-35.5 -3q-55 0 -82 27t-27 72q0 34 20.5 65.5t47.5 55.5q-30 -4 -66 -4q-79 0 -138.5 31t-93 92.5t-33.5 151.5q0 91 30.5 154t85 96.5t127.5 33.5q106 0 167 -65.5t61 -178.5v-58h-362
q2 -83 43.5 -127t116.5 -44q52 0 92.5 9.5t83.5 28.5v-88q-60 -49 -80.5 -80t-20.5 -61zM295 467q-57 0 -91.5 -37t-40.5 -105h254q-1 63 -30.5 102.5t-91.5 39.5z" />
    <glyph glyph-name="Ecaron" unicode="&#x11a;" horiz-adv-x="557" 
d="M497 0h-402v714h402v-92h-294v-204h276v-91h-276v-234h294v-93zM246 781q-14 23 -36 50t-46 52.5t-42 44.5v13h72q26 -17 54.5 -40t53.5 -50q27 27 55.5 50t54.5 40h73v-13q-18 -19 -42.5 -44.5t-47 -52.5t-35.5 -50h-114z" />
    <glyph glyph-name="ecaron" unicode="&#x11b;" horiz-adv-x="572" 
d="M295 549q106 0 167 -65.5t61 -178.5v-58h-362q2 -83 43.5 -127t116.5 -44q52 0 92.5 9.5t83.5 28.5v-88q-41 -18 -82 -27t-98 -9q-79 0 -138.5 31t-93 92.5t-33.5 151.5q0 91 30.5 154t85 96.5t127.5 33.5zM295 467q-57 0 -91.5 -37t-40.5 -105h254q-1 63 -30.5 102.5
t-91.5 39.5zM231 606q-14 23 -36 50t-46 52.5t-42 44.5v13h72q26 -17 54.5 -40t53.5 -50q27 27 55.5 50t54.5 40h73v-13q-18 -19 -42.5 -44.5t-47 -52.5t-35.5 -50h-114z" />
    <glyph glyph-name="Gcircumflex" unicode="&#x11c;" horiz-adv-x="727" 
d="M393 384h258v-356q-57 -19 -116.5 -28.5t-135.5 -9.5q-164 0 -251.5 97.5t-87.5 269.5q0 112 43.5 194.5t126.5 127.5t201 45q59 0 113 -11.5t100 -31.5l-39 -90q-37 16 -82.5 28t-95.5 12q-119 0 -187 -74t-68 -201q0 -81 25 -142.5t79 -96.5t141 -35q43 0 72.5 4.5
t54.5 10.5v194h-151v93zM460 941q13 -22 35.5 -49.5t47 -54t42.5 -44.5v-12h-73q-26 16 -54.5 39t-55.5 50q-54 -55 -108 -89h-72v12q19 19 42.5 45t45.5 53.5t36 49.5h114z" />
    <glyph glyph-name="gcircumflex" unicode="&#x11d;" horiz-adv-x="620" 
d="M269 549q107 0 165 -81h5l12 71h86v-546q0 -115 -61.5 -174t-187.5 -59q-59 0 -107.5 8t-89.5 25v93q86 -42 203 -42q66 0 102 37.5t36 105.5v18q0 13 1 34t2 32h-4q-27 -42 -68 -61.5t-94 -19.5q-102 0 -159.5 73.5t-57.5 204.5q0 130 57.5 205.5t159.5 75.5zM291 461
q-63 0 -96.5 -50t-33.5 -144t33.5 -143t98.5 -49q74 0 108.5 40.5t34.5 132.5v20q0 103 -35 148t-110 45zM358 766q13 -22 35.5 -49.5t47 -54t42.5 -44.5v-12h-73q-26 16 -54.5 39t-55.5 50q-54 -55 -108 -89h-72v12q19 19 42.5 45t45.5 53.5t36 49.5h114z" />
    <glyph glyph-name="Gbreve" unicode="&#x11e;" horiz-adv-x="727" 
d="M393 384h258v-356q-57 -19 -116.5 -28.5t-135.5 -9.5q-164 0 -251.5 97.5t-87.5 269.5q0 112 43.5 194.5t126.5 127.5t201 45q59 0 113 -11.5t100 -31.5l-39 -90q-37 16 -82.5 28t-95.5 12q-119 0 -187 -74t-68 -201q0 -81 25 -142.5t79 -96.5t141 -35q43 0 72.5 4.5
t54.5 10.5v194h-151v93zM570 924q-6 -64 -50 -103.5t-119 -39.5q-78 0 -119 39t-45 104h63q4 -41 31 -51.5t72 -10.5q38 0 68 11.5t35 50.5h64z" />
    <glyph glyph-name="gbreve" unicode="&#x11f;" horiz-adv-x="620" 
d="M269 549q107 0 165 -81h5l12 71h86v-546q0 -115 -61.5 -174t-187.5 -59q-59 0 -107.5 8t-89.5 25v93q86 -42 203 -42q66 0 102 37.5t36 105.5v18q0 13 1 34t2 32h-4q-27 -42 -68 -61.5t-94 -19.5q-102 0 -159.5 73.5t-57.5 204.5q0 130 57.5 205.5t159.5 75.5zM291 461
q-63 0 -96.5 -50t-33.5 -144t33.5 -143t98.5 -49q74 0 108.5 40.5t34.5 132.5v20q0 103 -35 148t-110 45zM468 749q-6 -64 -50 -103.5t-119 -39.5q-78 0 -119 39t-45 104h63q4 -41 31 -51.5t72 -10.5q38 0 68 11.5t35 50.5h64z" />
    <glyph glyph-name="Gdotaccent" unicode="&#x120;" horiz-adv-x="727" 
d="M393 384h258v-356q-57 -19 -116.5 -28.5t-135.5 -9.5q-164 0 -251.5 97.5t-87.5 269.5q0 112 43.5 194.5t126.5 127.5t201 45q59 0 113 -11.5t100 -31.5l-39 -90q-37 16 -82.5 28t-95.5 12q-119 0 -187 -74t-68 -201q0 -81 25 -142.5t79 -96.5t141 -35q43 0 72.5 4.5
t54.5 10.5v194h-151v93zM405 919q24 0 41.5 -14t17.5 -47q0 -32 -17.5 -46.5t-41.5 -14.5q-26 0 -43.5 14.5t-17.5 46.5q0 33 17.5 47t43.5 14z" />
    <glyph glyph-name="gdotaccent" unicode="&#x121;" horiz-adv-x="620" 
d="M269 549q107 0 165 -81h5l12 71h86v-546q0 -115 -61.5 -174t-187.5 -59q-59 0 -107.5 8t-89.5 25v93q86 -42 203 -42q66 0 102 37.5t36 105.5v18q0 13 1 34t2 32h-4q-27 -42 -68 -61.5t-94 -19.5q-102 0 -159.5 73.5t-57.5 204.5q0 130 57.5 205.5t159.5 75.5zM291 461
q-63 0 -96.5 -50t-33.5 -144t33.5 -143t98.5 -49q74 0 108.5 40.5t34.5 132.5v20q0 103 -35 148t-110 45zM303 744q24 0 41.5 -14t17.5 -47q0 -32 -17.5 -46.5t-41.5 -14.5q-26 0 -43.5 14.5t-17.5 46.5q0 33 17.5 47t43.5 14z" />
    <glyph glyph-name="uni0122" unicode="&#x122;" horiz-adv-x="727" 
d="M393 384h258v-356q-57 -19 -116.5 -28.5t-135.5 -9.5q-164 0 -251.5 97.5t-87.5 269.5q0 112 43.5 194.5t126.5 127.5t201 45q59 0 113 -11.5t100 -31.5l-39 -90q-37 16 -82.5 28t-95.5 12q-119 0 -187 -74t-68 -201q0 -81 25 -142.5t79 -96.5t141 -35q43 0 72.5 4.5
t54.5 10.5v194h-151v93zM468 -70q-9 -29 -31.5 -73t-48.5 -78h-60v12q7 18 15 44.5t14 54.5t9 49h102v-9z" />
    <glyph glyph-name="uni0123" unicode="&#x123;" horiz-adv-x="620" 
d="M372 754q-8 -18 -15.5 -44.5t-14 -54t-9.5 -49.5h-102v9q10 29 32 72.5t48 78.5h61v-12zM269 549q107 0 165 -81h5l12 71h86v-546q0 -115 -61.5 -174t-187.5 -59q-59 0 -107.5 8t-89.5 25v93q86 -42 203 -42q66 0 102 37.5t36 105.5v18q0 13 1 34t2 32h-4
q-27 -42 -68 -61.5t-94 -19.5q-102 0 -159.5 73.5t-57.5 204.5q0 130 57.5 205.5t159.5 75.5zM291 461q-63 0 -96.5 -50t-33.5 -144t33.5 -143t98.5 -49q74 0 108.5 40.5t34.5 132.5v20q0 103 -35 148t-110 45z" />
    <glyph glyph-name="Hcircumflex" unicode="&#x124;" horiz-adv-x="748" 
d="M652 0h-108v326h-341v-326h-108v714h108v-296h341v296h108v-714zM431 941q13 -22 35.5 -49.5t47 -54t42.5 -44.5v-12h-73q-26 16 -54.5 39t-55.5 50q-54 -55 -108 -89h-72v12q19 19 42.5 45t45.5 53.5t36 49.5h114z" />
    <glyph glyph-name="hcircumflex" unicode="&#x125;" horiz-adv-x="630" 
d="M189 557q0 -26 -2 -50.5t-4 -40.5h7q26 42 69.5 62t94.5 20q95 0 145.5 -47t50.5 -150v-351h-105v336q0 126 -111 126q-83 0 -114 -49.5t-31 -141.5v-271h-106v760h106v-203zM194 987q13 -22 35.5 -49.5t47 -54t42.5 -44.5v-12h-73q-26 16 -54.5 39t-55.5 50
q-54 -55 -108 -89h-72v12q19 19 42.5 45t45.5 53.5t36 49.5h114z" />
    <glyph glyph-name="Hbar" unicode="&#x126;" horiz-adv-x="748" 
d="M95 0v523h-95v79h95v112h108v-112h341v112h108v-112h95v-79h-95v-523h-108v326h-341v-326h-108zM203 418h341v105h-341v-105z" />
    <glyph glyph-name="hbar" unicode="&#x127;" horiz-adv-x="630" 
d="M189 760v-87h195v-75h-195v-64q0 -26 -2 -50.5t-4 -39.5h7q26 41 69.5 61.5t95.5 20.5q95 0 145 -47t50 -151v-328h-105v313q0 126 -111 126q-83 0 -114 -49t-31 -141v-249h-106v598h-76v75h76v87h106z" />
    <glyph glyph-name="Itilde" unicode="&#x128;" horiz-adv-x="354" 
d="M315 0h-277v62l85 25v539l-85 26v62h277v-62l-84 -26v-539l84 -25v-62zM-11 781q6 64 37 99t80 35q28 0 54.5 -13.5t50.5 -27.5t46 -14q39 0 53 56h57q-6 -64 -37 -99t-79 -35q-27 0 -53.5 13.5t-51 27.5t-46.5 14q-41 0 -54 -56h-57z" />
    <glyph glyph-name="itilde" unicode="&#x129;" horiz-adv-x="272" 
d="M189 0h-106v539h106v-539zM-53 606q6 64 37 99t80 35q28 0 54.5 -13.5t50.5 -27.5t46 -14q39 0 53 56h57q-6 -64 -37 -99t-79 -35q-27 0 -53.5 13.5t-51 27.5t-46.5 14q-41 0 -54 -56h-57z" />
    <glyph glyph-name="Imacron" unicode="&#x12a;" horiz-adv-x="354" 
d="M315 0h-277v62l85 25v539l-85 26v62h277v-62l-84 -26v-539l84 -25v-62zM330 861v-80h-307v80h307z" />
    <glyph glyph-name="imacron" unicode="&#x12b;" horiz-adv-x="272" 
d="M189 0h-106v539h106v-539zM289 686v-80h-307v80h307z" />
    <glyph glyph-name="Ibreve" unicode="&#x12c;" horiz-adv-x="354" 
d="M315 0h-277v62l85 25v539l-85 26v62h277v-62l-84 -26v-539l84 -25v-62zM344 924q-6 -64 -50 -103.5t-119 -39.5q-78 0 -119 39t-45 104h63q4 -41 31 -51.5t72 -10.5q38 0 68 11.5t35 50.5h64z" />
    <glyph glyph-name="ibreve" unicode="&#x12d;" horiz-adv-x="272" 
d="M189 0h-106v539h106v-539zM302 749q-6 -64 -50 -103.5t-119 -39.5q-78 0 -119 39t-45 104h63q4 -41 31 -51.5t72 -10.5q38 0 68 11.5t35 50.5h64z" />
    <glyph glyph-name="Iogonek" unicode="&#x12e;" horiz-adv-x="354" 
d="M315 0h-277v62l85 25v539l-85 26v62h277v-62l-84 -26v-539l84 -25v-62zM219 -115q0 -21 11.5 -32t31.5 -11q17 0 29.5 2.5t21.5 4.5v-65q-15 -4 -30.5 -7t-35.5 -3q-55 0 -82 27t-27 72q0 29 14.5 56t37 49.5t45.5 37.5l53 -16q-33 -32 -51 -58.5t-18 -56.5z" />
    <glyph glyph-name="iogonek" unicode="&#x12f;" horiz-adv-x="272" 
d="M137 744q24 0 42 -14t18 -47q0 -32 -18 -46.5t-42 -14.5q-26 0 -43.5 14.5t-17.5 46.5q0 33 17.5 47t43.5 14zM189 539v-539h-106v539h106zM113 -115q0 -21 11.5 -32t31.5 -11q17 0 29.5 2.5t21.5 4.5v-65q-15 -4 -30.5 -7t-35.5 -3q-55 0 -82 27t-27 72q0 29 14.5 56
t37 49.5t45.5 37.5l53 -16q-33 -32 -51 -58.5t-18 -56.5z" />
    <glyph glyph-name="Idotaccent" unicode="&#x130;" horiz-adv-x="354" 
d="M315 0h-277v62l85 25v539l-85 26v62h277v-62l-84 -26v-539l84 -25v-62zM179 919q24 0 41.5 -14t17.5 -47q0 -32 -17.5 -46.5t-41.5 -14.5q-26 0 -43.5 14.5t-17.5 46.5q0 33 17.5 47t43.5 14z" />
    <glyph glyph-name="dotlessi" unicode="&#x131;" horiz-adv-x="272" 
d="M189 0h-106v539h106v-539z" />
    <glyph glyph-name="IJ" unicode="&#x132;" horiz-adv-x="644" 
d="M315 0h-277v62l85 25v539l-85 26v62h277v-62l-84 -26v-539l84 -25v-62zM356 -196q-26 0 -45.5 3.5t-33.5 9.5v90q16 -4 34 -7t38 -3q25 0 47 10t35.5 36t13.5 73v698h108v-693q0 -113 -54.5 -165t-142.5 -52z" />
    <glyph glyph-name="ij" unicode="&#x133;" horiz-adv-x="544" 
d="M137 744q24 0 42 -14t18 -47q0 -32 -18 -46.5t-42 -14.5q-26 0 -43.5 14.5t-17.5 46.5q0 33 17.5 47t43.5 14zM189 539v-539h-106v539h106zM348 683q0 33 17.5 47t43.5 14q24 0 42 -14t18 -47q0 -32 -18 -46.5t-42 -14.5q-26 0 -43.5 14.5t-17.5 46.5zM298 -240
q-26 0 -47.5 3.5t-36.5 8.5v85q16 -5 32 -7.5t36 -2.5q31 0 52 17.5t21 66.5v608h106v-613q0 -75 -38.5 -120.5t-124.5 -45.5z" />
    <glyph glyph-name="Jcircumflex" unicode="&#x134;" horiz-adv-x="290" 
d="M2 -196q-26 0 -45.5 3.5t-33.5 9.5v90q16 -4 34 -7t38 -3q25 0 47 10t35.5 36t13.5 73v698h108v-693q0 -113 -54.5 -165t-142.5 -52zM202 941q13 -22 35.5 -49.5t47 -54t42.5 -44.5v-12h-73q-26 16 -54.5 39t-55.5 50q-54 -55 -108 -89h-72v12q19 19 42.5 45t45.5 53.5
t36 49.5h114z" />
    <glyph glyph-name="jcircumflex" unicode="&#x135;" horiz-adv-x="272" 
d="M26 -240q-26 0 -47.5 3.5t-36.5 8.5v85q16 -5 32 -7.5t36 -2.5q31 0 52 17.5t21 66.5v608h106v-613q0 -75 -38.5 -120.5t-124.5 -45.5zM192 766q13 -22 35.5 -49.5t47 -54t42.5 -44.5v-12h-73q-26 16 -54.5 39t-55.5 50q-54 -55 -108 -89h-72v12q19 19 42.5 45t45.5 53.5
t36 49.5h114z" />
    <glyph glyph-name="uni0136" unicode="&#x136;" horiz-adv-x="632" 
d="M632 0h-125l-234 329l-70 -58v-271h-108v714h108v-345q26 30 52 60.5t52 60.5l193 224h124l-273 -312zM405 -70q-9 -29 -31.5 -73t-48.5 -78h-60v12q7 18 15 44.5t14 54.5t9 49h102v-9z" />
    <glyph glyph-name="uni0137" unicode="&#x137;" horiz-adv-x="559" 
d="M188 380q0 -20 -2 -48t-3 -50h3q11 15 30.5 39.5t34.5 40.5l165 177h123l-217 -231l231 -308h-125l-178 241l-62 -52v-189h-105v760h105v-380zM350 -70q-9 -29 -31.5 -73t-48.5 -78h-60v12q7 18 15 44.5t14 54.5t9 49h102v-9z" />
    <glyph glyph-name="kgreenlandic" unicode="&#x138;" horiz-adv-x="559" 
d="M538 539l-207 -241l222 -298h-124l-169 232l-68 -51v-181h-109v539h109v-140q0 -37 -1.5 -72.5t-3.5 -58.5h2q12 15 24.5 30.5t23.5 29.5l179 211h122z" />
    <glyph glyph-name="Lacute" unicode="&#x139;" horiz-adv-x="536" 
d="M95 0v714h108v-621h305v-93h-413zM314 931q-15 -18 -42 -47t-58 -57t-55 -46h-70v12q15 19 34 45t37 53.5t30 49.5h124v-10z" />
    <glyph glyph-name="lacute" unicode="&#x13a;" horiz-adv-x="272" 
d="M189 0h-106v760h106v-760zM303 977q-15 -18 -42 -47t-58 -57t-55 -46h-70v12q15 19 34 45t37 53.5t30 49.5h124v-10z" />
    <glyph glyph-name="uni013B" unicode="&#x13b;" horiz-adv-x="536" 
d="M95 0v714h108v-621h305v-93h-413zM372 -70q-9 -29 -31.5 -73t-48.5 -78h-60v12q7 18 15 44.5t14 54.5t9 49h102v-9z" />
    <glyph glyph-name="uni013C" unicode="&#x13c;" horiz-adv-x="272" 
d="M189 0h-106v760h106v-760zM206 -70q-9 -29 -31.5 -73t-48.5 -78h-60v12q7 18 15 44.5t14 54.5t9 49h102v-9z" />
    <glyph glyph-name="Lcaron" unicode="&#x13d;" horiz-adv-x="536" 
d="M517 705q-9 -29 -30.5 -72.5t-44.5 -78.5h-59v12q9 29 18.5 72.5t13.5 75.5h102v-9zM95 0v714h108v-621h305v-93h-413z" />
    <glyph glyph-name="lcaron" unicode="&#x13e;" horiz-adv-x="272" 
d="M362 751q-9 -29 -30 -72.5t-45 -78.5h-59v12q9 29 18.5 72.5t13.5 75.5h102v-9zM189 0h-106v760h106v-760z" />
    <glyph glyph-name="Ldot" unicode="&#x13f;" horiz-adv-x="536" 
d="M95 0v714h108v-621h305v-93h-413zM400 429q24 0 41.5 -14t17.5 -47q0 -32 -17.5 -46.5t-41.5 -14.5q-26 0 -43.5 14.5t-17.5 46.5q0 33 17.5 47t43.5 14z" />
    <glyph glyph-name="ldot" unicode="&#x140;" horiz-adv-x="296" 
d="M189 0h-106v760h106v-760zM284 440q24 0 41.5 -14t17.5 -47q0 -32 -17.5 -46.5t-41.5 -14.5q-26 0 -43.5 14.5t-17.5 46.5q0 33 17.5 47t43.5 14z" />
    <glyph glyph-name="Lslash" unicode="&#x141;" horiz-adv-x="536" 
d="M95 0v245l-45 -26l-41 71l86 51v373h108v-308l117 69l42 -72l-159 -94v-216h305v-93h-413z" />
    <glyph glyph-name="lslash" unicode="&#x142;" horiz-adv-x="272" 
d="M78 0v270l-46 -29l-42 70l88 56v393h106v-326l55 37l43 -70l-98 -64v-337h-106z" />
    <glyph glyph-name="Nacute" unicode="&#x143;" horiz-adv-x="776" 
d="M681 0h-131l-361 577h-4q2 -40 5 -91.5t3 -105.5v-380h-98v714h130l360 -574h3q-1 21 -2.5 53t-2.5 68.5t-2 68.5v384h100v-714zM555 931q-15 -18 -42 -47t-58 -57t-55 -46h-70v12q15 19 34 45t37 53.5t30 49.5h124v-10z" />
    <glyph glyph-name="nacute" unicode="&#x144;" horiz-adv-x="630" 
d="M356 549q94 0 144 -47t50 -151v-351h-105v336q0 126 -111 126q-83 0 -114 -49t-31 -141v-272h-106v539h84l15 -72h6q26 42 71.5 62t96.5 20zM482 756q-15 -18 -42 -47t-58 -57t-55 -46h-70v12q15 19 34 45t37 53.5t30 49.5h124v-10z" />
    <glyph glyph-name="uni0145" unicode="&#x145;" horiz-adv-x="776" 
d="M681 0h-131l-361 577h-4q2 -40 5 -91.5t3 -105.5v-380h-98v714h130l360 -574h3q-1 21 -2.5 53t-2.5 68.5t-2 68.5v384h100v-714zM458 -70q-9 -29 -31.5 -73t-48.5 -78h-60v12q7 18 15 44.5t14 54.5t9 49h102v-9z" />
    <glyph glyph-name="uni0146" unicode="&#x146;" horiz-adv-x="630" 
d="M356 549q94 0 144 -47t50 -151v-351h-105v336q0 126 -111 126q-83 0 -114 -49t-31 -141v-272h-106v539h84l15 -72h6q26 42 71.5 62t96.5 20zM385 -70q-9 -29 -31.5 -73t-48.5 -78h-60v12q7 18 15 44.5t14 54.5t9 49h102v-9z" />
    <glyph glyph-name="Ncaron" unicode="&#x147;" horiz-adv-x="776" 
d="M681 0h-131l-361 577h-4q2 -40 5 -91.5t3 -105.5v-380h-98v714h130l360 -574h3q-1 21 -2.5 53t-2.5 68.5t-2 68.5v384h100v-714zM330 781q-14 23 -36 50t-46 52.5t-42 44.5v13h72q26 -17 54.5 -40t53.5 -50q27 27 55.5 50t54.5 40h73v-13q-18 -19 -42.5 -44.5t-47 -52.5
t-35.5 -50h-114z" />
    <glyph glyph-name="ncaron" unicode="&#x148;" horiz-adv-x="630" 
d="M356 549q94 0 144 -47t50 -151v-351h-105v336q0 126 -111 126q-83 0 -114 -49t-31 -141v-272h-106v539h84l15 -72h6q26 42 71.5 62t96.5 20zM257 606q-14 23 -36 50t-46 52.5t-42 44.5v13h72q26 -17 54.5 -40t53.5 -50q27 27 55.5 50t54.5 40h73v-13q-18 -19 -42.5 -44.5
t-47 -52.5t-35.5 -50h-114z" />
    <glyph glyph-name="napostrophe" unicode="&#x149;" horiz-adv-x="712" 
d="M439 549q94 0 144 -47t50 -151v-351h-105v336q0 126 -111 126q-83 0 -114 -49t-31 -141v-272h-106v539h84l15 -72h6q26 42 71.5 62t96.5 20zM164 703q-13 -53 -37 -116.5t-49 -117.5h-77q14 57 28 125t22 120h106z" />
    <glyph glyph-name="Eng" unicode="&#x14a;" horiz-adv-x="776" 
d="M481 -196q-27 0 -47 3.5t-35 9.5v88q17 -4 36.5 -7t41.5 -3q43 0 73.5 22.5t32.5 83.5l-394 576h-4q2 -22 4 -57.5t3 -74.5t1 -73v-372h-98v714h130l360 -533h3q-1 23 -3 57t-3 71.5t-1 70.5v334h100v-710q0 -103 -54.5 -151.5t-145.5 -48.5z" />
    <glyph glyph-name="eng" unicode="&#x14b;" horiz-adv-x="630" 
d="M397 -240q-24 0 -43.5 3.5t-32.5 8.5v85q14 -5 27.5 -7.5t31.5 -2.5q27 0 46 17.5t19 66.5v409q0 122 -110 122q-83 0 -114.5 -49t-31.5 -140v-273h-106v539h84l15 -72h7q26 42 70.5 62t96.5 20q95 0 145 -47t50 -150v-426q0 -75 -36.5 -120.5t-117.5 -45.5z" />
    <glyph glyph-name="Omacron" unicode="&#x14c;" horiz-adv-x="785" 
d="M725 358q0 -111 -37 -193.5t-111 -128.5t-184 -46q-113 0 -187 46t-110 129t-36 194q0 110 36.5 192t110.5 128t187 46q110 0 183.5 -45.5t110.5 -128t37 -193.5zM174 358q0 -128 53 -202t166 -74q114 0 166 74t52 202t-51.5 201t-165.5 73t-167 -73t-53 -201zM546 861
v-80h-307v80h307z" />
    <glyph glyph-name="omacron" unicode="&#x14d;" horiz-adv-x="609" 
d="M558 270q0 -134 -69 -207t-186 -73q-73 0 -129.5 33t-89 95.5t-32.5 151.5q0 134 68 206.5t186 72.5q74 0 130.5 -32.5t89 -94.5t32.5 -152zM161 270q0 -91 34.5 -142t109.5 -51t109.5 51t34.5 142q0 92 -35 141.5t-110 49.5t-109 -49.5t-34 -141.5zM458 686v-80h-307v80
h307z" />
    <glyph glyph-name="Obreve" unicode="&#x14e;" horiz-adv-x="785" 
d="M725 358q0 -111 -37 -193.5t-111 -128.5t-184 -46q-113 0 -187 46t-110 129t-36 194q0 110 36.5 192t110.5 128t187 46q110 0 183.5 -45.5t110.5 -128t37 -193.5zM174 358q0 -128 53 -202t166 -74q114 0 166 74t52 202t-51.5 201t-165.5 73t-167 -73t-53 -201zM559 924
q-6 -64 -50 -103.5t-119 -39.5q-78 0 -119 39t-45 104h63q4 -41 31 -51.5t72 -10.5q38 0 68 11.5t35 50.5h64z" />
    <glyph glyph-name="obreve" unicode="&#x14f;" horiz-adv-x="609" 
d="M558 270q0 -134 -69 -207t-186 -73q-73 0 -129.5 33t-89 95.5t-32.5 151.5q0 134 68 206.5t186 72.5q74 0 130.5 -32.5t89 -94.5t32.5 -152zM161 270q0 -91 34.5 -142t109.5 -51t109.5 51t34.5 142q0 92 -35 141.5t-110 49.5t-109 -49.5t-34 -141.5zM471 749
q-6 -64 -50 -103.5t-119 -39.5q-78 0 -119 39t-45 104h63q4 -41 31 -51.5t72 -10.5q38 0 68 11.5t35 50.5h64z" />
    <glyph glyph-name="Ohungarumlaut" unicode="&#x150;" horiz-adv-x="785" 
d="M725 358q0 -111 -37 -193.5t-111 -128.5t-184 -46q-113 0 -187 46t-110 129t-36 194q0 110 36.5 192t110.5 128t187 46q110 0 183.5 -45.5t110.5 -128t37 -193.5zM174 358q0 -128 53 -202t166 -74q114 0 166 74t52 202t-51.5 201t-165.5 73t-167 -73t-53 -201zM584 931
q-11 -17 -36 -46t-54 -57.5t-52 -46.5h-59v12q14 19 31 45t32.5 53.5t26.5 49.5h111v-10zM402 931q-10 -17 -35 -46t-54 -57.5t-52 -46.5h-59v12q21 29 46.5 71.5t42.5 76.5h111v-10z" />
    <glyph glyph-name="ohungarumlaut" unicode="&#x151;" horiz-adv-x="609" 
d="M558 270q0 -134 -69 -207t-186 -73q-73 0 -129.5 33t-89 95.5t-32.5 151.5q0 134 68 206.5t186 72.5q74 0 130.5 -32.5t89 -94.5t32.5 -152zM161 270q0 -91 34.5 -142t109.5 -51t109.5 51t34.5 142q0 92 -35 141.5t-110 49.5t-109 -49.5t-34 -141.5zM496 756
q-11 -17 -36 -46t-54 -57.5t-52 -46.5h-59v12q14 19 31 45t32.5 53.5t26.5 49.5h111v-10zM314 756q-10 -17 -35 -46t-54 -57.5t-52 -46.5h-59v12q21 29 46.5 71.5t42.5 76.5h111v-10z" />
    <glyph glyph-name="OE" unicode="&#x152;" horiz-adv-x="941" 
d="M384 725q55 0 100 -11h398v-92h-284v-204h265v-91h-265v-234h284v-93h-394q-22 -4 -48.5 -7t-52.5 -3q-111 0 -183.5 46t-108 129t-35.5 194t35.5 193t107 127.5t181.5 45.5zM390 632q-112 0 -165 -73t-53 -201t52.5 -202t164.5 -74q28 0 55 5t47 13v515q-20 9 -46.5 13
t-54.5 4z" />
    <glyph glyph-name="oe" unicode="&#x153;" horiz-adv-x="955" 
d="M679 548q105 0 166 -65t61 -178v-58h-358q2 -87 42 -129t114 -42q53 0 93.5 9.5t82.5 28.5v-88q-41 -18 -81.5 -27t-97.5 -9q-66 0 -118.5 25t-85.5 76q-32 -50 -82.5 -75.5t-114.5 -25.5q-72 0 -128 32.5t-88.5 95.5t-32.5 152q0 134 67 206t184 72q61 0 110.5 -25.5
t80.5 -74.5q64 100 186 100zM679 466q-56 0 -89.5 -35.5t-39.5 -105.5h249q0 63 -29 102t-91 39zM299 461q-73 0 -105.5 -48t-32.5 -143t33 -144t107 -49q72 0 105.5 48t33.5 143q0 97 -34 145t-107 48z" />
    <glyph glyph-name="Racute" unicode="&#x154;" horiz-adv-x="633" 
d="M295 714q137 0 202.5 -51t65.5 -155q0 -55 -20.5 -92.5t-52.5 -61t-67 -37.5l200 -317h-124l-172 289h-124v-289h-108v714h200zM288 622h-85v-243h90q83 0 121 31.5t38 93.5q0 64 -40 91t-124 27zM486 931q-15 -18 -42 -47t-58 -57t-55 -46h-70v12q15 19 34 45t37 53.5
t30 49.5h124v-10z" />
    <glyph glyph-name="racute" unicode="&#x155;" horiz-adv-x="425" 
d="M349 549q14 0 30.5 -1.5t28.5 -3.5l-11 -99q-26 7 -54 7q-40 0 -75.5 -20t-57 -57.5t-21.5 -90.5v-284h-106v539h84l14 -96h4q26 43 67 74.5t97 31.5zM411 756q-15 -18 -42 -47t-58 -57t-55 -46h-70v12q15 19 34 45t37 53.5t30 49.5h124v-10z" />
    <glyph glyph-name="uni0156" unicode="&#x156;" horiz-adv-x="633" 
d="M295 714q137 0 202.5 -51t65.5 -155q0 -55 -20.5 -92.5t-52.5 -61t-67 -37.5l200 -317h-124l-172 289h-124v-289h-108v714h200zM288 622h-85v-243h90q83 0 121 31.5t38 93.5q0 64 -40 91t-124 27zM407 -70q-9 -29 -31.5 -73t-48.5 -78h-60v12q7 18 15 44.5t14 54.5t9 49
h102v-9z" />
    <glyph glyph-name="uni0157" unicode="&#x157;" horiz-adv-x="425" 
d="M349 549q14 0 30.5 -1.5t28.5 -3.5l-11 -99q-26 7 -54 7q-40 0 -75.5 -20t-57 -57.5t-21.5 -90.5v-284h-106v539h84l14 -96h4q26 43 67 74.5t97 31.5zM205 -70q-9 -29 -31.5 -73t-48.5 -78h-60v12q7 18 15 44.5t14 54.5t9 49h102v-9z" />
    <glyph glyph-name="Rcaron" unicode="&#x158;" horiz-adv-x="633" 
d="M295 714q137 0 202.5 -51t65.5 -155q0 -55 -20.5 -92.5t-52.5 -61t-67 -37.5l200 -317h-124l-172 289h-124v-289h-108v714h200zM288 622h-85v-243h90q83 0 121 31.5t38 93.5q0 64 -40 91t-124 27zM261 781q-14 23 -36 50t-46 52.5t-42 44.5v13h72q26 -17 54.5 -40
t53.5 -50q27 27 55.5 50t54.5 40h73v-13q-18 -19 -42.5 -44.5t-47 -52.5t-35.5 -50h-114z" />
    <glyph glyph-name="rcaron" unicode="&#x159;" horiz-adv-x="425" 
d="M349 549q14 0 30.5 -1.5t28.5 -3.5l-11 -99q-26 7 -54 7q-40 0 -75.5 -20t-57 -57.5t-21.5 -90.5v-284h-106v539h84l14 -96h4q26 43 67 74.5t97 31.5zM186 606q-14 23 -36 50t-46 52.5t-42 44.5v13h72q26 -17 54.5 -40t53.5 -50q27 27 55.5 50t54.5 40h73v-13
q-18 -19 -42.5 -44.5t-47 -52.5t-35.5 -50h-114z" />
    <glyph glyph-name="Sacute" unicode="&#x15a;" horiz-adv-x="550" 
d="M505 193q0 -95 -69 -149t-189 -54q-58 0 -109.5 9.5t-87.5 27.5v102q40 -18 94 -32.5t110 -14.5q72 0 108 28t36 75q0 33 -16.5 55.5t-51.5 41.5t-92 42q-53 20 -93.5 47t-63.5 67t-23 98q0 88 64 138t168 50q58 0 107.5 -11.5t94.5 -31.5l-34 -89q-41 17 -83.5 28
t-87.5 11q-59 0 -90 -26t-31 -68q0 -33 15 -55.5t48 -40.5t87 -40q60 -24 102.5 -50.5t64.5 -64t22 -93.5zM451 931q-15 -18 -42 -47t-58 -57t-55 -46h-70v12q15 19 34 45t37 53.5t30 49.5h124v-10z" />
    <glyph glyph-name="sacute" unicode="&#x15b;" horiz-adv-x="484" 
d="M441 152q0 -79 -58 -120.5t-161 -41.5q-57 0 -97.5 8.5t-74.5 24.5v93q35 -17 82.5 -30.5t92.5 -13.5q60 0 86.5 19t26.5 51q0 18 -10 32.5t-37.5 30t-80.5 35.5q-52 21 -87.5 41.5t-54.5 49t-19 73.5q0 70 56.5 107.5t149.5 37.5q49 0 92.5 -10t84.5 -28l-35 -81
q-35 15 -72 25.5t-75 10.5q-48 0 -73 -15t-25 -42q0 -19 12 -33t40.5 -28t78.5 -34q50 -19 85.5 -39t54 -49t18.5 -74zM409 756q-15 -18 -42 -47t-58 -57t-55 -46h-70v12q15 19 34 45t37 53.5t30 49.5h124v-10z" />
    <glyph glyph-name="Scircumflex" unicode="&#x15c;" horiz-adv-x="550" 
d="M505 193q0 -95 -69 -149t-189 -54q-58 0 -109.5 9.5t-87.5 27.5v102q40 -18 94 -32.5t110 -14.5q72 0 108 28t36 75q0 33 -16.5 55.5t-51.5 41.5t-92 42q-53 20 -93.5 47t-63.5 67t-23 98q0 88 64 138t168 50q58 0 107.5 -11.5t94.5 -31.5l-34 -89q-41 17 -83.5 28
t-87.5 11q-59 0 -90 -26t-31 -68q0 -33 15 -55.5t48 -40.5t87 -40q60 -24 102.5 -50.5t64.5 -64t22 -93.5zM341 941q13 -22 35.5 -49.5t47 -54t42.5 -44.5v-12h-73q-26 16 -54.5 39t-55.5 50q-54 -55 -108 -89h-72v12q19 19 42.5 45t45.5 53.5t36 49.5h114z" />
    <glyph glyph-name="scircumflex" unicode="&#x15d;" horiz-adv-x="484" 
d="M441 152q0 -79 -58 -120.5t-161 -41.5q-57 0 -97.5 8.5t-74.5 24.5v93q35 -17 82.5 -30.5t92.5 -13.5q60 0 86.5 19t26.5 51q0 18 -10 32.5t-37.5 30t-80.5 35.5q-52 21 -87.5 41.5t-54.5 49t-19 73.5q0 70 56.5 107.5t149.5 37.5q49 0 92.5 -10t84.5 -28l-35 -81
q-35 15 -72 25.5t-75 10.5q-48 0 -73 -15t-25 -42q0 -19 12 -33t40.5 -28t78.5 -34q50 -19 85.5 -39t54 -49t18.5 -74zM299 766q13 -22 35.5 -49.5t47 -54t42.5 -44.5v-12h-73q-26 16 -54.5 39t-55.5 50q-54 -55 -108 -89h-72v12q19 19 42.5 45t45.5 53.5t36 49.5h114z" />
    <glyph glyph-name="Scedilla" unicode="&#x15e;" horiz-adv-x="550" 
d="M505 193q0 -95 -69 -149t-189 -54q-58 0 -109.5 9.5t-87.5 27.5v102q40 -18 94 -32.5t110 -14.5q72 0 108 28t36 75q0 33 -16.5 55.5t-51.5 41.5t-92 42q-53 20 -93.5 47t-63.5 67t-23 98q0 88 64 138t168 50q58 0 107.5 -11.5t94.5 -31.5l-34 -89q-41 17 -83.5 28
t-87.5 11q-59 0 -90 -26t-31 -68q0 -33 15 -55.5t48 -40.5t87 -40q60 -24 102.5 -50.5t64.5 -64t22 -93.5zM363 -134q0 -50 -36 -78t-113 -28q-34 0 -56 6v63q25 -6 58 -6q29 0 45.5 8.5t16.5 31.5q0 24 -24 36.5t-64 17.5l42 83h68l-22 -46q34 -9 59.5 -29.5t25.5 -58.5z
" />
    <glyph glyph-name="scedilla" unicode="&#x15f;" horiz-adv-x="484" 
d="M441 152q0 -79 -58 -120.5t-161 -41.5q-57 0 -97.5 8.5t-74.5 24.5v93q35 -17 82.5 -30.5t92.5 -13.5q60 0 86.5 19t26.5 51q0 18 -10 32.5t-37.5 30t-80.5 35.5q-52 21 -87.5 41.5t-54.5 49t-19 73.5q0 70 56.5 107.5t149.5 37.5q49 0 92.5 -10t84.5 -28l-35 -81
q-35 15 -72 25.5t-75 10.5q-48 0 -73 -15t-25 -42q0 -19 12 -33t40.5 -28t78.5 -34q50 -19 85.5 -39t54 -49t18.5 -74zM346 -134q0 -50 -36 -78t-113 -28q-34 0 -56 6v63q25 -6 58 -6q29 0 45.5 8.5t16.5 31.5q0 24 -24 36.5t-64 17.5l42 83h68l-22 -46q34 -9 59.5 -29.5
t25.5 -58.5z" />
    <glyph glyph-name="Scaron" unicode="&#x160;" horiz-adv-x="550" 
d="M505 193q0 -95 -69 -149t-189 -54q-58 0 -109.5 9.5t-87.5 27.5v102q40 -18 94 -32.5t110 -14.5q72 0 108 28t36 75q0 33 -16.5 55.5t-51.5 41.5t-92 42q-53 20 -93.5 47t-63.5 67t-23 98q0 88 64 138t168 50q58 0 107.5 -11.5t94.5 -31.5l-34 -89q-41 17 -83.5 28
t-87.5 11q-59 0 -90 -26t-31 -68q0 -33 15 -55.5t48 -40.5t87 -40q60 -24 102.5 -50.5t64.5 -64t22 -93.5zM227 781q-14 23 -36 50t-46 52.5t-42 44.5v13h72q26 -17 54.5 -40t53.5 -50q27 27 55.5 50t54.5 40h73v-13q-18 -19 -42.5 -44.5t-47 -52.5t-35.5 -50h-114z" />
    <glyph glyph-name="scaron" unicode="&#x161;" horiz-adv-x="484" 
d="M441 152q0 -79 -58 -120.5t-161 -41.5q-57 0 -97.5 8.5t-74.5 24.5v93q35 -17 82.5 -30.5t92.5 -13.5q60 0 86.5 19t26.5 51q0 18 -10 32.5t-37.5 30t-80.5 35.5q-52 21 -87.5 41.5t-54.5 49t-19 73.5q0 70 56.5 107.5t149.5 37.5q49 0 92.5 -10t84.5 -28l-35 -81
q-35 15 -72 25.5t-75 10.5q-48 0 -73 -15t-25 -42q0 -19 12 -33t40.5 -28t78.5 -34q50 -19 85.5 -39t54 -49t18.5 -74zM185 606q-14 23 -36 50t-46 52.5t-42 44.5v13h72q26 -17 54.5 -40t53.5 -50q27 27 55.5 50t54.5 40h73v-13q-18 -19 -42.5 -44.5t-47 -52.5t-35.5 -50
h-114z" />
    <glyph glyph-name="uni0162" unicode="&#x162;" horiz-adv-x="563" 
d="M335 0h-108v621h-214v93h536v-93h-214v-621zM387 -134q0 -50 -36 -78t-113 -28q-34 0 -56 6v63q25 -6 58 -6q29 0 45.5 8.5t16.5 31.5q0 24 -24 36.5t-64 17.5l42 83h68l-22 -46q34 -9 59.5 -29.5t25.5 -58.5z" />
    <glyph glyph-name="uni0163" unicode="&#x163;" horiz-adv-x="383" 
d="M277 76q21 0 43 3.5t38 9.5v-80q-18 -8 -46.5 -13.5t-57.5 -5.5q-44 0 -81 15t-58.5 52t-21.5 103v298h-75v48l79 40l37 114h65v-121h154v-81h-154v-296q0 -44 21.5 -65t56.5 -21zM328 -134q0 -50 -36 -78t-113 -28q-34 0 -56 6v63q25 -6 58 -6q29 0 45.5 8.5t16.5 31.5
q0 24 -24 36.5t-64 17.5l42 83h68l-22 -46q34 -9 59.5 -29.5t25.5 -58.5z" />
    <glyph glyph-name="Tcaron" unicode="&#x164;" horiz-adv-x="563" 
d="M335 0h-108v621h-214v93h536v-93h-214v-621zM224 781q-14 23 -36 50t-46 52.5t-42 44.5v13h72q26 -17 54.5 -40t53.5 -50q27 27 55.5 50t54.5 40h73v-13q-18 -19 -42.5 -44.5t-47 -52.5t-35.5 -50h-114z" />
    <glyph glyph-name="tcaron" unicode="&#x165;" horiz-adv-x="383" 
d="M500 751q-10 -29 -31 -72.5t-44 -78.5h-60v12q10 29 19.5 72.5t12.5 75.5h103v-9zM277 76q21 0 43 3.5t38 9.5v-80q-18 -8 -46.5 -13.5t-57.5 -5.5q-44 0 -81 15t-58.5 52t-21.5 103v298h-75v48l79 40l37 114h65v-121h154v-81h-154v-296q0 -44 21.5 -65t56.5 -21z" />
    <glyph glyph-name="Tbar" unicode="&#x166;" horiz-adv-x="563" 
d="M227 0v315h-141v89h141v216h-214v94h536v-94h-214v-216h140v-89h-140v-315h-108z" />
    <glyph glyph-name="tbar" unicode="&#x167;" horiz-adv-x="383" 
d="M26 269v75h67v114h-75v48l79 40l37 114h65v-121h154v-81h-154v-114h143v-75h-143v-107q0 -44 21.5 -65t56.5 -21q21 0 43 3.5t38 9.5v-80q-18 -8 -46.5 -13.5t-57.5 -5.5q-44 0 -81 15t-58.5 52t-21.5 103v109h-67z" />
    <glyph glyph-name="Utilde" unicode="&#x168;" horiz-adv-x="738" 
d="M649 252q0 -74 -31 -133.5t-93.5 -94t-158.5 -34.5q-136 0 -206.5 72.5t-70.5 191.5v460h108v-455q0 -177 174 -177q90 0 130.5 48t40.5 130v454h107v-462zM181 781q6 64 37 99t80 35q28 0 54.5 -13.5t50.5 -27.5t46 -14q39 0 53 56h57q-6 -64 -37 -99t-79 -35
q-27 0 -53.5 13.5t-51 27.5t-46.5 14q-41 0 -54 -56h-57z" />
    <glyph glyph-name="utilde" unicode="&#x169;" horiz-adv-x="630" 
d="M547 539v-539h-85l-15 71h-5q-26 -42 -72 -61.5t-97 -19.5q-95 0 -145 47t-50 149v353h107v-337q0 -125 109 -125q83 0 115 49t32 140v273h106zM126 606q6 64 37 99t80 35q28 0 54.5 -13.5t50.5 -27.5t46 -14q39 0 53 56h57q-6 -64 -37 -99t-79 -35q-27 0 -53.5 13.5
t-51 27.5t-46.5 14q-41 0 -54 -56h-57z" />
    <glyph glyph-name="Umacron" unicode="&#x16a;" horiz-adv-x="738" 
d="M649 252q0 -74 -31 -133.5t-93.5 -94t-158.5 -34.5q-136 0 -206.5 72.5t-70.5 191.5v460h108v-455q0 -177 174 -177q90 0 130.5 48t40.5 130v454h107v-462zM523 861v-80h-307v80h307z" />
    <glyph glyph-name="umacron" unicode="&#x16b;" horiz-adv-x="630" 
d="M547 539v-539h-85l-15 71h-5q-26 -42 -72 -61.5t-97 -19.5q-95 0 -145 47t-50 149v353h107v-337q0 -125 109 -125q83 0 115 49t32 140v273h106zM468 686v-80h-307v80h307z" />
    <glyph glyph-name="Ubreve" unicode="&#x16c;" horiz-adv-x="738" 
d="M649 252q0 -74 -31 -133.5t-93.5 -94t-158.5 -34.5q-136 0 -206.5 72.5t-70.5 191.5v460h108v-455q0 -177 174 -177q90 0 130.5 48t40.5 130v454h107v-462zM536 924q-6 -64 -50 -103.5t-119 -39.5q-78 0 -119 39t-45 104h63q4 -41 31 -51.5t72 -10.5q38 0 68 11.5
t35 50.5h64z" />
    <glyph glyph-name="ubreve" unicode="&#x16d;" horiz-adv-x="630" 
d="M547 539v-539h-85l-15 71h-5q-26 -42 -72 -61.5t-97 -19.5q-95 0 -145 47t-50 149v353h107v-337q0 -125 109 -125q83 0 115 49t32 140v273h106zM481 749q-6 -64 -50 -103.5t-119 -39.5q-78 0 -119 39t-45 104h63q4 -41 31 -51.5t72 -10.5q38 0 68 11.5t35 50.5h64z" />
    <glyph glyph-name="Uring" unicode="&#x16e;" horiz-adv-x="738" 
d="M649 252q0 -74 -31 -133.5t-93.5 -94t-158.5 -34.5q-136 0 -206.5 72.5t-70.5 191.5v460h108v-455q0 -177 174 -177q90 0 130.5 48t40.5 130v454h107v-462zM369 781q-51 0 -82 28.5t-31 80.5q0 50 31 79t82 29q48 0 81 -28.5t33 -78.5q0 -52 -32.5 -81t-81.5 -29z
M369 836q23 0 38 14.5t15 39.5t-15.5 39t-37.5 14q-23 0 -38.5 -14t-15.5 -39t14 -39.5t40 -14.5z" />
    <glyph glyph-name="uring" unicode="&#x16f;" horiz-adv-x="630" 
d="M547 539v-539h-85l-15 71h-5q-26 -42 -72 -61.5t-97 -19.5q-95 0 -145 47t-50 149v353h107v-337q0 -125 109 -125q83 0 115 49t32 140v273h106zM314 606q-51 0 -82 28.5t-31 80.5q0 50 31 79t82 29q48 0 81 -28.5t33 -78.5q0 -52 -32.5 -81t-81.5 -29zM314 661
q23 0 38 14.5t15 39.5t-15.5 39t-37.5 14q-23 0 -38.5 -14t-15.5 -39t14 -39.5t40 -14.5z" />
    <glyph glyph-name="Uhungarumlaut" unicode="&#x170;" horiz-adv-x="738" 
d="M649 252q0 -74 -31 -133.5t-93.5 -94t-158.5 -34.5q-136 0 -206.5 72.5t-70.5 191.5v460h108v-455q0 -177 174 -177q90 0 130.5 48t40.5 130v454h107v-462zM560 931q-11 -17 -36 -46t-54 -57.5t-52 -46.5h-59v12q14 19 31 45t32.5 53.5t26.5 49.5h111v-10zM378 931
q-10 -17 -35 -46t-54 -57.5t-52 -46.5h-59v12q21 29 46.5 71.5t42.5 76.5h111v-10z" />
    <glyph glyph-name="uhungarumlaut" unicode="&#x171;" horiz-adv-x="630" 
d="M547 539v-539h-85l-15 71h-5q-26 -42 -72 -61.5t-97 -19.5q-95 0 -145 47t-50 149v353h107v-337q0 -125 109 -125q83 0 115 49t32 140v273h106zM506 756q-11 -17 -36 -46t-54 -57.5t-52 -46.5h-59v12q14 19 31 45t32.5 53.5t26.5 49.5h111v-10zM324 756q-10 -17 -35 -46
t-54 -57.5t-52 -46.5h-59v12q21 29 46.5 71.5t42.5 76.5h111v-10z" />
    <glyph glyph-name="Uogonek" unicode="&#x172;" horiz-adv-x="738" 
d="M472 -105q0 -28 12 -40.5t31 -12.5q17 0 29.5 2.5t20.5 4.5v-65q-14 -4 -29.5 -7t-36.5 -3q-54 0 -81.5 28t-27.5 80q0 31 15 60.5t37 54.5q-36 -7 -76 -7q-136 0 -206.5 72.5t-70.5 191.5v460h108v-455q0 -177 174 -177q90 0 130.5 48t40.5 130v454h107v-462
q0 -63 -22 -116t-68 -88q-45 -49 -66 -84t-21 -69z" />
    <glyph glyph-name="uogonek" unicode="&#x173;" horiz-adv-x="630" 
d="M547 539v-539h-85l-15 71h-5q-26 -42 -72 -61.5t-97 -19.5q-95 0 -145 47t-50 149v353h107v-337q0 -125 109 -125q83 0 115 49t32 140v273h106zM456 -115q0 -21 11.5 -32t31.5 -11q17 0 29.5 2.5t21.5 4.5v-65q-15 -4 -30.5 -7t-35.5 -3q-55 0 -82 27t-27 72
q0 29 14.5 56t37 49.5t45.5 37.5l53 -16q-33 -32 -51 -58.5t-18 -56.5z" />
    <glyph glyph-name="Wcircumflex" unicode="&#x174;" horiz-adv-x="941" 
d="M932 714l-188 -714h-115l-126 441q-7 24 -14.5 54t-13.5 56.5t-8 37.5q-1 -11 -6 -37t-12.5 -57t-14.5 -57l-124 -438h-115l-187 714h111l105 -422q11 -43 20 -90.5t14 -84.5q5 38 15 87t22 88l119 422h108l123 -424q12 -40 22 -89.5t15 -83.5q5 36 14.5 84t20.5 91
l105 422h110zM527 941q13 -22 35.5 -49.5t47 -54t42.5 -44.5v-12h-73q-26 16 -54.5 39t-55.5 50q-54 -55 -108 -89h-72v12q19 19 42.5 45t45.5 53.5t36 49.5h114z" />
    <glyph glyph-name="wcircumflex" unicode="&#x175;" horiz-adv-x="807" 
d="M447 270q-8 26 -16.5 60t-15.5 64.5t-11 46.5h-4q-3 -16 -10 -47t-15.5 -65t-16.5 -60l-80 -268h-118l-149 539h108l70 -273q11 -42 20.5 -89.5t13.5 -76.5h4q3 17 8.5 45t12 56.5t12.5 46.5l86 291h116l84 -291q6 -20 13 -47.5t12.5 -54t7.5 -45.5h4q2 16 7 44t12.5 60
t14.5 61l72 273h107l-151 -539h-121zM460 766q13 -22 35.5 -49.5t47 -54t42.5 -44.5v-12h-73q-26 16 -54.5 39t-55.5 50q-54 -55 -108 -89h-72v12q19 19 42.5 45t45.5 53.5t36 49.5h114z" />
    <glyph glyph-name="Ycircumflex" unicode="&#x176;" horiz-adv-x="583" 
d="M292 380l175 334h116l-238 -437v-277h-107v273l-238 441h117zM348 941q13 -22 35.5 -49.5t47 -54t42.5 -44.5v-12h-73q-26 16 -54.5 39t-55.5 50q-54 -55 -108 -89h-72v12q19 19 42.5 45t45.5 53.5t36 49.5h114z" />
    <glyph glyph-name="ycircumflex" unicode="&#x177;" horiz-adv-x="527" 
d="M1 539h114l112 -306q13 -35 22.5 -67.5t14.5 -63.5h4q5 26 15.5 61t23.5 71l106 305h114l-231 -612q-29 -78 -77.5 -122.5t-126.5 -44.5q-25 0 -43 2.5t-31 5.5v84q10 -2 26 -4t33 -2q46 0 74 26.5t44 69.5l22 58zM320 766q13 -22 35.5 -49.5t47 -54t42.5 -44.5v-12h-73
q-26 16 -54.5 39t-55.5 50q-54 -55 -108 -89h-72v12q19 19 42.5 45t45.5 53.5t36 49.5h114z" />
    <glyph glyph-name="Ydieresis" unicode="&#x178;" horiz-adv-x="583" 
d="M292 380l175 334h116l-238 -437v-277h-107v273l-238 441h117zM143 857q0 29 15.5 41.5t37.5 12.5t38 -12.5t16 -41.5q0 -27 -16 -40.5t-38 -13.5t-37.5 13.5t-15.5 40.5zM334 857q0 29 15.5 41.5t37.5 12.5q21 0 37 -12.5t16 -41.5q0 -27 -16 -40.5t-37 -13.5
q-22 0 -37.5 13.5t-15.5 40.5z" />
    <glyph glyph-name="Zacute" unicode="&#x179;" horiz-adv-x="574" 
d="M539 0h-505v77l366 544h-355v93h485v-77l-366 -544h375v-93zM458 931q-15 -18 -42 -47t-58 -57t-55 -46h-70v12q15 19 34 45t37 53.5t30 49.5h124v-10z" />
    <glyph glyph-name="zacute" unicode="&#x17a;" horiz-adv-x="475" 
d="M439 0h-404v67l278 390h-261v82h379v-75l-272 -382h280v-82zM404 756q-15 -18 -42 -47t-58 -57t-55 -46h-70v12q15 19 34 45t37 53.5t30 49.5h124v-10z" />
    <glyph glyph-name="Zdotaccent" unicode="&#x17b;" horiz-adv-x="574" 
d="M539 0h-505v77l366 544h-355v93h485v-77l-366 -544h375v-93zM293 919q24 0 41.5 -14t17.5 -47q0 -32 -17.5 -46.5t-41.5 -14.5q-26 0 -43.5 14.5t-17.5 46.5q0 33 17.5 47t43.5 14z" />
    <glyph glyph-name="zdotaccent" unicode="&#x17c;" horiz-adv-x="475" 
d="M439 0h-404v67l278 390h-261v82h379v-75l-272 -382h280v-82zM239 744q24 0 41.5 -14t17.5 -47q0 -32 -17.5 -46.5t-41.5 -14.5q-26 0 -43.5 14.5t-17.5 46.5q0 33 17.5 47t43.5 14z" />
    <glyph glyph-name="Zcaron" unicode="&#x17d;" horiz-adv-x="574" 
d="M539 0h-505v77l366 544h-355v93h485v-77l-366 -544h375v-93zM234 781q-14 23 -36 50t-46 52.5t-42 44.5v13h72q26 -17 54.5 -40t53.5 -50q27 27 55.5 50t54.5 40h73v-13q-18 -19 -42.5 -44.5t-47 -52.5t-35.5 -50h-114z" />
    <glyph glyph-name="zcaron" unicode="&#x17e;" horiz-adv-x="475" 
d="M439 0h-404v67l278 390h-261v82h379v-75l-272 -382h280v-82zM180 606q-14 23 -36 50t-46 52.5t-42 44.5v13h72q26 -17 54.5 -40t53.5 -50q27 27 55.5 50t54.5 40h73v-13q-18 -19 -42.5 -44.5t-47 -52.5t-35.5 -50h-114z" />
    <glyph glyph-name="longs" unicode="&#x17f;" horiz-adv-x="343" 
d="M269 679q-39 0 -59.5 -24t-20.5 -77v-578h-106v580q0 103 49.5 144t131.5 41q36 0 63.5 -6t47.5 -14l-27 -81q-16 5 -36.5 10t-42.5 5z" />
    <glyph glyph-name="uni0180" unicode="&#x180;" horiz-adv-x="620" 
d="M351 -10q-63 0 -101.5 22.5t-60.5 53.5h-8l-20 -66h-78v599h-76v75h76v86h106v-86h196v-75h-196v-25q0 -32 -1.5 -60.5t-3.5 -48.5h5q22 34 61.5 57t101.5 23q97 0 156.5 -67.5t59.5 -207.5q0 -139 -60 -209.5t-157 -70.5zM329 77q64 0 97 50t33 144q0 188 -132 188
q-75 0 -106.5 -45.5t-31.5 -139.5v-5q0 -93 29.5 -142.5t110.5 -49.5z" />
    <glyph glyph-name="uni0181" unicode="&#x181;" horiz-adv-x="749" 
d="M188 0v623h-26q-32 0 -46.5 -14.5t-14.5 -37.5q0 -16 3.5 -30.5t6.5 -21.5h-91q-4 10 -7.5 26t-3.5 30q0 66 36.5 102.5t117.5 36.5h234q136 0 206 -40t70 -138q0 -63 -33 -104.5t-95 -52.5v-5q42 -7 76 -26t54 -53.5t20 -90.5q0 -97 -67.5 -150.5t-184.5 -53.5h-255z
M414 416q84 0 116 27t32 80t-38.5 76.5t-121.5 23.5h-107v-207h119zM426 90q87 0 121 34t34 90q0 51 -35 82.5t-126 31.5h-125v-238h131z" />
    <glyph glyph-name="uni0182" unicode="&#x182;" horiz-adv-x="622" 
d="M95 0v714h432v-93h-324v-201h92q105 0 166 -26.5t86.5 -73.5t25.5 -107q0 -100 -63 -156.5t-206 -56.5h-209zM296 91q88 0 127 29.5t39 92.5q0 66 -43 91t-138 25h-78v-238h93z" />
    <glyph glyph-name="uni0183" unicode="&#x183;" horiz-adv-x="620" 
d="M351 -10q-63 0 -101.5 22.5t-60.5 53.5h-8l-20 -66h-78v760h431v-85h-325v-101q0 -33 -2 -64t-3 -45h5q22 34 61.5 57t101.5 23q97 0 156.5 -67.5t59.5 -207.5q0 -139 -60 -209.5t-157 -70.5zM329 77q64 0 97 50t33 144q0 188 -132 188q-75 0 -106.5 -45.5t-31.5 -139.5
v-5q0 -93 29.5 -142.5t110.5 -49.5z" />
    <glyph glyph-name="uni0184" unicode="&#x184;" horiz-adv-x="643" 
d="M343 -10q-135 0 -194.5 58.5t-59.5 161.5v504h108v-294h120q100 0 160.5 -28t88 -76t27.5 -107q0 -98 -62 -158.5t-188 -60.5zM341 81q142 0 142 128q0 66 -46.5 93t-133.5 27h-106v-117q0 -71 34.5 -101t109.5 -30z" />
    <glyph glyph-name="uni0185" unicode="&#x185;" horiz-adv-x="618" 
d="M326 -10q-114 0 -180 70t-66 207v493h106v-183q0 -32 -2 -62t-3 -47h5q22 34 62 57t102 23q97 0 156.5 -70t59.5 -209t-65.5 -209t-174.5 -70zM326 77q131 0 131 193q0 192 -132 192q-77 0 -108 -46t-31 -139v-12q0 -92 36.5 -140t103.5 -48z" />
    <glyph glyph-name="uni0186" unicode="&#x186;" horiz-adv-x="633" 
d="M244 -10q-58 0 -101 7.5t-85 23.5v93q44 -14 85.5 -22.5t86.5 -8.5q109 0 169.5 73t60.5 201q0 127 -57.5 200.5t-170.5 73.5q-46 0 -86 -12.5t-74 -28.5l-40 90q42 21 96.5 32.5t118.5 11.5q108 0 180.5 -45.5t109 -127.5t36.5 -194q0 -109 -38 -191.5t-111.5 -129
t-179.5 -46.5z" />
    <glyph glyph-name="uni0187" unicode="&#x187;" horiz-adv-x="633" 
d="M636 864q20 0 36.5 -4.5t26.5 -8.5v-85q-7 3 -21.5 6.5t-31.5 3.5q-48 0 -48 -50v-48l-39 -88q-35 16 -74.5 28.5t-84.5 12.5q-107 0 -167 -73.5t-60 -201.5q0 -127 56 -200t170 -73q46 0 88.5 8.5t86.5 22.5v-93q-42 -16 -85.5 -23.5t-102.5 -7.5q-110 0 -182 45.5
t-108 128t-36 193.5q0 108 39.5 191t115.5 129.5t186 46.5q55 0 108 -13v13q0 140 127 140z" />
    <glyph glyph-name="uni0188" unicode="&#x188;" horiz-adv-x="506" 
d="M300 -10q-112 0 -180 66.5t-68 209.5q0 100 33 162t91 91.5t132 29.5q15 0 30.5 -1.5t30.5 -3.5v76q0 145 126 145q20 0 36.5 -4.5t26.5 -9.5v-85q-7 3 -21.5 6.5t-31.5 3.5q-47 0 -47 -50v-110l-32 -84q-28 11 -59.5 19t-59.5 8q-146 0 -146 -192q0 -92 36 -140t106 -48
q45 0 79.5 10t63.5 26v-92q-29 -17 -63 -25t-83 -8z" />
    <glyph glyph-name="Dtail" unicode="&#x189;" horiz-adv-x="733" 
d="M316 714q109 0 189 -40t124 -117.5t44 -192.5q0 -181 -100 -272.5t-279 -91.5h-194v307h-72v92h72v315h216zM309 623h-101v-224h160v-92h-160v-216h82q270 0 270 270q0 135 -66 198.5t-185 63.5z" />
    <glyph glyph-name="uni018A" unicode="&#x18a;" horiz-adv-x="825" 
d="M187 0v623h-26q-31 0 -46 -14.5t-15 -37.5q0 -16 3.5 -30.5t6.5 -21.5h-90q-4 10 -7.5 26t-3.5 30q0 66 36 102.5t118 36.5h246q108 0 188.5 -40t124 -117.5t43.5 -192.5q0 -181 -99.5 -272.5t-278.5 -91.5h-200zM383 91q269 0 269 270q0 135 -65 198.5t-185 63.5h-107
v-532h88z" />
    <glyph glyph-name="uni018B" unicode="&#x18b;" horiz-adv-x="622" 
d="M322 0q-143 0 -208 53.5t-65 150.5q0 58 28 107.5t91.5 79t169.5 29.5h81v201h-324v93h432v-714h-205zM333 91h86v238h-69q-94 0 -142 -27t-48 -94q0 -61 43 -89t130 -28z" />
    <glyph glyph-name="uni018C" unicode="&#x18c;" horiz-adv-x="620" 
d="M268 -10q-97 0 -156.5 70t-59.5 208q0 137 60 207.5t158 70.5q61 0 100 -23t63 -56h6q-2 15 -5 42.5t-3 45.5v120h-325v85h431v-760h-83l-18 72h-5q-23 -35 -62 -58.5t-101 -23.5zM293 77q78 0 110 43.5t32 130.5v16q0 92 -30.5 142t-112.5 50q-65 0 -98 -51.5
t-33 -141.5q0 -91 33 -140t99 -49z" />
    <glyph glyph-name="uni018D" unicode="&#x18d;" horiz-adv-x="608" 
d="M316 549q72 0 129 -28.5t89 -81.5t32 -124q0 -98 -49 -155.5t-128 -89.5q36 -21 65 -53.5t29 -89.5q0 -40 -22 -75t-66.5 -56.5t-111.5 -21.5q-71 0 -120.5 21.5t-75.5 44.5l44 78q32 -27 70 -44t80 -17q39 0 60.5 11t30 27t8.5 31q0 28 -23 51t-89 58
q-84 45 -127.5 88.5t-59 88t-15.5 90.5q0 85 33.5 139.5t90.5 81t126 26.5zM313 463q-68 0 -105.5 -45.5t-37.5 -114.5q0 -68 37 -114t100 -76q70 25 111 70t41 121q0 72 -39.5 115.5t-106.5 43.5z" />
    <glyph glyph-name="uni018E" unicode="&#x18e;" horiz-adv-x="557" 
d="M60 0v93h294v234h-276v91h276v204h-294v92h402v-714h-402z" />
    <glyph glyph-name="uni018F" unicode="&#x18f;" horiz-adv-x="762" 
d="M352 632q-75 0 -137.5 -17t-106.5 -35v96q44 19 101.5 34t144.5 15q113 0 190.5 -46t117 -129t39.5 -194t-37.5 -193.5t-110.5 -127.5t-179 -45q-111 0 -179 46t-99 129.5t-31 195.5v35h523q-7 111 -64.5 173.5t-171.5 62.5zM374 83q92 0 149 56.5t64 163.5h-408
q0 -103 43.5 -161.5t151.5 -58.5z" />
    <glyph glyph-name="uni0190" unicode="&#x190;" horiz-adv-x="606" 
d="M319 724q78 0 138.5 -21.5t105.5 -53.5l-50 -73q-40 27 -83.5 43.5t-105.5 16.5t-98.5 -27t-36.5 -75q0 -55 47.5 -87.5t153.5 -32.5h86v-88h-92q-106 0 -164.5 -29t-58.5 -91t47 -95.5t139 -33.5q54 0 112 14t105 37v-95q-46 -21 -103 -32t-127 -11q-100 0 -162.5 26.5
t-91.5 73t-29 107.5q0 75 49 120t140 56v4q-72 11 -115.5 52.5t-43.5 114.5q0 80 62 130t176 50z" />
    <glyph glyph-name="uni0191" unicode="&#x191;" horiz-adv-x="616" 
d="M137 -242q-73 0 -113.5 38.5t-40.5 105.5q0 19 4 36.5t11 34.5l89 -30q-6 -16 -6 -34q0 -30 15 -46.5t41 -16.5q28 0 47 23t19 80v765h382v-92h-275v-202h256v-92h-256v-386q0 -96 -48.5 -140t-124.5 -44z" />
    <glyph glyph-name="fhook" unicode="&#x192;" horiz-adv-x="444" 
d="M147 -242q-73 0 -113.5 38.5t-40.5 102.5q0 29 9 56l88 -23q-5 -15 -5 -30q0 -30 15.5 -45t37.5 -15q26 0 41.5 19t15.5 63v534h-91v50l91 33v34q0 103 47.5 146.5t131.5 43.5q35 0 64.5 -6t49.5 -13l-27 -81q-17 5 -37.5 9.5t-43.5 4.5q-79 0 -79 -105v-35h133v-81h-133
v-528q0 -83 -39.5 -127.5t-114.5 -44.5z" />
    <glyph glyph-name="uni0193" unicode="&#x193;" horiz-adv-x="727" 
d="M682 864q19 0 35.5 -4.5t26.5 -8.5v-85q-7 3 -21.5 6.5t-30.5 3.5q-48 0 -48 -50v-47l-39 -88q-37 16 -82.5 28t-95.5 12q-119 0 -187 -74t-68 -201q0 -81 25 -142.5t79 -96.5t141 -35q43 0 72.5 4.5t54.5 10.5v194h-151v93h258v-356q-57 -19 -116.5 -28.5t-135.5 -9.5
q-164 0 -251.5 97.5t-87.5 269.5q0 112 43.5 194.5t126.5 127.5t201 45q65 0 124 -15v15q0 140 127 140z" />
    <glyph glyph-name="Gammalatin" unicode="&#x194;" horiz-adv-x="594" 
d="M295 -240q-58 0 -90.5 38.5t-32.5 97.5q0 46 19.5 102.5t46.5 113.5l-238 602h112l135 -355q14 -37 27.5 -77t20.5 -74q7 34 20.5 73.5t28.5 78.5l137 354h113l-243 -602q33 -64 50.5 -120.5t17.5 -95.5q0 -58 -33 -97t-91 -39zM295 -159q34 0 34 56q0 22 -8 58t-26 70
q-18 -36 -26 -70t-8 -56q0 -30 9.5 -44t24.5 -14z" />
    <glyph glyph-name="uni0195" unicode="&#x195;" horiz-adv-x="950" 
d="M647 -10q-111 0 -167 48.5t-56 156.5v141q0 126 -101 126q-76 0 -105 -49.5t-29 -141.5v-271h-106v760h106v-203q0 -23 -1.5 -46.5t-4.5 -44.5h7q25 41 66 61.5t90 20.5q88 0 136 -47.5t48 -150.5v-144q0 -129 117 -129q61 0 89 34t28 113v315h106v-321q0 -122 -56 -175
t-167 -53z" />
    <glyph glyph-name="Iotalatin" unicode="&#x196;" horiz-adv-x="364" 
d="M249 -10q-46 0 -82.5 15.5t-57 53t-20.5 104.5v551h109v-542q0 -89 73 -89q23 0 45.5 4t37.5 9v-87q-16 -8 -45.5 -13.5t-59.5 -5.5z" />
    <glyph glyph-name="uni0197" unicode="&#x197;" horiz-adv-x="354" 
d="M315 714v-62l-84 -26v-217h90v-91h-90v-231l84 -25v-62h-277v62l85 25v231h-91v91h91v217l-85 26v62h277z" />
    <glyph glyph-name="uni0198" unicode="&#x198;" horiz-adv-x="632" 
d="M561 721q20 0 33.5 -2.5t23.5 -7.5v-84q-7 2 -20.5 3.5t-24.5 1.5q-15 0 -31 -9t-39 -36l-151 -184l280 -403h-125l-229 330l-75 -68v-262h-108v714h108v-351q23 30 51.5 64.5t54.5 66.5l109 137q40 50 70.5 70t72.5 20z" />
    <glyph glyph-name="uni0199" unicode="&#x199;" horiz-adv-x="559" 
d="M220 766q21 0 39.5 -4.5t29.5 -9.5v-85q-7 3 -21.5 6.5t-31.5 3.5q-23 0 -35.5 -13t-12.5 -45v-239q0 -20 -1.5 -48t-3.5 -50h3q11 15 30.5 39.5t34.5 40.5l165 177h123l-217 -231l231 -308h-125l-178 241l-62 -52v-189h-105v616q0 76 35.5 113t101.5 37z" />
    <glyph glyph-name="uni019A" unicode="&#x19a;" horiz-adv-x="279" 
d="M86 0v340h-72v80h72v340h106v-340h74v-80h-74v-340h-106z" />
    <glyph glyph-name="uni019B" unicode="&#x19b;" horiz-adv-x="564" 
d="M-3 0l231 523l-20 53l-104 -31l-21 69l95 28q-15 21 -32 28.5t-43 7.5q-16 0 -30 -2t-24 -4v86q14 3 33.5 5.5t37.5 2.5q61 0 96.5 -23.5t60.5 -69.5l104 32l21 -69l-97 -30l166 -461q14 -38 28 -52.5t32 -14.5q7 0 16 1.5t15 3.5v-80q-11 -6 -29.5 -9.5t-35.5 -3.5
q-44 0 -69 22t-41 68l-65 184q-13 34 -26.5 76.5t-19.5 69.5h-4q-9 -33 -22 -70t-28 -72l-115 -268h-110z" />
    <glyph glyph-name="uni019C" unicode="&#x19c;" horiz-adv-x="1031" 
d="M287 -10q-98 0 -148 50.5t-50 163.5v510h108v-497q0 -67 26.5 -101t83.5 -34q82 0 116.5 48t34.5 138v446h108v-497q0 -67 27 -101t85 -34q85 0 117.5 53t32.5 152v427h108v-714h-84l-17 80h-6q-27 -45 -75.5 -67.5t-101.5 -22.5q-66 0 -108 24.5t-65 72.5h-5
q-29 -49 -79 -73t-108 -24z" />
    <glyph glyph-name="uni019D" unicode="&#x19d;" horiz-adv-x="776" 
d="M48 -240q-20 0 -35.5 4t-25.5 10v87q9 -4 21.5 -7t26.5 -3q28 0 44 16.5t16 58.5v788h130l360 -574h3q-1 19 -2.5 52.5t-3 70.5t-1.5 67v384h100v-714h-131l-361 577h-4q2 -37 5 -91.5t3 -105.5v-457q0 -86 -37.5 -124.5t-107.5 -38.5z" />
    <glyph glyph-name="uni019E" unicode="&#x19e;" horiz-adv-x="630" 
d="M435 -240v576q0 126 -106 126q-78 0 -109 -49t-31 -141v-272h-106v539h84l15 -72h6q26 42 69 62t94 20q90 0 139.5 -47t49.5 -151v-591h-105z" />
    <glyph glyph-name="uni019F" unicode="&#x19f;" horiz-adv-x="786" 
d="M725 358q0 -111 -37 -193.5t-111 -128.5t-184 -46q-113 0 -187 46t-110 129t-36 194q0 110 36.5 192t110.5 128t187 46q110 0 183.5 -45.5t110.5 -128t37 -193.5zM394 632q-103 0 -156 -58.5t-63 -162.5h434q-9 104 -61 162.5t-154 58.5zM393 82q105 0 158 62.5t60 174.5
h-437q8 -112 61 -174.5t158 -62.5z" />
    <glyph glyph-name="Ohorn" unicode="&#x1a0;" horiz-adv-x="796" 
d="M725 358q0 -111 -37 -193.5t-111 -128.5t-184 -46q-113 0 -187 46t-110 129t-36 194q0 110 36 192t110.5 128t187.5 46q83 0 146 -27t104 -76q36 13 47 50t11 88h111l7 -11q-13 -66 -43 -116t-93 -74q41 -83 41 -201zM174 358q0 -128 52.5 -202t166.5 -74q115 0 166.5 74
t51.5 202t-51.5 201t-165.5 73q-115 0 -167.5 -73t-52.5 -201z" />
    <glyph glyph-name="ohorn" unicode="&#x1a1;" horiz-adv-x="635" 
d="M558 270q0 -134 -69 -207t-186 -73q-73 0 -129.5 33t-89 95.5t-32.5 151.5q0 134 68 206.5t186 72.5q110 0 178 -68q43 13 56 51t13 89h109l7 -11q-14 -70 -44.5 -119t-98.5 -71q15 -31 23.5 -68.5t8.5 -81.5zM161 270q0 -95 34 -144t110 -49t110 49t34 144t-34.5 143
t-110.5 48t-109.5 -48t-33.5 -143z" />
    <glyph glyph-name="uni01A2" unicode="&#x1a2;" horiz-adv-x="1092" 
d="M697 358q0 -111 -35.5 -193.5t-106.5 -128.5t-176 -46q-108 0 -179 46t-105.5 129t-34.5 194q0 110 35 192t105.5 128t179.5 46q75 0 132 -23.5t96 -67.5q32 45 83 68t110 23q99 0 150.5 -53t51.5 -170v-502h-108v498q0 135 -116 135q-49 0 -80.5 -14.5t-49.5 -41.5
q48 -89 48 -219zM174 358q0 -128 49.5 -202t155.5 -74q107 0 155.5 74t48.5 202t-48.5 201t-154.5 73q-107 0 -156.5 -73t-49.5 -201z" />
    <glyph glyph-name="uni01A3" unicode="&#x1a3;" horiz-adv-x="870" 
d="M534 270q0 -134 -65.5 -207t-176.5 -73q-70 0 -124 32.5t-85 95t-31 152.5q0 134 65 206.5t177 72.5q110 0 174 -74q28 38 67.5 56t85.5 18q82 0 126 -47t44 -151v-591h-106v577q0 125 -91 125q-61 0 -91 -42q31 -61 31 -150zM161 270q0 -91 31.5 -142t100.5 -51
t100.5 51t31.5 142q0 92 -32 141.5t-100 49.5q-69 0 -100.5 -49.5t-31.5 -141.5z" />
    <glyph glyph-name="uni01A4" unicode="&#x1a4;" horiz-adv-x="704" 
d="M187 0v623h-26q-31 0 -46 -14.5t-15 -37.5q0 -16 3.5 -30.5t6.5 -21.5h-90q-4 10 -7.5 26t-3.5 30q0 66 36 102.5t118 36.5h225q139 0 203 -56.5t64 -157.5q0 -60 -26.5 -112t-88.5 -84.5t-168 -32.5h-77v-271h-108zM361 362q91 0 137 31t46 103q0 64 -39.5 95.5
t-124.5 31.5h-85v-261h66z" />
    <glyph glyph-name="uni01A5" unicode="&#x1a5;" horiz-adv-x="620" 
d="M221 765q20 0 39 -4.5t29 -9.5v-85q-7 3 -21.5 6.5t-30.5 3.5q-23 0 -35.5 -13t-12.5 -44v-65q0 -19 -2 -43.5t-4 -43.5h6q23 34 61.5 58t101.5 24q97 0 156.5 -70t59.5 -209q0 -137 -59.5 -208.5t-156.5 -71.5q-62 0 -101 22t-62 53h-6q2 -18 4 -42t2 -44v-219h-106v856
q0 75 35.5 112t102.5 37zM327 462q-75 0 -106 -43.5t-32 -131.5v-16q0 -93 30 -143.5t110 -50.5q66 0 98 54t32 141q0 88 -32 139t-100 51z" />
    <glyph glyph-name="uni01A6" unicode="&#x1a6;" horiz-adv-x="633" 
d="M499 -100l-172 289h-124v-189h-108v714h108v-100h92q137 0 202.5 -51t65.5 -155q0 -55 -20.5 -92.5t-52.5 -61t-67 -37.5l200 -317h-124zM293 279q83 0 121 31.5t38 93.5q0 64 -40 91t-124 27h-85v-243h90z" />
    <glyph glyph-name="uni01A7" unicode="&#x1a7;" horiz-adv-x="550" 
d="M274 724q102 0 165 -49t63 -137q0 -59 -22.5 -98.5t-63 -67t-97.5 -48.5q-86 -32 -126 -60.5t-40 -77.5q0 -48 36.5 -76t107.5 -28q56 0 109 14.5t94 32.5v-98q-37 -18 -89.5 -29.5t-113.5 -11.5q-119 0 -185 53t-66 149q0 55 23.5 93t67.5 65.5t104 50.5
q56 21 89.5 39.5t48.5 41t15 56.5q0 42 -31 67.5t-91 25.5q-42 0 -81.5 -11t-77.5 -28l-33 89q42 20 90 31.5t104 11.5z" />
    <glyph glyph-name="uni01A8" unicode="&#x1a8;" horiz-adv-x="484" 
d="M235 549q94 0 148 -36.5t54 -107.5q0 -45 -19 -73.5t-55.5 -49.5t-88.5 -41t-80 -35.5t-38 -30t-10 -32.5q0 -33 28 -52t88 -19q45 0 90 12.5t81 30.5v-90q-34 -17 -76 -26t-97 -9q-217 0 -217 159q0 67 42 102t117 62q50 20 79 33.5t41 27.5t12 34q0 27 -26 42.5
t-74 15.5q-33 0 -67 -10.5t-69 -25.5l-33 81q41 18 83.5 28t86.5 10z" />
    <glyph glyph-name="uni01A9" unicode="&#x1a9;" horiz-adv-x="574" 
d="M34 0v87l231 283l-221 258v86h484v-93h-250q-21 0 -51 0.5t-49 1.5l197 -230v-30l-221 -271q36 0 70 1t72 1h243v-94h-505z" />
    <glyph glyph-name="uni01AA" unicode="&#x1aa;" horiz-adv-x="375" 
d="M123 766q143 0 143 -152v-682q0 -86 73 -86q23 0 46.5 4t39.5 9v-80q-17 -8 -45.5 -13.5t-58.5 -5.5q-47 0 -83 15t-57 52t-21 104v607h-39q-68 0 -98.5 32.5t-30.5 83.5q0 28 13 54t41.5 42t76.5 16zM113 692q-20 0 -29 -12t-9 -27q0 -20 14 -30.5t37 -10.5h34v18
q0 28 -10.5 45t-36.5 17z" />
    <glyph glyph-name="uni01AB" unicode="&#x1ab;" horiz-adv-x="383" 
d="M233 -240q-20 0 -37 4t-29 8v82q9 -3 22 -6t28 -3q23 0 35.5 12.5t12.5 41.5v91h-18q-41 0 -76 15t-56.5 52t-21.5 103v298h-75v48l79 40l37 114h65v-121h154v-81h-154v-296q0 -44 20.5 -65t57.5 -21q21 0 43 3.5t38 9.5v-186q0 -143 -125 -143z" />
    <glyph glyph-name="uni01AC" unicode="&#x1ac;" horiz-adv-x="588" 
d="M253 0v621h-92q-31 0 -46 -14t-15 -36q0 -17 3.5 -31t6.5 -21h-90q-4 10 -7.5 26t-3.5 30q0 66 36 102.5t118 36.5h412v-93h-214v-621h-108z" />
    <glyph glyph-name="uni01AD" unicode="&#x1ad;" horiz-adv-x="383" 
d="M253 765q24 0 46 -4.5t35 -9.5v-85q-10 3 -32 6.5t-44 3.5q-59 0 -59 -64v-73h154v-81h-154v-296q0 -44 21.5 -65t56.5 -21q21 0 43 3.5t38 9.5v-80q-18 -8 -46.5 -13.5t-57.5 -5.5q-44 0 -81 15t-58.5 52t-21.5 103v298h-75v48l75 38v62q0 79 41 119t119 40z" />
    <glyph glyph-name="uni01AE" unicode="&#x1ae;" horiz-adv-x="563" 
d="M374 -240q-72 0 -109.5 38.5t-37.5 124.5v698h-214v93h536v-93h-214v-695q0 -42 16 -58.5t44 -16.5q15 0 27 3t21 7v-87q-25 -14 -69 -14z" />
    <glyph glyph-name="Uhorn" unicode="&#x1af;" horiz-adv-x="811" 
d="M649 618q45 10 60.5 47.5t15.5 94.5h109l7 -11q-10 -49 -29 -91t-57.5 -70.5t-105.5 -39.5v-296q0 -74 -29 -133.5t-91 -94t-158 -34.5q-138 0 -210 72.5t-72 191.5v460h108v-460q0 -84 44 -128t132 -44q91 0 130 47.5t39 125.5v459h107v-96z" />
    <glyph glyph-name="uhorn" unicode="&#x1b0;" horiz-adv-x="699" 
d="M737 611q-9 -50 -28 -92.5t-57.5 -71.5t-104.5 -37v-410h-85l-15 71h-5q-27 -42 -72 -61.5t-96 -19.5q-95 0 -145.5 47t-50.5 149v352h107v-336q0 -125 109 -125q83 0 115 49t32 140v272h106v-58q44 9 59 47t15 95h109z" />
    <glyph glyph-name="Upsilonlatin" unicode="&#x1b1;" horiz-adv-x="783" 
d="M392 82q109 0 163 61.5t54 171.5q0 96 -34 172.5t-122 135.5v91h295v-93h-178q65 -47 108.5 -128t43.5 -189q0 -96 -39 -166.5t-113 -109.5t-178 -39q-106 0 -180 38.5t-113 109t-39 166.5q0 109 43.5 190t109.5 128h-179v93h296v-91q-88 -58 -123 -135.5t-35 -172.5
q0 -110 54.5 -171.5t165.5 -61.5z" />
    <glyph glyph-name="uni01B2" unicode="&#x1b2;" horiz-adv-x="738" 
d="M366 -10q-136 0 -206.5 72.5t-70.5 191.5v460h108v-455q0 -177 174 -177q90 0 130.5 48t40.5 130v303q0 38 -16 53t-44 15q-21 0 -40 -5t-34 -14v88q16 11 43 17.5t56 6.5q142 0 142 -148v-324q0 -74 -31 -133.5t-93.5 -94t-158.5 -34.5z" />
    <glyph glyph-name="uni01B3" unicode="&#x1b3;" horiz-adv-x="593" 
d="M238 0v273l-238 441h117l175 -334l115 257q21 48 47.5 68t66.5 20q21 0 38 -4.5t28 -8.5v-86q-18 8 -39 8q-16 0 -28 -10.5t-28 -42.5l-147 -304v-277h-107z" />
    <glyph glyph-name="uni01B4" unicode="&#x1b4;" horiz-adv-x="564" 
d="M498 549q18 0 35 -3.5t29 -9.5v-80q-6 2 -15 3.5t-16 1.5q-19 0 -32.5 -14.5t-27.5 -52.5l-171 -465q-28 -78 -76.5 -123.5t-130.5 -45.5q-22 0 -40.5 2.5t-31.5 5.5v84q10 -2 26 -4t32 -2q45 0 74 25.5t46 69.5l21 59l-216 539h114l107 -290q13 -36 24 -71.5t17 -68.5h4
q6 24 18 62t26 77l69 197q19 53 45 78.5t70 25.5z" />
    <glyph glyph-name="uni01B5" unicode="&#x1b5;" horiz-adv-x="574" 
d="M74 409h184l142 212h-355v93h485v-77l-154 -228h114v-86h-172l-154 -230h375v-93h-505v77l165 246h-125v86z" />
    <glyph glyph-name="uni01B6" unicode="&#x1b6;" horiz-adv-x="475" 
d="M431 539v-75l-104 -147h93v-78h-150l-111 -157h280v-82h-404v67l123 172h-102v78h158l99 140h-261v82h379z" />
    <glyph glyph-name="uni01B7" unicode="&#x1b7;" horiz-adv-x="586" 
d="M505 714v-79l-235 -225q126 -5 196 -56t70 -149q0 -62 -32 -110.5t-97 -76.5t-164 -28q-59 0 -111.5 9t-98.5 30v96q47 -23 103 -35t105 -12q96 0 140 34.5t44 96.5q0 119 -214 119h-65v83l218 210h-310v93h451z" />
    <glyph glyph-name="uni01B8" unicode="&#x1b8;" horiz-adv-x="586" 
d="M333 -10q-98 0 -160.5 29.5t-92.5 79t-30 110.5q0 72 32 121t86.5 74.5t121.5 28.5l-209 202v79h451v-93h-310l196 -193v-77h-72q-86 0 -135.5 -33.5t-49.5 -103.5q0 -64 45 -100t139 -36q49 0 105 12t103 35v-96q-46 -21 -99.5 -30t-120.5 -9z" />
    <glyph glyph-name="uni01B9" unicode="&#x1b9;" horiz-adv-x="522" 
d="M298 -240q-83 0 -142 30t-90 82.5t-31 119.5q0 111 67 171t177 71l-217 231v74h428v-86h-301l212 -226v-75h-59q-98 0 -149 -38t-51 -118q0 -66 44 -107.5t123 -41.5q55 0 105 12.5t87 30.5v-93q-36 -18 -85.5 -27.5t-117.5 -9.5z" />
    <glyph glyph-name="uni01BA" unicode="&#x1ba;" horiz-adv-x="522" 
d="M227 -240q-84 0 -138.5 31.5t-54.5 98.5q0 36 16.5 65.5t57 48t113.5 19.5q79 2 111 26t32 79t-44 76.5t-132 21.5h-61v73l173 154h-263v86h408v-73l-184 -159q98 -5 154 -49.5t56 -129.5q0 -53 -22.5 -95.5t-75.5 -68.5t-147 -29q-56 -1 -76 -12.5t-20 -32.5
q0 -22 26.5 -34t76.5 -12q55 0 98.5 12t74.5 25v-89q-30 -14 -76.5 -23t-102.5 -9z" />
    <glyph glyph-name="uni01BB" unicode="&#x1bb;" horiz-adv-x="570" 
d="M262 765q97 0 153 -51t56 -137q0 -42 -10 -79.5t-34 -78.5h91v-78h-142l-213 -253v-5h359v-83h-480v84l213 257h-187v78h246q27 42 38 78t11 76q0 50 -29.5 76.5t-77.5 26.5q-47 0 -82 -18.5t-71 -50.5l-54 69q37 34 89 61.5t124 27.5z" />
    <glyph glyph-name="uni01BC" unicode="&#x1bc;" horiz-adv-x="582" 
d="M238 -10q-58 0 -110 9t-95 30v96q44 -21 99.5 -34t104.5 -13q89 0 136.5 36.5t47.5 107.5q0 69 -47.5 101.5t-120.5 32.5h-125v264h-93v94h470v-94h-270v-175h38q75 0 133.5 -26t92 -75.5t33.5 -119.5q0 -105 -72.5 -169.5t-221.5 -64.5z" />
    <glyph glyph-name="uni01BD" unicode="&#x1bd;" horiz-adv-x="509" 
d="M221 -10q-56 0 -105.5 9t-81.5 26v92q34 -17 83 -29.5t102 -12.5q62 0 102.5 22t40.5 74q0 47 -38.5 68.5t-113.5 21.5h-91v193h-76v85h394v-85h-221v-111h25q119 0 172 -44.5t53 -122.5q0 -51 -26 -93.5t-80.5 -67.5t-138.5 -25z" />
    <glyph glyph-name="uni01BE" unicode="&#x1be;" horiz-adv-x="473" 
d="M210 -10q-109 0 -174 34v93q32 -17 79 -31t93 -14q63 0 91 19t28 53q0 28 -23 46t-79 43q-44 20 -67 51.5t-23 98.5v75h-93v48l94 40l37 114h65v-121h150v-81h-150v-75q0 -33 10 -47.5t36 -25.5q43 -18 76 -38.5t51.5 -49t18.5 -71.5q0 -76 -56.5 -118.5t-163.5 -42.5z
" />
    <glyph glyph-name="uni01BF" unicode="&#x1bf;" horiz-adv-x="601" 
d="M346 549q60 0 107 -27t73.5 -78.5t26.5 -126.5q0 -90 -43.5 -161t-125 -115t-195.5 -54v-227h-106v779h86l15 -72h5q22 34 59 58t98 24zM319 462q-70 0 -100 -44t-30 -131v-211q119 15 187 78.5t68 162.5q0 64 -32.5 104.5t-92.5 40.5z" />
    <glyph glyph-name="uni01C0" unicode="&#x1c0;" horiz-adv-x="323" 
d="M118 0v760h87v-760h-87z" />
    <glyph glyph-name="uni01C1" unicode="&#x1c1;" horiz-adv-x="554" 
d="M118 0v760h87v-760h-87zM349 0v760h87v-760h-87z" />
    <glyph glyph-name="uni01C2" unicode="&#x1c2;" horiz-adv-x="516" 
d="M301 760v-246h154v-79h-154v-93h154v-80h-154v-262h-86v262h-154v80h154v93h-154v79h154v246h86z" />
    <glyph glyph-name="uni01C3" unicode="&#x1c3;" horiz-adv-x="274" 
d="M175 212h-75l-25 502h125zM68 59q0 39 20 55t49 16q27 0 47.5 -16t20.5 -55t-20.5 -56t-47.5 -17q-29 0 -49 17t-20 56z" />
    <glyph glyph-name="uni01C4" unicode="&#x1c4;" horiz-adv-x="1297" 
d="M673 364q0 -181 -99.5 -272.5t-278.5 -91.5h-200v714h221q109 0 189 -40t124 -117.5t44 -192.5zM560 361q0 135 -65.5 198.5t-185.5 63.5h-106v-532h87q270 0 270 270zM1262 0h-505v77l366 544h-355v93h485v-77l-366 -544h375v-93zM957 781q-14 23 -36 50t-46 52.5
t-42 44.5v13h72q26 -17 54.5 -40t53.5 -50q27 27 55.5 50t54.5 40h73v-13q-18 -19 -42.5 -44.5t-47 -52.5t-35.5 -50h-114z" />
    <glyph glyph-name="uni01C5" unicode="&#x1c5;" horiz-adv-x="1208" 
d="M673 364q0 -181 -99.5 -272.5t-278.5 -91.5h-200v714h221q109 0 189 -40t124 -117.5t44 -192.5zM560 361q0 135 -65.5 198.5t-185.5 63.5h-106v-532h87q270 0 270 270zM1172 0h-404v67l278 390h-261v82h379v-75l-272 -382h280v-82zM914 606q-14 23 -36 50t-46 52.5
t-42 44.5v13h72q26 -17 54.5 -40t53.5 -50q27 27 55.5 50t54.5 40h73v-13q-18 -19 -42.5 -44.5t-47 -52.5t-35.5 -50h-114z" />
    <glyph glyph-name="uni01C6" unicode="&#x1c6;" horiz-adv-x="1096" 
d="M268 -10q-97 0 -156.5 70t-59.5 208q0 139 60 210t158 71q61 0 100 -23t63 -56h6q-2 13 -5 40t-3 48v202h106v-760h-83l-18 72h-5q-23 -35 -62 -58.5t-101 -23.5zM293 77q78 0 110 43.5t32 130.5v16q0 94 -30.5 144.5t-112.5 50.5q-65 0 -98 -52.5t-33 -143.5t33 -140
t99 -49zM1059 0h-404v67l278 390h-261v82h379v-75l-272 -382h280v-82zM801 606q-14 23 -36 50t-46 52.5t-42 44.5v13h72q26 -17 54.5 -40t53.5 -50q27 27 55.5 50t54.5 40h73v-13q-18 -19 -42.5 -44.5t-47 -52.5t-35.5 -50h-114z" />
    <glyph glyph-name="uni01C7" unicode="&#x1c7;" horiz-adv-x="826" 
d="M95 0v714h108v-621h305v-93h-413zM538 -196q-26 0 -45.5 3.5t-33.5 9.5v90q16 -4 34 -7t38 -3q25 0 47 10t35.5 36t13.5 73v698h108v-693q0 -113 -54.5 -165t-142.5 -52z" />
    <glyph glyph-name="uni01C8" unicode="&#x1c8;" horiz-adv-x="808" 
d="M95 0v714h108v-621h305v-93h-413zM612 683q0 33 17.5 47t43.5 14q24 0 42 -14t18 -47q0 -32 -18 -46.5t-42 -14.5q-26 0 -43.5 14.5t-17.5 46.5zM562 -240q-26 0 -47.5 3.5t-36.5 8.5v85q16 -5 32 -7.5t36 -2.5q31 0 52 17.5t21 66.5v608h106v-613q0 -75 -38.5 -120.5
t-124.5 -45.5z" />
    <glyph glyph-name="uni01C9" unicode="&#x1c9;" horiz-adv-x="544" 
d="M189 0h-106v760h106v-760zM348 683q0 33 17.5 47t43.5 14q24 0 42 -14t18 -47q0 -32 -18 -46.5t-42 -14.5q-26 0 -43.5 14.5t-17.5 46.5zM298 -240q-26 0 -47.5 3.5t-36.5 8.5v85q16 -5 32 -7.5t36 -2.5q31 0 52 17.5t21 66.5v608h106v-613q0 -75 -38.5 -120.5
t-124.5 -45.5z" />
    <glyph glyph-name="uni01CA" unicode="&#x1ca;" horiz-adv-x="1066" 
d="M681 0h-131l-361 577h-4q2 -40 5 -91.5t3 -105.5v-380h-98v714h130l360 -574h3q-1 21 -2.5 53t-2.5 68.5t-2 68.5v384h100v-714zM778 -196q-26 0 -45.5 3.5t-33.5 9.5v90q16 -4 34 -7t38 -3q25 0 47 10t35.5 36t13.5 73v698h108v-693q0 -113 -54.5 -165t-142.5 -52z" />
    <glyph glyph-name="uni01CB" unicode="&#x1cb;" horiz-adv-x="1048" 
d="M681 0h-131l-361 577h-4q2 -40 5 -91.5t3 -105.5v-380h-98v714h130l360 -574h3q-1 21 -2.5 53t-2.5 68.5t-2 68.5v384h100v-714zM852 683q0 33 17.5 47t43.5 14q24 0 42 -14t18 -47q0 -32 -18 -46.5t-42 -14.5q-26 0 -43.5 14.5t-17.5 46.5zM802 -240q-26 0 -47.5 3.5
t-36.5 8.5v85q16 -5 32 -7.5t36 -2.5q31 0 52 17.5t21 66.5v608h106v-613q0 -75 -38.5 -120.5t-124.5 -45.5z" />
    <glyph glyph-name="uni01CC" unicode="&#x1cc;" horiz-adv-x="901" 
d="M356 549q94 0 144 -47t50 -151v-351h-105v336q0 126 -111 126q-83 0 -114 -49t-31 -141v-272h-106v539h84l15 -72h6q26 42 71.5 62t96.5 20zM706 683q0 33 17.5 47t43.5 14q24 0 42 -14t18 -47q0 -32 -18 -46.5t-42 -14.5q-26 0 -43.5 14.5t-17.5 46.5zM656 -240
q-26 0 -47.5 3.5t-36.5 8.5v85q16 -5 32 -7.5t36 -2.5q31 0 52 17.5t21 66.5v608h106v-613q0 -75 -38.5 -120.5t-124.5 -45.5z" />
    <glyph glyph-name="uni01CD" unicode="&#x1cd;" horiz-adv-x="654" 
d="M540 0l-76 206h-276l-76 -206h-112l271 717h112l270 -717h-113zM362 501q-3 11 -10.5 33t-14.5 46t-11 39q-8 -31 -18 -66t-16 -52l-72 -201h214zM269 781q-14 23 -36 50t-46 52.5t-42 44.5v13h72q26 -17 54.5 -40t53.5 -50q27 27 55.5 50t54.5 40h73v-13
q-18 -19 -42.5 -44.5t-47 -52.5t-35.5 -50h-114z" />
    <glyph glyph-name="uni01CE" unicode="&#x1ce;" horiz-adv-x="574" 
d="M292 549q101 0 151.5 -44.5t50.5 -139.5v-365h-75l-21 75h-4q-35 -44 -73.5 -64.5t-106.5 -20.5q-73 0 -121 39.5t-48 123.5q0 82 62 125t191 47l92 3v30q0 59 -27 83.5t-76 24.5q-41 0 -79 -12t-73 -29l-34 77q38 20 87.5 33.5t103.5 13.5zM317 257q-92 -4 -127.5 -30.5
t-35.5 -74.5q0 -42 25 -61t65 -19q62 0 103.5 35t41.5 105v47zM230 606q-14 23 -36 50t-46 52.5t-42 44.5v13h72q26 -17 54.5 -40t53.5 -50q27 27 55.5 50t54.5 40h73v-13q-18 -19 -42.5 -44.5t-47 -52.5t-35.5 -50h-114z" />
    <glyph glyph-name="uni01CF" unicode="&#x1cf;" horiz-adv-x="354" 
d="M315 0h-277v62l85 25v539l-85 26v62h277v-62l-84 -26v-539l84 -25v-62zM120 781q-14 23 -36 50t-46 52.5t-42 44.5v13h72q26 -17 54.5 -40t53.5 -50q27 27 55.5 50t54.5 40h73v-13q-18 -19 -42.5 -44.5t-47 -52.5t-35.5 -50h-114z" />
    <glyph glyph-name="uni01D0" unicode="&#x1d0;" horiz-adv-x="272" 
d="M189 0h-106v539h106v-539zM79 606q-14 23 -36 50t-46 52.5t-42 44.5v13h72q26 -17 54.5 -40t53.5 -50q27 27 55.5 50t54.5 40h73v-13q-18 -19 -42.5 -44.5t-47 -52.5t-35.5 -50h-114z" />
    <glyph glyph-name="uni01D1" unicode="&#x1d1;" horiz-adv-x="785" 
d="M725 358q0 -111 -37 -193.5t-111 -128.5t-184 -46q-113 0 -187 46t-110 129t-36 194q0 110 36.5 192t110.5 128t187 46q110 0 183.5 -45.5t110.5 -128t37 -193.5zM174 358q0 -128 53 -202t166 -74q114 0 166 74t52 202t-51.5 201t-165.5 73t-167 -73t-53 -201zM336 781
q-14 23 -36 50t-46 52.5t-42 44.5v13h72q26 -17 54.5 -40t53.5 -50q27 27 55.5 50t54.5 40h73v-13q-18 -19 -42.5 -44.5t-47 -52.5t-35.5 -50h-114z" />
    <glyph glyph-name="uni01D2" unicode="&#x1d2;" horiz-adv-x="609" 
d="M558 270q0 -134 -69 -207t-186 -73q-73 0 -129.5 33t-89 95.5t-32.5 151.5q0 134 68 206.5t186 72.5q74 0 130.5 -32.5t89 -94.5t32.5 -152zM161 270q0 -91 34.5 -142t109.5 -51t109.5 51t34.5 142q0 92 -35 141.5t-110 49.5t-109 -49.5t-34 -141.5zM248 606
q-14 23 -36 50t-46 52.5t-42 44.5v13h72q26 -17 54.5 -40t53.5 -50q27 27 55.5 50t54.5 40h73v-13q-18 -19 -42.5 -44.5t-47 -52.5t-35.5 -50h-114z" />
    <glyph glyph-name="uni01D3" unicode="&#x1d3;" horiz-adv-x="738" 
d="M649 252q0 -74 -31 -133.5t-93.5 -94t-158.5 -34.5q-136 0 -206.5 72.5t-70.5 191.5v460h108v-455q0 -177 174 -177q90 0 130.5 48t40.5 130v454h107v-462zM312 781q-14 23 -36 50t-46 52.5t-42 44.5v13h72q26 -17 54.5 -40t53.5 -50q27 27 55.5 50t54.5 40h73v-13
q-18 -19 -42.5 -44.5t-47 -52.5t-35.5 -50h-114z" />
    <glyph glyph-name="uni01D4" unicode="&#x1d4;" horiz-adv-x="630" 
d="M547 539v-539h-85l-15 71h-5q-26 -42 -72 -61.5t-97 -19.5q-95 0 -145 47t-50 149v353h107v-337q0 -125 109 -125q83 0 115 49t32 140v273h106zM258 606q-14 23 -36 50t-46 52.5t-42 44.5v13h72q26 -17 54.5 -40t53.5 -50q27 27 55.5 50t54.5 40h73v-13
q-18 -19 -42.5 -44.5t-47 -52.5t-35.5 -50h-114z" />
    <glyph glyph-name="uni01D5" unicode="&#x1d5;" horiz-adv-x="738" 
d="M523 1017v-78h-307v78h307zM274 881q21 0 36 -13t15 -40t-15 -40t-36 -13q-22 0 -37 13t-15 40t15 40t37 13zM464 881q22 0 37 -13t15 -40t-15 -40t-37 -13t-37 13t-15 40t15 40t37 13zM649 252q0 -74 -31 -133.5t-93.5 -94t-158.5 -34.5q-136 0 -206.5 72.5t-70.5 191.5
v460h108v-455q0 -177 174 -177q90 0 130.5 48t40.5 130v454h107v-462z" />
    <glyph glyph-name="uni01D6" unicode="&#x1d6;" horiz-adv-x="630" 
d="M468 842v-78h-307v78h307zM219 706q22 0 37 -13t15 -40t-15 -40t-37 -13q-21 0 -36 13t-15 40t15 40t36 13zM409 706q22 0 37 -13t15 -40t-15 -40t-37 -13q-21 0 -36 13t-15 40t15 40t36 13zM547 539v-539h-85l-15 71h-5q-26 -42 -72 -61.5t-97 -19.5q-95 0 -145 47
t-50 149v353h107v-337q0 -125 109 -125q83 0 115 49t32 140v273h106z" />
    <glyph glyph-name="uni01D7" unicode="&#x1d7;" horiz-adv-x="738" 
d="M312 916q24 28 51 63.5t44 69.5h122v-10q-13 -19 -38.5 -44t-54.5 -49t-53 -42h-71v12zM274 775q-22 0 -37 13t-15 40t15 40t37 13q21 0 36 -13t15 -40t-15 -40t-36 -13zM464 775q-22 0 -37 13t-15 40t15 40t37 13t37 -13t15 -40t-15 -40t-37 -13zM649 252
q0 -74 -31 -133.5t-93.5 -94t-158.5 -34.5q-136 0 -206.5 72.5t-70.5 191.5v460h108v-455q0 -177 174 -177q90 0 130.5 48t40.5 130v454h107v-462z" />
    <glyph glyph-name="uni01D8" unicode="&#x1d8;" horiz-adv-x="630" 
d="M258 741q23 28 50 63.5t44 69.5h122v-10q-13 -19 -38.5 -44t-54.5 -49t-52 -42h-71v12zM219 600q-21 0 -36 13t-15 40t15 40t36 13q22 0 37 -13t15 -40t-15 -40t-37 -13zM409 600q-21 0 -36 13t-15 40t15 40t36 13q22 0 37 -13t15 -40t-15 -40t-37 -13zM547 539v-539h-85
l-15 71h-5q-26 -42 -72 -61.5t-97 -19.5q-95 0 -145 47t-50 149v353h107v-337q0 -125 109 -125q83 0 115 49t32 140v273h106z" />
    <glyph glyph-name="uni01D9" unicode="&#x1d9;" horiz-adv-x="738" 
d="M317 909q-20 34 -56.5 70t-63.5 64v13h62q28 -16 56 -34.5t53 -44.5q27 26 55 44.5t55 34.5h64v-13q-18 -18 -41.5 -41t-45.5 -46.5t-35 -46.5h-103zM274 775q-22 0 -37 13t-15 40t15 40t37 13q21 0 36 -13t15 -40t-15 -40t-36 -13zM464 775q-22 0 -37 13t-15 40t15 40
t37 13t37 -13t15 -40t-15 -40t-37 -13zM649 252q0 -74 -31 -133.5t-93.5 -94t-158.5 -34.5q-136 0 -206.5 72.5t-70.5 191.5v460h108v-455q0 -177 174 -177q90 0 130.5 48t40.5 130v454h107v-462z" />
    <glyph glyph-name="uni01DA" unicode="&#x1da;" horiz-adv-x="630" 
d="M263 734q-21 34 -57 70l-64 64v13h63q27 -16 55.5 -34.5t52.5 -44.5q27 26 55.5 44.5t55.5 34.5h64v-13q-19 -18 -42.5 -41t-45 -46.5t-34.5 -46.5h-103zM219 600q-21 0 -36 13t-15 40t15 40t36 13q22 0 37 -13t15 -40t-15 -40t-37 -13zM409 600q-21 0 -36 13t-15 40
t15 40t36 13q22 0 37 -13t15 -40t-15 -40t-37 -13zM547 539v-539h-85l-15 71h-5q-26 -42 -72 -61.5t-97 -19.5q-95 0 -145 47t-50 149v353h107v-337q0 -125 109 -125q83 0 115 49t32 140v273h106z" />
    <glyph glyph-name="uni01DB" unicode="&#x1db;" horiz-adv-x="738" 
d="M332 1049q17 -34 44 -69.5t51 -63.5v-12h-71q-24 18 -52.5 42t-54.5 49t-39 44v10h122zM274 881q21 0 36 -13t15 -40t-15 -40t-36 -13q-22 0 -37 13t-15 40t15 40t37 13zM464 881q22 0 37 -13t15 -40t-15 -40t-37 -13t-37 13t-15 40t15 40t37 13zM649 252
q0 -74 -31 -133.5t-93.5 -94t-158.5 -34.5q-136 0 -206.5 72.5t-70.5 191.5v460h108v-455q0 -177 174 -177q90 0 130.5 48t40.5 130v454h107v-462z" />
    <glyph glyph-name="uni01DC" unicode="&#x1dc;" horiz-adv-x="630" 
d="M277 874q17 -34 44 -69.5t51 -63.5v-12h-71q-23 18 -52 42t-54.5 49t-38.5 44v10h121zM219 706q22 0 37 -13t15 -40t-15 -40t-37 -13q-21 0 -36 13t-15 40t15 40t36 13zM409 706q22 0 37 -13t15 -40t-15 -40t-37 -13q-21 0 -36 13t-15 40t15 40t36 13zM547 539v-539h-85
l-15 71h-5q-26 -42 -72 -61.5t-97 -19.5q-95 0 -145 47t-50 149v353h107v-337q0 -125 109 -125q83 0 115 49t32 140v273h106z" />
    <glyph glyph-name="uni01DD" unicode="&#x1dd;" horiz-adv-x="572" 
d="M255 549q79 0 138.5 -31t93 -92.5t33.5 -152.5q0 -90 -30.5 -153t-85.5 -96.5t-127 -33.5q-106 0 -167 65.5t-61 178.5v58h362q-2 83 -43.5 127t-116.5 44q-52 0 -92.5 -9.5t-83.5 -28.5v88q41 18 82 27t98 9zM155 214q1 -63 30.5 -102.5t91.5 -39.5q57 0 91.5 37
t40.5 105h-254z" />
    <glyph glyph-name="uni01DE" unicode="&#x1de;" horiz-adv-x="654" 
d="M479 1017v-78h-307v78h307zM230 881q22 0 37 -13t15 -40t-15 -40t-37 -13q-21 0 -36 13t-15 40t15 40t36 13zM420 881q22 0 37 -13t15 -40t-15 -40t-37 -13q-21 0 -36 13t-15 40t15 40t36 13zM540 0l-76 206h-276l-76 -206h-112l271 717h112l270 -717h-113zM362 501
q-3 11 -10.5 33t-14.5 46t-11 39q-8 -31 -18 -66t-16 -52l-72 -201h214z" />
    <glyph glyph-name="uni01DF" unicode="&#x1df;" horiz-adv-x="574" 
d="M441 842v-78h-308v78h308zM192 706q21 0 36 -13t15 -40t-15 -40t-36 -13q-22 0 -37 13t-15 40t15 40t37 13zM382 706q22 0 37 -13t15 -40t-15 -40t-37 -13t-37 13t-15 40t15 40t37 13zM292 549q101 0 151.5 -44.5t50.5 -139.5v-365h-75l-21 75h-4q-35 -44 -73.5 -64.5
t-106.5 -20.5q-73 0 -121 39.5t-48 123.5q0 82 62 125t191 47l92 3v30q0 59 -27 83.5t-76 24.5q-41 0 -79 -12t-73 -29l-34 77q38 20 87.5 33.5t103.5 13.5zM317 257q-92 -4 -127.5 -30.5t-35.5 -74.5q0 -42 25 -61t65 -19q62 0 103.5 35t41.5 105v47z" />
    <glyph glyph-name="uni01E0" unicode="&#x1e0;" horiz-adv-x="654" 
d="M479 1007v-78h-307v78h307zM327 883q22 0 38.5 -14t16.5 -44q0 -28 -16.5 -42.5t-38.5 -14.5q-24 0 -40 14.5t-16 42.5q0 30 16 44t40 14zM540 0l-76 206h-276l-76 -206h-112l271 717h112l270 -717h-113zM362 501q-3 11 -10.5 33t-14.5 46t-11 39q-8 -31 -18 -66t-16 -52
l-72 -201h214z" />
    <glyph glyph-name="uni01E1" unicode="&#x1e1;" horiz-adv-x="574" 
d="M441 842v-77h-308v77h308zM286 719q23 0 39 -14t16 -44q0 -29 -16 -43t-39 -14t-39 14t-16 43q0 30 16 44t39 14zM292 549q101 0 151.5 -44.5t50.5 -139.5v-365h-75l-21 75h-4q-35 -44 -73.5 -64.5t-106.5 -20.5q-73 0 -121 39.5t-48 123.5q0 82 62 125t191 47l92 3v30
q0 59 -27 83.5t-76 24.5q-41 0 -79 -12t-73 -29l-34 77q38 20 87.5 33.5t103.5 13.5zM317 257q-92 -4 -127.5 -30.5t-35.5 -74.5q0 -42 25 -61t65 -19q62 0 103.5 35t41.5 105v47z" />
    <glyph glyph-name="uni01E2" unicode="&#x1e2;" horiz-adv-x="902" 
d="M842 0h-388v206h-247l-97 -206h-111l334 714h509v-92h-280v-204h262v-91h-262v-234h280v-93zM248 300h206v320h-59zM650 861v-80h-307v80h307z" />
    <glyph glyph-name="uni01E3" unicode="&#x1e3;" horiz-adv-x="880" 
d="M614 549q66 0 115 -30t75.5 -84.5t26.5 -127.5v-60h-346q5 -171 149 -171q50 0 90 9.5t81 28.5v-88q-40 -18 -80.5 -27t-94.5 -9q-68 0 -121 27.5t-85 81.5q-37 -52 -83 -80.5t-125 -28.5q-48 0 -87 17.5t-61.5 53.5t-22.5 92q0 164 241 172l91 3v36q0 56 -27.5 79
t-75.5 23q-39 0 -77 -11.5t-72 -28.5l-33 76q37 20 87.5 33.5t102.5 13.5q60 0 101 -19.5t64 -60.5q28 38 70 59t97 21zM613 467q-56 0 -88.5 -36t-37.5 -106h237q0 63 -27.5 102.5t-83.5 39.5zM307 257q-86 -4 -119.5 -30.5t-33.5 -74.5q0 -42 23.5 -61t62.5 -19
q58 0 97 35t39 105v47zM600 686v-80h-307v80h307z" />
    <glyph glyph-name="uni01E4" unicode="&#x1e4;" horiz-adv-x="727" 
d="M406 -10q-175 0 -260.5 97.5t-85.5 267.5q0 112 43.5 195t126.5 128.5t201 45.5q59 0 113 -11.5t100 -31.5l-39 -90q-37 16 -83.5 28t-96.5 12q-120 0 -186.5 -72t-66.5 -203q0 -129 58 -203t188 -74q42 0 71.5 4.5t54.5 10.5v65h-141v78h141v69h-151v91h258v-160h64v-78
h-64v-129q-53 -17 -110 -28.5t-135 -11.5z" />
    <glyph glyph-name="uni01E5" unicode="&#x1e5;" horiz-adv-x="620" 
d="M269 549q107 0 165 -81h5l12 71h86v-566h57v-72h-66q-16 -65 -75.5 -103t-164.5 -38q-59 0 -107.5 8t-89.5 25v91q86 -42 203 -42q101 0 124 59h-161v72h175v61q0 16 1 35.5t2 32.5h-4q-27 -42 -68 -61.5t-94 -19.5q-102 0 -159.5 68t-57.5 194q0 123 57.5 194.5
t159.5 71.5zM291 461q-63 0 -96.5 -45.5t-33.5 -133.5q0 -178 132 -178q74 0 108.5 37t34.5 123v14q0 97 -35 140t-110 43z" />
    <glyph glyph-name="Gcaron" unicode="&#x1e6;" horiz-adv-x="727" 
d="M393 384h258v-356q-57 -19 -116.5 -28.5t-135.5 -9.5q-164 0 -251.5 97.5t-87.5 269.5q0 112 43.5 194.5t126.5 127.5t201 45q59 0 113 -11.5t100 -31.5l-39 -90q-37 16 -82.5 28t-95.5 12q-119 0 -187 -74t-68 -201q0 -81 25 -142.5t79 -96.5t141 -35q43 0 72.5 4.5
t54.5 10.5v194h-151v93zM346 781q-14 23 -36 50t-46 52.5t-42 44.5v13h72q26 -17 54.5 -40t53.5 -50q27 27 55.5 50t54.5 40h73v-13q-18 -19 -42.5 -44.5t-47 -52.5t-35.5 -50h-114z" />
    <glyph glyph-name="gcaron" unicode="&#x1e7;" horiz-adv-x="620" 
d="M269 549q107 0 165 -81h5l12 71h86v-546q0 -115 -61.5 -174t-187.5 -59q-59 0 -107.5 8t-89.5 25v93q86 -42 203 -42q66 0 102 37.5t36 105.5v18q0 13 1 34t2 32h-4q-27 -42 -68 -61.5t-94 -19.5q-102 0 -159.5 73.5t-57.5 204.5q0 130 57.5 205.5t159.5 75.5zM291 461
q-63 0 -96.5 -50t-33.5 -144t33.5 -143t98.5 -49q74 0 108.5 40.5t34.5 132.5v20q0 103 -35 148t-110 45zM245 606q-14 23 -36 50t-46 52.5t-42 44.5v13h72q26 -17 54.5 -40t53.5 -50q27 27 55.5 50t54.5 40h73v-13q-18 -19 -42.5 -44.5t-47 -52.5t-35.5 -50h-114z" />
    <glyph glyph-name="uni01E8" unicode="&#x1e8;" horiz-adv-x="632" 
d="M632 0h-125l-234 329l-70 -58v-271h-108v714h108v-345q26 30 52 60.5t52 60.5l193 224h124l-273 -312zM286 781q-14 23 -36 50t-46 52.5t-42 44.5v13h72q26 -17 54.5 -40t53.5 -50q27 27 55.5 50t54.5 40h73v-13q-18 -19 -42.5 -44.5t-47 -52.5t-35.5 -50h-114z" />
    <glyph glyph-name="uni01E9" unicode="&#x1e9;" horiz-adv-x="559" 
d="M188 380q0 -20 -2 -48t-3 -50h3q11 15 30.5 39.5t34.5 40.5l165 177h123l-217 -231l231 -308h-125l-178 241l-62 -52v-189h-105v760h105v-380zM81 827q-14 23 -36 50t-46 52.5t-42 44.5v13h72q26 -17 54.5 -40t53.5 -50q27 27 55.5 50t54.5 40h73v-13
q-18 -19 -42.5 -44.5t-47 -52.5t-35.5 -50h-114z" />
    <glyph glyph-name="uni01EA" unicode="&#x1ea;" horiz-adv-x="785" 
d="M725 358q0 -111 -37 -193.5t-111 -128.5t-184 -46q-113 0 -187 46t-110 129t-36 194q0 110 36.5 192t110.5 128t187 46q110 0 183.5 -45.5t110.5 -128t37 -193.5zM174 358q0 -128 53 -202t166 -74q114 0 166 74t52 202t-51.5 201t-165.5 73t-167 -73t-53 -201zM393 -115
q0 -21 11.5 -32t31.5 -11q17 0 29.5 2.5t21.5 4.5v-65q-15 -4 -30.5 -7t-35.5 -3q-55 0 -82 27t-27 72q0 29 14.5 56t37 49.5t45.5 37.5l53 -16q-33 -32 -51 -58.5t-18 -56.5z" />
    <glyph glyph-name="uni01EB" unicode="&#x1eb;" horiz-adv-x="609" 
d="M558 270q0 -134 -69 -207t-186 -73q-73 0 -129.5 33t-89 95.5t-32.5 151.5q0 134 68 206.5t186 72.5q74 0 130.5 -32.5t89 -94.5t32.5 -152zM161 270q0 -91 34.5 -142t109.5 -51t109.5 51t34.5 142q0 92 -35 141.5t-110 49.5t-109 -49.5t-34 -141.5zM303 -115
q0 -21 11.5 -32t31.5 -11q17 0 29.5 2.5t21.5 4.5v-65q-15 -4 -30.5 -7t-35.5 -3q-55 0 -82 27t-27 72q0 29 14.5 56t37 49.5t45.5 37.5l53 -16q-33 -32 -51 -58.5t-18 -56.5z" />
    <glyph glyph-name="uni01EC" unicode="&#x1ec;" horiz-adv-x="785" 
d="M725 358q0 -111 -37 -193.5t-111 -128.5t-184 -46q-113 0 -187 46t-110 129t-36 194q0 110 36.5 192t110.5 128t187 46q110 0 183.5 -45.5t110.5 -128t37 -193.5zM174 358q0 -128 53 -202t166 -74q114 0 166 74t52 202t-51.5 201t-165.5 73t-167 -73t-53 -201zM546 861
v-80h-307v80h307zM401 -115q0 -21 11.5 -32t31.5 -11q17 0 29.5 2.5t21.5 4.5v-65q-15 -4 -30.5 -7t-35.5 -3q-55 0 -82 27t-27 72q0 29 14.5 56t37 49.5t45.5 37.5l53 -16q-33 -32 -51 -58.5t-18 -56.5z" />
    <glyph glyph-name="uni01ED" unicode="&#x1ed;" horiz-adv-x="609" 
d="M558 270q0 -134 -69 -207t-186 -73q-73 0 -129.5 33t-89 95.5t-32.5 151.5q0 134 68 206.5t186 72.5q74 0 130.5 -32.5t89 -94.5t32.5 -152zM161 270q0 -91 34.5 -142t109.5 -51t109.5 51t34.5 142q0 92 -35 141.5t-110 49.5t-109 -49.5t-34 -141.5zM458 686v-80h-307v80
h307zM303 -115q0 -21 11.5 -32t31.5 -11q17 0 29.5 2.5t21.5 4.5v-65q-15 -4 -30.5 -7t-35.5 -3q-55 0 -82 27t-27 72q0 29 14.5 56t37 49.5t45.5 37.5l53 -16q-33 -32 -51 -58.5t-18 -56.5z" />
    <glyph glyph-name="uni01EE" unicode="&#x1ee;" horiz-adv-x="586" 
d="M505 714v-79l-235 -225q126 -5 196 -56t70 -149q0 -62 -32 -110.5t-97 -76.5t-164 -28q-59 0 -111.5 9t-98.5 30v96q47 -23 103 -35t105 -12q96 0 140 34.5t44 96.5q0 119 -214 119h-65v83l218 210h-310v93h451zM222 781q-14 23 -36 50t-46 52.5t-42 44.5v13h72
q26 -17 54.5 -40t53.5 -50q27 27 55.5 50t54.5 40h73v-13q-18 -19 -42.5 -44.5t-47 -52.5t-35.5 -50h-114z" />
    <glyph glyph-name="uni01EF" unicode="&#x1ef;" horiz-adv-x="522" 
d="M461 539v-74l-218 -231q111 -10 177.5 -69.5t66.5 -163.5q0 -70 -32.5 -124.5t-94 -85.5t-148.5 -31q-59 0 -108 9.5t-86 26.5v94q38 -18 88.5 -30.5t105.5 -12.5q81 0 124.5 42.5t43.5 112.5q0 75 -51 112.5t-149 37.5h-58v75l213 226h-301v86h427zM193 606
q-14 23 -36 50t-46 52.5t-42 44.5v13h72q26 -17 54.5 -40t53.5 -50q27 27 55.5 50t54.5 40h73v-13q-18 -19 -42.5 -44.5t-47 -52.5t-35.5 -50h-114z" />
    <glyph glyph-name="uni01F0" unicode="&#x1f0;" horiz-adv-x="272" 
d="M26 -240q-26 0 -47.5 3.5t-36.5 8.5v85q16 -5 32 -7.5t36 -2.5q31 0 52 17.5t21 66.5v608h106v-613q0 -75 -38.5 -120.5t-124.5 -45.5zM79 606q-14 23 -36 50t-46 52.5t-42 44.5v13h72q26 -17 54.5 -40t53.5 -50q27 27 55.5 50t54.5 40h73v-13q-18 -19 -42.5 -44.5
t-47 -52.5t-35.5 -50h-114z" />
    <glyph glyph-name="uni01F1" unicode="&#x1f1;" horiz-adv-x="1297" 
d="M673 364q0 -181 -99.5 -272.5t-278.5 -91.5h-200v714h221q109 0 189 -40t124 -117.5t44 -192.5zM560 361q0 135 -65.5 198.5t-185.5 63.5h-106v-532h87q270 0 270 270zM1262 0h-505v77l366 544h-355v93h485v-77l-366 -544h375v-93z" />
    <glyph glyph-name="uni01F2" unicode="&#x1f2;" horiz-adv-x="1208" 
d="M673 364q0 -181 -99.5 -272.5t-278.5 -91.5h-200v714h221q109 0 189 -40t124 -117.5t44 -192.5zM560 361q0 135 -65.5 198.5t-185.5 63.5h-106v-532h87q270 0 270 270zM1172 0h-404v67l278 390h-261v82h379v-75l-272 -382h280v-82z" />
    <glyph glyph-name="uni01F3" unicode="&#x1f3;" horiz-adv-x="1096" 
d="M268 -10q-97 0 -156.5 70t-59.5 208q0 139 60 210t158 71q61 0 100 -23t63 -56h6q-2 13 -5 40t-3 48v202h106v-760h-83l-18 72h-5q-23 -35 -62 -58.5t-101 -23.5zM293 77q78 0 110 43.5t32 130.5v16q0 94 -30.5 144.5t-112.5 50.5q-65 0 -98 -52.5t-33 -143.5t33 -140
t99 -49zM1059 0h-404v67l278 390h-261v82h379v-75l-272 -382h280v-82z" />
    <glyph glyph-name="uni01F4" unicode="&#x1f4;" horiz-adv-x="727" 
d="M393 384h258v-356q-57 -19 -116.5 -28.5t-135.5 -9.5q-164 0 -251.5 97.5t-87.5 269.5q0 112 43.5 194.5t126.5 127.5t201 45q59 0 113 -11.5t100 -31.5l-39 -90q-37 16 -82.5 28t-95.5 12q-119 0 -187 -74t-68 -201q0 -81 25 -142.5t79 -96.5t141 -35q43 0 72.5 4.5
t54.5 10.5v194h-151v93zM570 931q-15 -18 -42 -47t-58 -57t-55 -46h-70v12q15 19 34 45t37 53.5t30 49.5h124v-10z" />
    <glyph glyph-name="uni01F5" unicode="&#x1f5;" horiz-adv-x="620" 
d="M269 549q107 0 165 -81h5l12 71h86v-546q0 -115 -61.5 -174t-187.5 -59q-59 0 -107.5 8t-89.5 25v93q86 -42 203 -42q66 0 102 37.5t36 105.5v18q0 13 1 34t2 32h-4q-27 -42 -68 -61.5t-94 -19.5q-102 0 -159.5 73.5t-57.5 204.5q0 130 57.5 205.5t159.5 75.5zM291 461
q-63 0 -96.5 -50t-33.5 -144t33.5 -143t98.5 -49q74 0 108.5 40.5t34.5 132.5v20q0 103 -35 148t-110 45zM469 756q-15 -18 -42 -47t-58 -57t-55 -46h-70v12q15 19 34 45t37 53.5t30 49.5h124v-10z" />
    <glyph glyph-name="uni01F6" unicode="&#x1f6;" horiz-adv-x="970" 
d="M95 0v714h108v-296h278v296h108v-529q0 -103 93 -103q48 0 70 27.5t22 79.5v350h108v-351q0 -89 -49.5 -143t-152.5 -54q-100 0 -149.5 49.5t-49.5 141.5v144h-278v-326h-108z" />
    <glyph glyph-name="uni01F7" unicode="&#x1f7;" horiz-adv-x="665" 
d="M398 725q62 0 110.5 -27.5t76 -82.5t27.5 -139q0 -91 -39 -180t-129 -166.5t-241 -135.5v-234h-108v955h84l18 -96h4q29 43 76.5 74.5t120.5 31.5zM374 633q-93 0 -132 -60.5t-39 -162.5v-315q148 61 224 161t76 219q0 78 -34 118t-95 40z" />
    <glyph glyph-name="uni01F8" unicode="&#x1f8;" horiz-adv-x="776" 
d="M681 0h-131l-361 577h-4q2 -40 5 -91.5t3 -105.5v-380h-98v714h130l360 -574h3q-1 21 -2.5 53t-2.5 68.5t-2 68.5v384h100v-714zM366 941q12 -22 30 -49.5t37 -53.5t35 -45v-12h-71q-24 18 -54.5 46t-58 57t-41.5 47v10h123z" />
    <glyph glyph-name="uni01F9" unicode="&#x1f9;" horiz-adv-x="630" 
d="M356 549q94 0 144 -47t50 -151v-351h-105v336q0 126 -111 126q-83 0 -114 -49t-31 -141v-272h-106v539h84l15 -72h6q26 42 71.5 62t96.5 20zM293 766q12 -22 30 -49.5t37 -53.5t35 -45v-12h-71q-24 18 -54.5 46t-58 57t-41.5 47v10h123z" />
    <glyph glyph-name="Aringacute" unicode="&#x1fa;" horiz-adv-x="655" 
d="M275 846q21 22 45 54t40 58h124v-7q-10 -14 -34.5 -35.5t-53 -43t-50.5 -35.5h-71v9zM254 618q-41 28 -41 84q0 52 31.5 80.5t81.5 28.5q48 0 81.5 -28.5t33.5 -79.5q0 -28 -11 -49.5t-29 -34.5l254 -619h-114l-73 183h-285l-70 -183h-113zM326 649q24 0 38.5 14t14.5 39
q0 26 -15 40t-38 14q-24 0 -39 -14t-15 -40q0 -24 14 -38.5t40 -14.5zM215 277h225l-73 187q-8 20 -20.5 54t-19.5 61q-5 -18 -12.5 -40.5t-15 -43.5t-11.5 -32z" />
    <glyph glyph-name="aringacute" unicode="&#x1fb;" horiz-adv-x="574" 
d="M457 952q-11 -11 -39 -29.5t-60 -36.5t-54 -30h-74v8q21 19 45 45.5t40 48.5h142v-6zM291 817q49 0 82 -28.5t33 -78.5q0 -52 -32.5 -81t-82.5 -29t-81 28.5t-31 80.5q0 51 31 79.5t81 28.5zM291 762q-23 0 -38 -14t-15 -39t13.5 -39.5t39.5 -14.5q24 0 39 14.5t15 39.5
t-15.5 39t-38.5 14zM292 549q101 0 151.5 -44.5t50.5 -139.5v-365h-75l-21 75h-4q-35 -44 -73.5 -64.5t-106.5 -20.5q-73 0 -121 39.5t-48 123.5q0 82 62 125t191 47l92 3v30q0 59 -27 83.5t-76 24.5q-41 0 -79 -12t-73 -29l-34 77q38 20 87.5 33.5t103.5 13.5zM317 257
q-92 -4 -127.5 -30.5t-35.5 -74.5q0 -42 25 -61t65 -19q62 0 103.5 35t41.5 105v47z" />
    <glyph glyph-name="AEacute" unicode="&#x1fc;" horiz-adv-x="902" 
d="M842 0h-388v206h-247l-97 -206h-111l334 714h509v-92h-280v-204h262v-91h-262v-234h280v-93zM248 300h206v320h-59zM664 931q-15 -18 -42 -47t-58 -57t-55 -46h-70v12q15 19 34 45t37 53.5t30 49.5h124v-10z" />
    <glyph glyph-name="aeacute" unicode="&#x1fd;" horiz-adv-x="880" 
d="M614 549q66 0 115 -30t75.5 -84.5t26.5 -127.5v-60h-346q5 -171 149 -171q50 0 90 9.5t81 28.5v-88q-40 -18 -80.5 -27t-94.5 -9q-68 0 -121 27.5t-85 81.5q-37 -52 -83 -80.5t-125 -28.5q-48 0 -87 17.5t-61.5 53.5t-22.5 92q0 164 241 172l91 3v36q0 56 -27.5 79
t-75.5 23q-39 0 -77 -11.5t-72 -28.5l-33 76q37 20 87.5 33.5t102.5 13.5q60 0 101 -19.5t64 -60.5q28 38 70 59t97 21zM613 467q-56 0 -88.5 -36t-37.5 -106h237q0 63 -27.5 102.5t-83.5 39.5zM307 257q-86 -4 -119.5 -30.5t-33.5 -74.5q0 -42 23.5 -61t62.5 -19
q58 0 97 35t39 105v47zM614 756q-15 -18 -42 -47t-58 -57t-55 -46h-70v12q15 19 34 45t37 53.5t30 49.5h124v-10z" />
    <glyph glyph-name="Oslashacute" unicode="&#x1fe;" horiz-adv-x="785" 
d="M725 358q0 -111 -37 -193.5t-111 -128.5t-184 -46q-107 0 -179 43l-47 -68l-66 44l50 72q-46 48 -68.5 119t-22.5 159q0 110 36.5 192t110.5 128t187 46q51 0 95 -11t80 -31l45 65l66 -44l-49 -69q94 -98 94 -277zM174 358q0 -57 10 -103t31 -81l298 427q-48 31 -119 31
q-114 0 -167 -73t-53 -201zM611 358q0 117 -43 185l-297 -428q23 -15 54 -24t68 -9q114 0 166 74t52 202zM562 931q-15 -18 -42 -47t-58 -57t-55 -46h-70v12q15 19 34 45t37 53.5t30 49.5h124v-10z" />
    <glyph glyph-name="oslashacute" unicode="&#x1ff;" horiz-adv-x="609" 
d="M558 270q0 -134 -69 -207t-186 -73q-70 0 -125 30l-37 -54l-63 42l41 59q-32 36 -49.5 87t-17.5 116q0 134 68 206.5t186 72.5q71 0 128 -33l36 51l63 -42l-40 -56q30 -36 47.5 -85.5t17.5 -113.5zM161 270q0 -34 4.5 -62.5t15.5 -51.5l200 285q-31 20 -77 20
q-75 0 -109 -49.5t-34 -141.5zM449 270q0 64 -18 108l-200 -283q30 -18 74 -18q75 0 109.5 51t34.5 142zM472 756q-15 -18 -42 -47t-58 -57t-55 -46h-70v12q15 19 34 45t37 53.5t30 49.5h124v-10z" />
    <glyph glyph-name="uni0200" unicode="&#x200;" horiz-adv-x="654" 
d="M540 0l-76 206h-276l-76 -206h-112l271 717h112l270 -717h-113zM362 501q-3 11 -10.5 33t-14.5 46t-11 39q-8 -31 -18 -66t-16 -52l-72 -201h214zM382 941q16 -34 40.5 -76.5t45.5 -71.5v-12h-59q-23 18 -51 46.5t-52.5 57.5t-35.5 46v10h112zM201 941q15 -34 39.5 -76.5
t45.5 -71.5v-12h-58q-23 18 -51.5 46.5t-53 57.5t-34.5 46v10h112z" />
    <glyph glyph-name="uni0201" unicode="&#x201;" horiz-adv-x="574" 
d="M292 549q101 0 151.5 -44.5t50.5 -139.5v-365h-75l-21 75h-4q-35 -44 -73.5 -64.5t-106.5 -20.5q-73 0 -121 39.5t-48 123.5q0 82 62 125t191 47l92 3v30q0 59 -27 83.5t-76 24.5q-41 0 -79 -12t-73 -29l-34 77q38 20 87.5 33.5t103.5 13.5zM317 257q-92 -4 -127.5 -30.5
t-35.5 -74.5q0 -42 25 -61t65 -19q62 0 103.5 35t41.5 105v47zM343 766q16 -34 40.5 -76.5t45.5 -71.5v-12h-59q-23 18 -51 46.5t-52.5 57.5t-35.5 46v10h112zM162 766q15 -34 39.5 -76.5t45.5 -71.5v-12h-58q-23 18 -51.5 46.5t-53 57.5t-34.5 46v10h112z" />
    <glyph glyph-name="uni0202" unicode="&#x202;" horiz-adv-x="654" 
d="M540 0l-76 206h-276l-76 -206h-112l271 717h112l270 -717h-113zM362 501q-3 11 -10.5 33t-14.5 46t-11 39q-8 -31 -18 -66t-16 -52l-72 -201h214zM328 924q78 0 119 -39t45 -104h-63q-4 41 -31 51.5t-72 10.5q-38 0 -68 -11.5t-35 -50.5h-64q6 64 50 103.5t119 39.5z" />
    <glyph glyph-name="uni0203" unicode="&#x203;" horiz-adv-x="574" 
d="M292 549q101 0 151.5 -44.5t50.5 -139.5v-365h-75l-21 75h-4q-35 -44 -73.5 -64.5t-106.5 -20.5q-73 0 -121 39.5t-48 123.5q0 82 62 125t191 47l92 3v30q0 59 -27 83.5t-76 24.5q-41 0 -79 -12t-73 -29l-34 77q38 20 87.5 33.5t103.5 13.5zM317 257q-92 -4 -127.5 -30.5
t-35.5 -74.5q0 -42 25 -61t65 -19q62 0 103.5 35t41.5 105v47zM289 749q78 0 119 -39t45 -104h-63q-4 41 -31 51.5t-72 10.5q-38 0 -68 -11.5t-35 -50.5h-64q6 64 50 103.5t119 39.5z" />
    <glyph glyph-name="uni0204" unicode="&#x204;" horiz-adv-x="557" 
d="M497 0h-402v714h402v-92h-294v-204h276v-91h-276v-234h294v-93zM360 941q16 -34 40.5 -76.5t45.5 -71.5v-12h-59q-23 18 -51 46.5t-52.5 57.5t-35.5 46v10h112zM179 941q15 -34 39.5 -76.5t45.5 -71.5v-12h-58q-23 18 -51.5 46.5t-53 57.5t-34.5 46v10h112z" />
    <glyph glyph-name="uni0205" unicode="&#x205;" horiz-adv-x="572" 
d="M295 549q106 0 167 -65.5t61 -178.5v-58h-362q2 -83 43.5 -127t116.5 -44q52 0 92.5 9.5t83.5 28.5v-88q-41 -18 -82 -27t-98 -9q-79 0 -138.5 31t-93 92.5t-33.5 151.5q0 91 30.5 154t85 96.5t127.5 33.5zM295 467q-57 0 -91.5 -37t-40.5 -105h254q-1 63 -30.5 102.5
t-91.5 39.5zM344 766q16 -34 40.5 -76.5t45.5 -71.5v-12h-59q-23 18 -51 46.5t-52.5 57.5t-35.5 46v10h112zM163 766q15 -34 39.5 -76.5t45.5 -71.5v-12h-58q-23 18 -51.5 46.5t-53 57.5t-34.5 46v10h112z" />
    <glyph glyph-name="uni0206" unicode="&#x206;" horiz-adv-x="557" 
d="M497 0h-402v714h402v-92h-294v-204h276v-91h-276v-234h294v-93zM306 924q78 0 119 -39t45 -104h-63q-4 41 -31 51.5t-72 10.5q-38 0 -68 -11.5t-35 -50.5h-64q6 64 50 103.5t119 39.5z" />
    <glyph glyph-name="uni0207" unicode="&#x207;" horiz-adv-x="572" 
d="M295 549q106 0 167 -65.5t61 -178.5v-58h-362q2 -83 43.5 -127t116.5 -44q52 0 92.5 9.5t83.5 28.5v-88q-41 -18 -82 -27t-98 -9q-79 0 -138.5 31t-93 92.5t-33.5 151.5q0 91 30.5 154t85 96.5t127.5 33.5zM295 467q-57 0 -91.5 -37t-40.5 -105h254q-1 63 -30.5 102.5
t-91.5 39.5zM290 749q78 0 119 -39t45 -104h-63q-4 41 -31 51.5t-72 10.5q-38 0 -68 -11.5t-35 -50.5h-64q6 64 50 103.5t119 39.5z" />
    <glyph glyph-name="uni0208" unicode="&#x208;" horiz-adv-x="354" 
d="M315 0h-277v62l85 25v539l-85 26v62h277v-62l-84 -26v-539l84 -25v-62zM234 941q16 -34 40.5 -76.5t45.5 -71.5v-12h-59q-23 18 -51 46.5t-52.5 57.5t-35.5 46v10h112zM53 941q15 -34 39.5 -76.5t45.5 -71.5v-12h-58q-23 18 -51.5 46.5t-53 57.5t-34.5 46v10h112z" />
    <glyph glyph-name="uni0209" unicode="&#x209;" horiz-adv-x="272" 
d="M189 0h-106v539h106v-539zM192 766q16 -34 40.5 -76.5t45.5 -71.5v-12h-59q-23 18 -51 46.5t-52.5 57.5t-35.5 46v10h112zM11 766q15 -34 39.5 -76.5t45.5 -71.5v-12h-58q-23 18 -51.5 46.5t-53 57.5t-34.5 46v10h112z" />
    <glyph glyph-name="uni020A" unicode="&#x20a;" horiz-adv-x="354" 
d="M315 0h-277v62l85 25v539l-85 26v62h277v-62l-84 -26v-539l84 -25v-62zM179 924q78 0 119 -39t45 -104h-63q-4 41 -31 51.5t-72 10.5q-38 0 -68 -11.5t-35 -50.5h-64q6 64 50 103.5t119 39.5z" />
    <glyph glyph-name="uni020B" unicode="&#x20b;" horiz-adv-x="272" 
d="M189 0h-106v539h106v-539zM138 749q78 0 119 -39t45 -104h-63q-4 41 -31 51.5t-72 10.5q-38 0 -68 -11.5t-35 -50.5h-64q6 64 50 103.5t119 39.5z" />
    <glyph glyph-name="uni020C" unicode="&#x20c;" horiz-adv-x="785" 
d="M725 358q0 -111 -37 -193.5t-111 -128.5t-184 -46q-113 0 -187 46t-110 129t-36 194q0 110 36.5 192t110.5 128t187 46q110 0 183.5 -45.5t110.5 -128t37 -193.5zM174 358q0 -128 53 -202t166 -74q114 0 166 74t52 202t-51.5 201t-165.5 73t-167 -73t-53 -201zM449 941
q16 -34 40.5 -76.5t45.5 -71.5v-12h-59q-23 18 -51 46.5t-52.5 57.5t-35.5 46v10h112zM268 941q15 -34 39.5 -76.5t45.5 -71.5v-12h-58q-23 18 -51.5 46.5t-53 57.5t-34.5 46v10h112z" />
    <glyph glyph-name="uni020D" unicode="&#x20d;" horiz-adv-x="609" 
d="M558 270q0 -134 -69 -207t-186 -73q-73 0 -129.5 33t-89 95.5t-32.5 151.5q0 134 68 206.5t186 72.5q74 0 130.5 -32.5t89 -94.5t32.5 -152zM161 270q0 -91 34.5 -142t109.5 -51t109.5 51t34.5 142q0 92 -35 141.5t-110 49.5t-109 -49.5t-34 -141.5zM361 766
q16 -34 40.5 -76.5t45.5 -71.5v-12h-59q-23 18 -51 46.5t-52.5 57.5t-35.5 46v10h112zM180 766q15 -34 39.5 -76.5t45.5 -71.5v-12h-58q-23 18 -51.5 46.5t-53 57.5t-34.5 46v10h112z" />
    <glyph glyph-name="uni020E" unicode="&#x20e;" horiz-adv-x="785" 
d="M725 358q0 -111 -37 -193.5t-111 -128.5t-184 -46q-113 0 -187 46t-110 129t-36 194q0 110 36.5 192t110.5 128t187 46q110 0 183.5 -45.5t110.5 -128t37 -193.5zM174 358q0 -128 53 -202t166 -74q114 0 166 74t52 202t-51.5 201t-165.5 73t-167 -73t-53 -201zM395 924
q78 0 119 -39t45 -104h-63q-4 41 -31 51.5t-72 10.5q-38 0 -68 -11.5t-35 -50.5h-64q6 64 50 103.5t119 39.5z" />
    <glyph glyph-name="uni020F" unicode="&#x20f;" horiz-adv-x="609" 
d="M558 270q0 -134 -69 -207t-186 -73q-73 0 -129.5 33t-89 95.5t-32.5 151.5q0 134 68 206.5t186 72.5q74 0 130.5 -32.5t89 -94.5t32.5 -152zM161 270q0 -91 34.5 -142t109.5 -51t109.5 51t34.5 142q0 92 -35 141.5t-110 49.5t-109 -49.5t-34 -141.5zM307 749
q78 0 119 -39t45 -104h-63q-4 41 -31 51.5t-72 10.5q-38 0 -68 -11.5t-35 -50.5h-64q6 64 50 103.5t119 39.5z" />
    <glyph glyph-name="uni0210" unicode="&#x210;" horiz-adv-x="633" 
d="M295 714q137 0 202.5 -51t65.5 -155q0 -55 -20.5 -92.5t-52.5 -61t-67 -37.5l200 -317h-124l-172 289h-124v-289h-108v714h200zM288 622h-85v-243h90q83 0 121 31.5t38 93.5q0 64 -40 91t-124 27zM375 941q16 -34 40.5 -76.5t45.5 -71.5v-12h-59q-23 18 -51 46.5
t-52.5 57.5t-35.5 46v10h112zM194 941q15 -34 39.5 -76.5t45.5 -71.5v-12h-58q-23 18 -51.5 46.5t-53 57.5t-34.5 46v10h112z" />
    <glyph glyph-name="uni0211" unicode="&#x211;" horiz-adv-x="425" 
d="M349 549q14 0 30.5 -1.5t28.5 -3.5l-11 -99q-26 7 -54 7q-40 0 -75.5 -20t-57 -57.5t-21.5 -90.5v-284h-106v539h84l14 -96h4q26 43 67 74.5t97 31.5zM300 766q16 -34 40.5 -76.5t45.5 -71.5v-12h-59q-23 18 -51 46.5t-52.5 57.5t-35.5 46v10h112zM119 766
q15 -34 39.5 -76.5t45.5 -71.5v-12h-58q-23 18 -51.5 46.5t-53 57.5t-34.5 46v10h112z" />
    <glyph glyph-name="uni0212" unicode="&#x212;" horiz-adv-x="633" 
d="M295 714q137 0 202.5 -51t65.5 -155q0 -55 -20.5 -92.5t-52.5 -61t-67 -37.5l200 -317h-124l-172 289h-124v-289h-108v714h200zM288 622h-85v-243h90q83 0 121 31.5t38 93.5q0 64 -40 91t-124 27zM321 924q78 0 119 -39t45 -104h-63q-4 41 -31 51.5t-72 10.5
q-38 0 -68 -11.5t-35 -50.5h-64q6 64 50 103.5t119 39.5z" />
    <glyph glyph-name="uni0213" unicode="&#x213;" horiz-adv-x="425" 
d="M349 549q14 0 30.5 -1.5t28.5 -3.5l-11 -99q-26 7 -54 7q-40 0 -75.5 -20t-57 -57.5t-21.5 -90.5v-284h-106v539h84l14 -96h4q26 43 67 74.5t97 31.5zM246 749q78 0 119 -39t45 -104h-63q-4 41 -31 51.5t-72 10.5q-38 0 -68 -11.5t-35 -50.5h-64q6 64 50 103.5t119 39.5z
" />
    <glyph glyph-name="uni0214" unicode="&#x214;" horiz-adv-x="738" 
d="M649 252q0 -74 -31 -133.5t-93.5 -94t-158.5 -34.5q-136 0 -206.5 72.5t-70.5 191.5v460h108v-455q0 -177 174 -177q90 0 130.5 48t40.5 130v454h107v-462zM426 941q16 -34 40.5 -76.5t45.5 -71.5v-12h-59q-23 18 -51 46.5t-52.5 57.5t-35.5 46v10h112zM245 941
q15 -34 39.5 -76.5t45.5 -71.5v-12h-58q-23 18 -51.5 46.5t-53 57.5t-34.5 46v10h112z" />
    <glyph glyph-name="uni0215" unicode="&#x215;" horiz-adv-x="630" 
d="M547 539v-539h-85l-15 71h-5q-26 -42 -72 -61.5t-97 -19.5q-95 0 -145 47t-50 149v353h107v-337q0 -125 109 -125q83 0 115 49t32 140v273h106zM371 766q16 -34 40.5 -76.5t45.5 -71.5v-12h-59q-23 18 -51 46.5t-52.5 57.5t-35.5 46v10h112zM190 766q15 -34 39.5 -76.5
t45.5 -71.5v-12h-58q-23 18 -51.5 46.5t-53 57.5t-34.5 46v10h112z" />
    <glyph glyph-name="uni0216" unicode="&#x216;" horiz-adv-x="738" 
d="M649 252q0 -74 -31 -133.5t-93.5 -94t-158.5 -34.5q-136 0 -206.5 72.5t-70.5 191.5v460h108v-455q0 -177 174 -177q90 0 130.5 48t40.5 130v454h107v-462zM372 924q78 0 119 -39t45 -104h-63q-4 41 -31 51.5t-72 10.5q-38 0 -68 -11.5t-35 -50.5h-64q6 64 50 103.5
t119 39.5z" />
    <glyph glyph-name="uni0217" unicode="&#x217;" horiz-adv-x="630" 
d="M547 539v-539h-85l-15 71h-5q-26 -42 -72 -61.5t-97 -19.5q-95 0 -145 47t-50 149v353h107v-337q0 -125 109 -125q83 0 115 49t32 140v273h106zM317 749q78 0 119 -39t45 -104h-63q-4 41 -31 51.5t-72 10.5q-38 0 -68 -11.5t-35 -50.5h-64q6 64 50 103.5t119 39.5z" />
    <glyph glyph-name="uni0218" unicode="&#x218;" horiz-adv-x="550" 
d="M505 193q0 -95 -69 -149t-189 -54q-58 0 -109.5 9.5t-87.5 27.5v102q40 -18 94 -32.5t110 -14.5q72 0 108 28t36 75q0 33 -16.5 55.5t-51.5 41.5t-92 42q-53 20 -93.5 47t-63.5 67t-23 98q0 88 64 138t168 50q58 0 107.5 -11.5t94.5 -31.5l-34 -89q-41 17 -83.5 28
t-87.5 11q-59 0 -90 -26t-31 -68q0 -33 15 -55.5t48 -40.5t87 -40q60 -24 102.5 -50.5t64.5 -64t22 -93.5zM330 -70q-9 -29 -31.5 -73t-48.5 -78h-60v12q7 18 15 44.5t14 54.5t9 49h102v-9z" />
    <glyph glyph-name="uni0219" unicode="&#x219;" horiz-adv-x="484" 
d="M441 152q0 -79 -58 -120.5t-161 -41.5q-57 0 -97.5 8.5t-74.5 24.5v93q35 -17 82.5 -30.5t92.5 -13.5q60 0 86.5 19t26.5 51q0 18 -10 32.5t-37.5 30t-80.5 35.5q-52 21 -87.5 41.5t-54.5 49t-19 73.5q0 70 56.5 107.5t149.5 37.5q49 0 92.5 -10t84.5 -28l-35 -81
q-35 15 -72 25.5t-75 10.5q-48 0 -73 -15t-25 -42q0 -19 12 -33t40.5 -28t78.5 -34q50 -19 85.5 -39t54 -49t18.5 -74zM313 -70q-9 -29 -31.5 -73t-48.5 -78h-60v12q7 18 15 44.5t14 54.5t9 49h102v-9z" />
    <glyph glyph-name="uni021A" unicode="&#x21a;" horiz-adv-x="563" 
d="M335 0h-108v621h-214v93h536v-93h-214v-621zM352 -70q-9 -29 -31.5 -73t-48.5 -78h-60v12q7 18 15 44.5t14 54.5t9 49h102v-9z" />
    <glyph glyph-name="uni021B" unicode="&#x21b;" horiz-adv-x="383" 
d="M277 76q21 0 43 3.5t38 9.5v-80q-18 -8 -46.5 -13.5t-57.5 -5.5q-44 0 -81 15t-58.5 52t-21.5 103v298h-75v48l79 40l37 114h65v-121h154v-81h-154v-296q0 -44 21.5 -65t56.5 -21zM292 -70q-9 -29 -31.5 -73t-48.5 -78h-60v12q7 18 15 44.5t14 54.5t9 49h102v-9z" />
    <glyph glyph-name="uni021C" unicode="&#x21c;" horiz-adv-x="591" 
d="M43 -82q114 28 189 57.5t118.5 62t61.5 69t18 78.5q0 57 -28.5 90.5t-76.5 57.5q-37 -13 -77 -24t-82 -21l-19 82q91 23 150 44.5t88 50t29 71.5q0 48 -33.5 74t-93.5 26q-58 0 -106 -15.5t-93 -44.5l-50 73q57 40 121 57.5t133 17.5q63 0 115.5 -18.5t84 -59.5
t31.5 -107q0 -55 -30 -95t-79 -69q33 -17 62 -41.5t46.5 -61t17.5 -87.5q0 -93 -51.5 -159.5t-161.5 -115.5t-284 -90v98z" />
    <glyph glyph-name="uni021D" unicode="&#x21d;" horiz-adv-x="499" 
d="M27 -149q161 33 240.5 84t79.5 132q0 47 -20.5 75.5t-56.5 48.5q-29 -12 -63 -22t-70 -19l-20 78q85 22 131.5 44t64.5 47.5t18 57.5q0 43 -27 64.5t-74 21.5q-43 0 -81 -10t-74 -28l-34 77q45 25 92.5 36t97.5 11q58 0 104 -17.5t73.5 -54.5t27.5 -97q0 -47 -23 -83.5
t-64 -63.5q44 -22 74 -61t30 -105q0 -90 -54 -148.5t-150 -95.5t-222 -63v91z" />
    <glyph glyph-name="uni021E" unicode="&#x21e;" horiz-adv-x="748" 
d="M652 0h-108v326h-341v-326h-108v714h108v-296h341v296h108v-714zM317 781q-14 23 -36 50t-46 52.5t-42 44.5v13h72q26 -17 54.5 -40t53.5 -50q27 27 55.5 50t54.5 40h73v-13q-18 -19 -42.5 -44.5t-47 -52.5t-35.5 -50h-114z" />
    <glyph glyph-name="uni021F" unicode="&#x21f;" horiz-adv-x="630" 
d="M189 557q0 -26 -2 -50.5t-4 -40.5h7q26 42 69.5 62t94.5 20q95 0 145.5 -47t50.5 -150v-351h-105v336q0 126 -111 126q-83 0 -114 -49.5t-31 -141.5v-271h-106v760h106v-203zM80 827q-14 23 -36 50t-46 52.5t-42 44.5v13h72q26 -17 54.5 -40t53.5 -50q27 27 55.5 50
t54.5 40h73v-13q-18 -19 -42.5 -44.5t-47 -52.5t-35.5 -50h-114z" />
    <glyph glyph-name="uni0220" unicode="&#x220;" horiz-adv-x="747" 
d="M416 725q111 0 176.5 -61t65.5 -195v-709h-108v698q0 87 -36.5 131t-119.5 44q-104 0 -147.5 -60t-43.5 -163v-410h-108v715h84l18 -92h4q34 47 93 74.5t122 27.5z" />
    <glyph glyph-name="uni0221" unicode="&#x221;" horiz-adv-x="864" 
d="M484 -100q8 78 24 137q-18 13 -27 27t-13 25h-5q-25 -46 -67.5 -72.5t-120.5 -26.5q-102 0 -162.5 69.5t-60.5 208.5t60 210t158 71q61 0 100 -23t63 -56h6q-2 15 -5 42.5t-3 45.5v202h106v-548q0 -49 13 -77q35 57 81.5 79.5t95.5 21.5q63 -1 96.5 -31t33.5 -75
q0 -35 -19 -64.5t-62.5 -47.5t-116.5 -18q-20 0 -37.5 1.5t-32.5 4.5q-5 -24 -8.5 -52t-5.5 -59zM293 77q78 0 110 43.5t32 130.5v16q0 94 -30.5 144.5t-112.5 50.5q-65 0 -98 -52.5t-33 -143.5t33 -140t99 -49zM668 78q53 0 74.5 12.5t21.5 33.5q0 12 -12.5 22t-35.5 10
q-34 0 -59 -19t-42 -53q24 -6 53 -6z" />
    <glyph glyph-name="uni0222" unicode="&#x222;" horiz-adv-x="699" 
d="M348 -10q-89 0 -154 29.5t-101 84.5t-36 133t37.5 128.5t108.5 74.5q-59 25 -85 74.5t-26 117.5v82h108v-82q0 -67 36 -108.5t113 -41.5q79 0 114.5 41.5t35.5 108.5v82h108v-82q0 -69 -26.5 -118t-85.5 -75q69 -24 108.5 -74t39.5 -128q0 -116 -78 -181.5t-217 -65.5z
M349 82q94 0 137 41t43 114t-43 113t-137 40t-136.5 -40t-42.5 -113t43 -114t136 -41z" />
    <glyph glyph-name="uni0223" unicode="&#x223;" horiz-adv-x="606" 
d="M301 -10q-73 0 -130 29.5t-89.5 85.5t-32.5 137t33.5 133t97.5 76q-52 20 -75.5 65t-23.5 124v120h106v-118q0 -77 27 -112.5t89 -35.5q61 0 88 35.5t27 112.5v118h106v-120q0 -80 -24.5 -125t-75.5 -65q62 -24 97.5 -75t35.5 -133q0 -121 -69.5 -186.5t-186.5 -65.5z
M303 77q74 0 109.5 43.5t35.5 122.5q0 78 -35.5 121t-110.5 43t-109.5 -43t-34.5 -121q0 -79 35 -122.5t110 -43.5z" />
    <glyph glyph-name="uni0224" unicode="&#x224;" horiz-adv-x="574" 
d="M406 -210q-20 0 -38.5 3.5t-30.5 8.5v86q11 -4 24 -6.5t29 -2.5q23 0 37 13.5t14 47.5v60h-407v77l366 544h-355v93h485v-77l-366 -544h375v-156q0 -68 -31.5 -107.5t-101.5 -39.5z" />
    <glyph glyph-name="uni0225" unicode="&#x225;" horiz-adv-x="475" 
d="M431 539v-75l-272 -382h280v-147q0 -142 -124 -142q-20 0 -37.5 3.5t-28.5 8.5v82q9 -3 21.5 -6t27.5 -3q23 0 36 12.5t13 41.5v68h-312v67l278 390h-261v82h379z" />
    <glyph glyph-name="uni0226" unicode="&#x226;" horiz-adv-x="654" 
d="M540 0l-76 206h-276l-76 -206h-112l271 717h112l270 -717h-113zM362 501q-3 11 -10.5 33t-14.5 46t-11 39q-8 -31 -18 -66t-16 -52l-72 -201h214zM327 919q24 0 41.5 -14t17.5 -47q0 -32 -17.5 -46.5t-41.5 -14.5q-26 0 -43.5 14.5t-17.5 46.5q0 33 17.5 47t43.5 14z" />
    <glyph glyph-name="uni0227" unicode="&#x227;" horiz-adv-x="574" 
d="M292 549q101 0 151.5 -44.5t50.5 -139.5v-365h-75l-21 75h-4q-35 -44 -73.5 -64.5t-106.5 -20.5q-73 0 -121 39.5t-48 123.5q0 82 62 125t191 47l92 3v30q0 59 -27 83.5t-76 24.5q-41 0 -79 -12t-73 -29l-34 77q38 20 87.5 33.5t103.5 13.5zM317 257q-92 -4 -127.5 -30.5
t-35.5 -74.5q0 -42 25 -61t65 -19q62 0 103.5 35t41.5 105v47zM288 744q24 0 41.5 -14t17.5 -47q0 -32 -17.5 -46.5t-41.5 -14.5q-26 0 -43.5 14.5t-17.5 46.5q0 33 17.5 47t43.5 14z" />
    <glyph glyph-name="uni0228" unicode="&#x228;" horiz-adv-x="557" 
d="M497 0h-402v714h402v-92h-294v-204h276v-91h-276v-234h294v-93zM407 -134q0 -50 -36 -78t-113 -28q-34 0 -56 6v63q25 -6 58 -6q29 0 45.5 8.5t16.5 31.5q0 24 -24 36.5t-64 17.5l42 83h68l-22 -46q34 -9 59.5 -29.5t25.5 -58.5z" />
    <glyph glyph-name="uni0229" unicode="&#x229;" horiz-adv-x="572" 
d="M295 549q106 0 167 -65.5t61 -178.5v-58h-362q2 -83 43.5 -127t116.5 -44q52 0 92.5 9.5t83.5 28.5v-88q-41 -18 -82 -27t-98 -9q-79 0 -138.5 31t-93 92.5t-33.5 151.5q0 91 30.5 154t85 96.5t127.5 33.5zM295 467q-57 0 -91.5 -37t-40.5 -105h254q-1 63 -30.5 102.5
t-91.5 39.5zM405 -134q0 -50 -36 -78t-113 -28q-34 0 -56 6v63q25 -6 58 -6q29 0 45.5 8.5t16.5 31.5q0 24 -24 36.5t-64 17.5l42 83h68l-22 -46q34 -9 59.5 -29.5t25.5 -58.5z" />
    <glyph glyph-name="uni022A" unicode="&#x22a;" horiz-adv-x="785" 
d="M546 1017v-78h-307v78h307zM298 881q21 0 36 -13t15 -40t-15 -40t-36 -13q-22 0 -37 13t-15 40t15 40t37 13zM488 881q21 0 36.5 -13t15.5 -40t-15.5 -40t-36.5 -13q-22 0 -37 13t-15 40t15 40t37 13zM725 358q0 -111 -37 -193.5t-111 -128.5t-184 -46q-113 0 -187 46
t-110 129t-36 194q0 110 36.5 192t110.5 128t187 46q110 0 183.5 -45.5t110.5 -128t37 -193.5zM174 358q0 -128 53 -202t166 -74q114 0 166 74t52 202t-51.5 201t-165.5 73t-167 -73t-53 -201z" />
    <glyph glyph-name="uni022B" unicode="&#x22b;" horiz-adv-x="609" 
d="M458 842v-78h-307v78h307zM210 706q21 0 36 -13t15 -40t-15 -40t-36 -13q-22 0 -37 13t-15 40t15 40t37 13zM400 706q21 0 36.5 -13t15.5 -40t-15.5 -40t-36.5 -13q-22 0 -37 13t-15 40t15 40t37 13zM558 270q0 -134 -69 -207t-186 -73q-73 0 -129.5 33t-89 95.5
t-32.5 151.5q0 134 68 206.5t186 72.5q74 0 130.5 -32.5t89 -94.5t32.5 -152zM161 270q0 -91 34.5 -142t109.5 -51t109.5 51t34.5 142q0 92 -35 141.5t-110 49.5t-109 -49.5t-34 -141.5z" />
    <glyph glyph-name="uni022C" unicode="&#x22c;" horiz-adv-x="785" 
d="M239 939v78h307v-78h-307zM224 780q5 52 29.5 83.5t69.5 31.5q28 0 53 -12t47 -23.5t41 -11.5q21 0 30.5 12.5t15.5 34.5h53q-5 -51 -29.5 -82.5t-70.5 -31.5q-26 0 -50.5 11.5t-47 23.5t-42.5 12q-21 0 -30 -12.5t-15 -35.5h-54zM725 358q0 -111 -37 -193.5t-111 -128.5
t-184 -46q-113 0 -187 46t-110 129t-36 194q0 110 36.5 192t110.5 128t187 46q110 0 183.5 -45.5t110.5 -128t37 -193.5zM174 358q0 -128 53 -202t166 -74q114 0 166 74t52 202t-51.5 201t-165.5 73t-167 -73t-53 -201z" />
    <glyph glyph-name="uni022D" unicode="&#x22d;" horiz-adv-x="609" 
d="M151 764v78h307v-78h-307zM136 605q5 52 29.5 83.5t69.5 31.5q28 0 53 -12t47 -23.5t41 -11.5q21 0 30.5 12.5t15.5 34.5h53q-5 -51 -29.5 -82.5t-70.5 -31.5q-26 0 -50.5 11.5t-47 23.5t-42.5 12q-21 0 -30 -12.5t-15 -35.5h-54zM558 270q0 -134 -69 -207t-186 -73
q-73 0 -129.5 33t-89 95.5t-32.5 151.5q0 134 68 206.5t186 72.5q74 0 130.5 -32.5t89 -94.5t32.5 -152zM161 270q0 -91 34.5 -142t109.5 -51t109.5 51t34.5 142q0 92 -35 141.5t-110 49.5t-109 -49.5t-34 -141.5z" />
    <glyph glyph-name="uni022E" unicode="&#x22e;" horiz-adv-x="785" 
d="M725 358q0 -111 -37 -193.5t-111 -128.5t-184 -46q-113 0 -187 46t-110 129t-36 194q0 110 36.5 192t110.5 128t187 46q110 0 183.5 -45.5t110.5 -128t37 -193.5zM174 358q0 -128 53 -202t166 -74q114 0 166 74t52 202t-51.5 201t-165.5 73t-167 -73t-53 -201zM394 919
q24 0 41.5 -14t17.5 -47q0 -32 -17.5 -46.5t-41.5 -14.5q-26 0 -43.5 14.5t-17.5 46.5q0 33 17.5 47t43.5 14z" />
    <glyph glyph-name="uni022F" unicode="&#x22f;" horiz-adv-x="609" 
d="M558 270q0 -134 -69 -207t-186 -73q-73 0 -129.5 33t-89 95.5t-32.5 151.5q0 134 68 206.5t186 72.5q74 0 130.5 -32.5t89 -94.5t32.5 -152zM161 270q0 -91 34.5 -142t109.5 -51t109.5 51t34.5 142q0 92 -35 141.5t-110 49.5t-109 -49.5t-34 -141.5zM306 744
q24 0 41.5 -14t17.5 -47q0 -32 -17.5 -46.5t-41.5 -14.5q-26 0 -43.5 14.5t-17.5 46.5q0 33 17.5 47t43.5 14z" />
    <glyph glyph-name="uni0230" unicode="&#x230;" horiz-adv-x="785" 
d="M546 1007v-78h-307v78h307zM394 883q22 0 38.5 -14t16.5 -44q0 -28 -16.5 -42.5t-38.5 -14.5q-24 0 -39.5 14.5t-15.5 42.5q0 30 15.5 44t39.5 14zM725 358q0 -111 -37 -193.5t-111 -128.5t-184 -46q-113 0 -187 46t-110 129t-36 194q0 110 36.5 192t110.5 128t187 46
q110 0 183.5 -45.5t110.5 -128t37 -193.5zM174 358q0 -128 53 -202t166 -74q114 0 166 74t52 202t-51.5 201t-165.5 73t-167 -73t-53 -201z" />
    <glyph glyph-name="uni0231" unicode="&#x231;" horiz-adv-x="609" 
d="M458 842v-77h-307v77h307zM304 719q23 0 39 -14t16 -44q0 -29 -16 -43t-39 -14t-39 14t-16 43q0 30 16 44t39 14zM558 270q0 -134 -69 -207t-186 -73q-73 0 -129.5 33t-89 95.5t-32.5 151.5q0 134 68 206.5t186 72.5q74 0 130.5 -32.5t89 -94.5t32.5 -152zM161 270
q0 -91 34.5 -142t109.5 -51t109.5 51t34.5 142q0 92 -35 141.5t-110 49.5t-109 -49.5t-34 -141.5z" />
    <glyph glyph-name="uni0232" unicode="&#x232;" horiz-adv-x="583" 
d="M292 380l175 334h116l-238 -437v-277h-107v273l-238 441h117zM445 861v-80h-307v80h307z" />
    <glyph glyph-name="uni0233" unicode="&#x233;" horiz-adv-x="527" 
d="M1 539h114l112 -306q13 -35 22.5 -67.5t14.5 -63.5h4q5 26 15.5 61t23.5 71l106 305h114l-231 -612q-29 -78 -77.5 -122.5t-126.5 -44.5q-25 0 -43 2.5t-31 5.5v84q10 -2 26 -4t33 -2q46 0 74 26.5t44 69.5l22 58zM417 686v-80h-307v80h307z" />
    <glyph glyph-name="uni0234" unicode="&#x234;" horiz-adv-x="397" 
d="M16 0q34 84 70 132q-2 16 -2.5 35.5t-0.5 41.5v551h106v-539q32 14 70 14q64 0 97.5 -32.5t33.5 -86.5q0 -55 -36 -90.5t-105 -35.5q-46 0 -78.5 15t-51.5 41q-9 -17 -17.5 -36.5t-17.5 -41.5zM252 64q26 0 39 14t13 35q0 24 -14.5 36t-39.5 12q-32 0 -61 -24
q2 -33 16.5 -53t46.5 -20z" />
    <glyph glyph-name="uni0235" unicode="&#x235;" horiz-adv-x="752" 
d="M372 0q34 84 71 132q-3 15 -3.5 32.5t-0.5 36.5v135q0 126 -108 126q-81 0 -111.5 -49t-30.5 -141v-272h-106v539h84l15 -72h6q25 42 70 62t96 20q92 0 141 -47t49 -151v-130q32 14 71 14q64 0 97 -34.5t33 -87.5q0 -57 -36 -90t-105 -33q-44 0 -77 14.5t-53 40.5
q-9 -16 -17 -35.5t-17 -41.5zM608 64q27 0 39 14t12 35q0 24 -14 36t-40 12q-31 0 -61 -24q2 -33 17 -53t47 -20z" />
    <glyph glyph-name="uni0236" unicode="&#x236;" horiz-adv-x="407" 
d="M26 0q33 84 70 132q-2 18 -2.5 38t-0.5 41v247h-75v48l79 40l37 114h65v-121h154v-81h-154v-237q32 14 70 14q64 0 97.5 -34.5t33.5 -87.5q0 -57 -36 -90t-105 -33q-45 0 -78 14.5t-53 40.5q-9 -16 -17.5 -35.5t-16.5 -41.5zM262 64q27 0 39.5 14t12.5 35q0 24 -14.5 36
t-39.5 12q-32 0 -61 -24q2 -33 16.5 -53t46.5 -20z" />
    <glyph glyph-name="uni0237" unicode="&#x237;" horiz-adv-x="272" 
d="M26 -240q-26 0 -47.5 3.5t-36.5 8.5v85q16 -5 32 -7.5t36 -2.5q31 0 52 17.5t21 66.5v608h106v-613q0 -75 -38.5 -120.5t-124.5 -45.5z" />
    <glyph glyph-name="uni0238" unicode="&#x238;" horiz-adv-x="969" 
d="M293 -10q-112 0 -176.5 69.5t-64.5 209.5q0 138 59.5 209t157.5 71q61 0 100 -23t62 -57h6q-1 16 -3.5 44t-2.5 62v185h106v-183q0 -33 -1.5 -62t-3.5 -47h5q23 34 62 57t101 23q97 0 157 -70t60 -209t-66 -209t-178 -70q-133 0 -190 115q-28 -58 -77.5 -86.5
t-112.5 -28.5zM297 77q67 0 101 50.5t34 144.5q0 95 -30.5 142.5t-110.5 47.5q-64 0 -97 -51.5t-33 -143.5q0 -93 33.5 -141.5t102.5 -48.5zM673 77q135 0 135 193q0 192 -133 192q-77 0 -107.5 -46.5t-30.5 -143.5q0 -98 33 -146.5t103 -48.5z" />
    <glyph glyph-name="uni0239" unicode="&#x239;" horiz-adv-x="969" 
d="M676 549q112 0 176.5 -69.5t64.5 -209.5q0 -138 -60 -209t-157 -71q-61 0 -100 23t-63 57h-6q2 -16 4 -44t2 -62v-204h-106v202q0 33 2 62t4 47h-6q-22 -34 -61 -57t-101 -23q-98 0 -157.5 70t-59.5 208q0 140 66 210t177 70q134 0 191 -115q28 58 77.5 86.5t112.5 28.5z
M296 462q-135 0 -135 -193q0 -192 132 -192q78 0 108 46.5t30 143.5q0 98 -33 146.5t-102 48.5zM672 462q-67 0 -101 -51t-34 -144q0 -95 30 -142.5t111 -47.5q64 0 97 51.5t33 143.5q0 93 -33.5 141.5t-102.5 48.5z" />
    <glyph glyph-name="uni023A" unicode="&#x23a;" horiz-adv-x="654" 
d="M540 0l-76 206h-144l-98 -281h-76l98 281h-56l-76 -206h-112l271 717h112l20 -53l33 96h76l-70 -201l211 -559h-113zM220 300h56l78 225q-7 22 -15.5 49.5t-12.5 44.5q-8 -31 -18 -66t-16 -52zM434 300l-41 116l-41 -116h82z" />
    <glyph glyph-name="uni023B" unicode="&#x23b;" horiz-adv-x="633" 
d="M562 760l-20 -57q32 -10 59 -23l-40 -90q-12 5 -24.5 10.5t-26.5 10.5l-180 -520q32 -8 69 -8q46 0 88.5 8.5t86.5 22.5v-93q-42 -16 -85.5 -23.5t-102.5 -7.5q-47 0 -88 9l-26 -74h-76l34 97q-86 40 -128 127t-42 208q0 108 39.5 191t115.5 129.5t186 46.5q36 0 71 -5
l14 41h76zM400 631q-107 0 -167 -73.5t-60 -201.5q0 -81 23 -141t69 -93l176 506q-21 3 -41 3z" />
    <glyph glyph-name="uni023C" unicode="&#x23c;" horiz-adv-x="490" 
d="M300 -10q-43 0 -79 9l-74 -207h-76l84 236q-48 31 -75.5 90t-27.5 148q0 100 33 162t91 91.5t132 29.5q17 0 33 -1l76 212h75l-80 -225q26 -8 46 -17l-32 -86q-11 4 -22.5 8t-22.5 7l-129 -360q23 -8 51 -8q45 0 79.5 10t63.5 26v-92q-29 -17 -63 -25t-83 -8zM161 267
q0 -86 32 -134l116 326h-2q-146 0 -146 -192z" />
    <glyph glyph-name="uni023D" unicode="&#x23d;" horiz-adv-x="536" 
d="M95 0v320h-81v87h81v307h108v-307h154v-87h-154v-227h305v-93h-413z" />
    <glyph glyph-name="uni023E" unicode="&#x23e;" horiz-adv-x="563" 
d="M335 0h-108v114l-91 -189h-73l164 340v356h-214v93h431l22 46h73l-22 -46h32v-93h-77l-137 -283v-338zM335 621v-132l64 132h-64z" />
    <glyph glyph-name="uni023F" unicode="&#x23f;" horiz-adv-x="484" 
d="M355 -240q-55 0 -90 17.5t-56.5 52t-36.5 86.5q-11 36 -28.5 57.5t-49.5 32.5q-14 3 -24 7.5t-20 10.5v92q35 -17 82.5 -30.5t92.5 -13.5q60 0 86.5 19t26.5 51q0 18 -10 32.5t-37.5 30t-80.5 35.5q-52 21 -87.5 41.5t-54.5 49t-19 73.5q0 70 56.5 107.5t149.5 37.5
q49 0 92.5 -10t84.5 -28l-35 -81q-35 15 -72 25.5t-75 10.5q-48 0 -73 -15t-25 -42q0 -19 12 -33t40.5 -28t78.5 -34q50 -19 85.5 -39t54 -49t18.5 -74q0 -76 -52.5 -117t-148.5 -44q9 -14 16 -30t13 -34q14 -44 38.5 -62t62.5 -18q17 0 36.5 3.5t32.5 8.5v-85
q-12 -6 -36 -10t-48 -4z" />
    <glyph glyph-name="uni0240" unicode="&#x240;" horiz-adv-x="475" 
d="M389 -240q-61 0 -99 18.5t-60.5 53.5t-36.5 84q-13 43 -37 63.5t-79 20.5h-42v67l278 390h-261v82h379v-75l-276 -386q58 -11 88.5 -48.5t46.5 -94.5q15 -48 41 -68t71 -20q19 0 35 2.5t31 7.5v-85q-14 -5 -34 -8.5t-45 -3.5z" />
    <glyph glyph-name="Glottalstopcased" unicode="&#x241;" horiz-adv-x="457" 
d="M200 724q105 0 165 -53.5t60 -142.5q0 -78 -46.5 -144.5t-147.5 -114.5v-269h-107v323q95 31 142 85t47 116q0 49 -30 79t-90 30q-38 0 -81 -14.5t-71 -34.5l-39 83q40 26 91 41.5t107 15.5z" />
    <glyph glyph-name="glottalstopcased" unicode="&#x242;" horiz-adv-x="452" 
d="M200 549q105 0 160.5 -53.5t55.5 -142.5q0 -73 -43 -140.5t-143 -115.5v-97h-106v148q95 31 139.5 84.5t44.5 116.5q0 54 -29.5 83.5t-86.5 29.5q-38 0 -77 -14.5t-67 -34.5l-39 78q40 26 87.5 42t103.5 16z" />
    <glyph glyph-name="uni0243" unicode="&#x243;" horiz-adv-x="656" 
d="M95 0v171h-81v83h81v460h209q136 0 206.5 -40t70.5 -138q0 -63 -33.5 -104.5t-95.5 -52.5v-5q42 -7 76.5 -26t54.5 -53.5t20 -90.5q0 -97 -68 -150.5t-184 -53.5h-256zM322 416q84 0 115.5 27t31.5 80t-38 76.5t-121 23.5h-107v-207h119zM334 90q86 0 120.5 34t34.5 90
q0 51 -35.5 82.5t-126.5 31.5h-124v-74h138v-83h-138v-81h131z" />
    <glyph glyph-name="uni0244" unicode="&#x244;" horiz-adv-x="738" 
d="M7 347v92h82v275h108v-275h345v275h107v-275h82v-92h-82v-95q0 -74 -31 -133.5t-93.5 -94t-158.5 -34.5q-136 0 -206.5 72.5t-70.5 191.5v93h-82zM197 259q0 -177 174 -177q90 0 130.5 48t40.5 130v87h-345v-88z" />
    <glyph glyph-name="uni0245" unicode="&#x245;" horiz-adv-x="627" 
d="M0 0l258 717h111l257 -717h-113l-165 501q-4 11 -11 33t-14 46t-11 39q-7 -31 -17 -66t-15 -52l-168 -501h-112z" />
    <glyph glyph-name="uni0246" unicode="&#x246;" horiz-adv-x="557" 
d="M497 0h-224l-19 -75h-74l19 75h-104v714h285l12 46h74l-12 -46h43v-92h-66l-52 -204h100v-91h-123l-60 -234h201v-93zM203 418h102l52 204h-154v-204zM203 93h19l60 234h-79v-234z" />
    <glyph glyph-name="uni0247" unicode="&#x247;" horiz-adv-x="572" 
d="M295 549q23 0 44 -3l74 214h76l-82 -236q56 -28 86 -84t30 -135v-58h-212l-55 -161q29 -10 65 -10q52 0 92.5 9.5t83.5 28.5v-88q-41 -18 -82 -27t-98 -9q-49 0 -90 12l-73 -210h-76l83 239q-51 33 -80 92t-29 142q0 91 30.5 154t85 96.5t127.5 33.5zM295 467
q-57 0 -91.5 -37t-40.5 -105h100l48 141q-7 1 -16 1zM417 325q0 36 -10 65t-30 48l-38 -113h78zM161 247q2 -73 34 -116l40 116h-74z" />
    <glyph glyph-name="uni0248" unicode="&#x248;" horiz-adv-x="290" 
d="M2 -196q-26 0 -45.5 3.5t-33.5 9.5v90q16 -4 34 -7t38 -3q25 0 47 10t35.5 36t13.5 73v292h-84v92h84v314h108v-314h84v-92h-84v-287q0 -113 -54.5 -165t-142.5 -52z" />
    <glyph glyph-name="uni0249" unicode="&#x249;" horiz-adv-x="272" 
d="M76 683q0 33 17.5 47t43.5 14q24 0 42 -14t18 -47q0 -32 -18 -46.5t-42 -14.5q-26 0 -43.5 14.5t-17.5 46.5zM26 -240q-26 0 -47.5 3.5t-36.5 8.5v85q16 -5 32 -7.5t36 -2.5q31 0 52 17.5t21 66.5v312h-76v78h76v218h106v-218h76v-78h-76v-317q0 -75 -38.5 -120.5
t-124.5 -45.5z" />
    <glyph glyph-name="uni024A" unicode="&#x24a;" horiz-adv-x="769" 
d="M354 724q72 0 127 -27t83 -70h4l15 87h91v-788q0 -42 15.5 -58.5t44.5 -16.5q14 0 26 3t22 7v-87q-11 -6 -27.5 -10t-37.5 -4q-71 0 -111 38.5t-40 124.5v82q0 23 1 43t2 42h-6q-28 -45 -81.5 -72.5t-131.5 -27.5q-90 0 -155 44.5t-100 127t-35 196.5q0 113 35 195.5
t101 126.5t158 44zM365 632q-90 0 -141 -72.5t-51 -203.5t51 -202.5t142 -71.5q78 0 121 27t61 76.5t18 116.5v118q0 64 -17.5 111.5t-61 74t-122.5 26.5z" />
    <glyph glyph-name="uni024B" unicode="&#x24b;" horiz-adv-x="620" 
d="M270 549q62 0 101 -24t63 -58h4l13 72h86v-608q0 -50 13 -67.5t38 -17.5q16 0 29 3.5t22 7.5v-81q-24 -16 -76 -16q-61 0 -96.5 38.5t-35.5 131.5v54q0 19 1.5 44t4.5 44h-6q-23 -35 -62.5 -58.5t-101.5 -23.5q-96 0 -155.5 70t-59.5 208q0 139 60.5 210t157.5 71z
M292 462q-66 0 -98.5 -52.5t-32.5 -143.5t32.5 -140.5t100.5 -49.5q76 0 108 43t33 130v18q0 96 -31 145.5t-112 49.5z" />
    <glyph glyph-name="uni024C" unicode="&#x24c;" horiz-adv-x="633" 
d="M295 714q137 0 202.5 -51t65.5 -155q0 -55 -20.5 -92.5t-52.5 -61t-67 -37.5l200 -317h-124l-172 289h-124v-289h-108v289h-85v90h85v335h200zM288 622h-85v-243h90q83 0 121 31.5t38 93.5q0 64 -40 91t-124 27z" />
    <glyph glyph-name="uni024D" unicode="&#x24d;" horiz-adv-x="425" 
d="M310 319v-79h-121v-240h-106v240h-76v79h76v220h84l14 -96h4q26 43 67 74.5t97 31.5q14 0 30.5 -1.5t28.5 -3.5l-11 -99q-26 7 -54 7q-53 0 -96.5 -34.5t-54.5 -98.5h118z" />
    <glyph glyph-name="uni024E" unicode="&#x24e;" horiz-adv-x="583" 
d="M576 596v-84h-103l-128 -235v-277h-107v273l-129 239h-102v84h57l-64 118h117l62 -118h226l62 118h116l-64 -118h57zM292 380l69 132h-138z" />
    <glyph glyph-name="uni024F" unicode="&#x24f;" horiz-adv-x="527" 
d="M1 539h114l63 -172h175l60 172h114l-65 -172h55v-79h-84l-137 -361q-29 -78 -77.5 -122.5t-126.5 -44.5q-25 0 -43 2.5t-31 5.5v84q10 -2 26 -4t33 -2q46 0 74 26.5t44 69.5l22 58l-116 288h-91v79h60zM264 102h4q5 26 15.5 61t23.5 71l18 54h-118l20 -55
q13 -35 22.5 -67.5t14.5 -63.5z" />
    <glyph glyph-name="uni0250" unicode="&#x250;" horiz-adv-x="574" 
d="M282 -10q-101 0 -152 44.5t-51 139.5v365h76l21 -75h4q35 44 73.5 64.5t106.5 20.5q73 0 121 -39.5t48 -123.5q0 -82 -62.5 -125t-190.5 -47l-92 -3v-30q0 -59 27 -83.5t76 -24.5q41 0 79 12t73 29l33 -77q-37 -20 -86.5 -33.5t-103.5 -13.5zM257 282q92 4 127.5 30.5
t35.5 74.5q0 42 -25.5 61t-65.5 19q-61 0 -103 -35t-42 -105v-47z" />
    <glyph glyph-name="uni0251" unicode="&#x251;" horiz-adv-x="620" 
d="M271 -10q-100 0 -159.5 70t-59.5 208q0 139 60 210t158 71q61 0 100 -23t63 -56h4l14 69h86v-405q0 -31 12 -43.5t29 -12.5q8 0 17 1.5t13 3.5v-80q-7 -4 -25 -8.5t-34 -4.5q-42 0 -68.5 18t-39.5 64h-5q-23 -34 -62.5 -58t-102.5 -24zM293 76q78 0 110 43.5t32 131.5v16
q0 94 -30.5 144.5t-112.5 50.5q-65 0 -98 -52t-33 -144t33 -141t99 -49z" />
    <glyph glyph-name="uni0252" unicode="&#x252;" horiz-adv-x="620" 
d="M349 549q100 0 159.5 -70t59.5 -209q0 -138 -60 -209t-157 -71q-62 0 -101 23t-63 56h-4l-14 -69h-86v405q0 31 -12 43.5t-29 12.5q-7 0 -16 -1.5t-14 -3.5v80q8 4 25.5 8.5t33.5 4.5q42 0 68.5 -18t39.5 -64h5q23 34 63 58t102 24zM327 463q-78 0 -110 -44t-32 -132v-16
q0 -93 30.5 -143.5t112.5 -50.5q65 0 98.5 52t33.5 143q0 93 -33.5 142t-99.5 49z" />
    <glyph glyph-name="uni0253" unicode="&#x253;" horiz-adv-x="620" 
d="M220 765q21 0 40 -4.5t29 -9.5v-85q-7 3 -21.5 6.5t-30.5 3.5q-23 0 -35.5 -13t-12.5 -44v-42q0 -31 -2 -60.5t-3 -48.5h5q22 34 61.5 57t101.5 23q97 0 156.5 -70t59.5 -208q0 -139 -60 -209.5t-157 -70.5q-63 0 -101.5 22.5t-60.5 53.5h-8l-20 -66h-78v616
q0 75 35.5 112t101.5 37zM327 462q-78 0 -108 -46t-30 -142q0 -97 29.5 -147t110.5 -50q64 0 97 50t33 144q0 191 -132 191z" />
    <glyph glyph-name="uni0254" unicode="&#x254;" horiz-adv-x="490" 
d="M194 549q73 0 128 -28.5t85.5 -88.5t30.5 -155q0 -98 -33 -161.5t-90.5 -94.5t-131.5 -31q-46 0 -80 8t-63 25v92q30 -16 64 -26t77 -10q73 0 110.5 50t37.5 145q0 186 -147 186q-28 0 -60 -7.5t-58 -20.5l-32 86q27 13 70 22t92 9z" />
    <glyph glyph-name="uni0255" unicode="&#x255;" horiz-adv-x="537" 
d="M317 549q45 0 84 -9.5t65 -21.5l-33 -86q-26 11 -57.5 19t-60.5 8q-149 0 -149 -192q0 -42 8 -75q35 33 78 52t90 19q73 0 114 -35t41 -92q0 -52 -26.5 -84t-69 -47t-87.5 -15q-100 0 -161 45q-9 -19 -18.5 -39.5t-17.5 -45.5l-69 31q10 32 23 59.5t28 52.5
q-42 68 -42 173q0 100 33.5 162.5t92 91.5t134.5 29zM335 186q-72 0 -127 -67q37 -45 109 -45q39 0 64.5 16.5t25.5 45.5q0 20 -16.5 35t-55.5 15z" />
    <glyph glyph-name="uni0256" unicode="&#x256;" horiz-adv-x="620" 
d="M569 -240q-63 0 -100.5 38.5t-37.5 131.5v55q0 19 2.5 44t3.5 41h-6q-23 -34 -62 -57t-100 -23q-98 0 -157.5 70t-59.5 208q0 139 60 210t158 71q61 0 100 -23t63 -56h6q-2 15 -5 42.5t-3 45.5v202h106v-829q0 -50 14.5 -67.5t41.5 -17.5q18 0 32.5 3.5t24.5 7.5v-81
q-26 -16 -81 -16zM293 77q78 0 110 43.5t32 130.5v16q0 94 -30.5 144.5t-112.5 50.5q-65 0 -98 -52.5t-33 -143.5t33 -140t99 -49z" />
    <glyph glyph-name="uni0257" unicode="&#x257;" horiz-adv-x="620" 
d="M268 -10q-97 0 -156.5 70t-59.5 208q0 139 60 210t158 71q61 0 100 -23t63 -56h6q-2 15 -5 42.5t-3 45.5v58q0 150 137 150q21 0 41 -4.5t30 -9.5v-85q-7 3 -21.5 6.5t-31.5 3.5q-22 0 -35.5 -14t-13.5 -45v-618h-83l-18 72h-5q-23 -35 -62 -58.5t-101 -23.5zM293 77
q78 0 110 43.5t32 130.5v16q0 94 -30.5 144.5t-112.5 50.5q-65 0 -98 -52.5t-33 -143.5t33 -140t99 -49z" />
    <glyph glyph-name="uni0258" unicode="&#x258;" horiz-adv-x="572" 
d="M277 549q72 0 127 -33.5t85.5 -96.5t30.5 -154q0 -90 -33.5 -151.5t-93 -92.5t-138.5 -31q-57 0 -98 9t-82 27v88q43 -19 83.5 -28.5t92.5 -9.5q75 0 116.5 44t43.5 127h-362v58q0 113 61 178.5t167 65.5zM277 467q-62 0 -91.5 -39.5t-30.5 -102.5h254q-6 68 -40.5 105
t-91.5 37z" />
    <glyph glyph-name="uni0259" unicode="&#x259;" horiz-adv-x="572" 
d="M255 549q79 0 138.5 -31t93 -92.5t33.5 -152.5q0 -90 -30.5 -153t-85.5 -96.5t-127 -33.5q-106 0 -167 65.5t-61 178.5v58h362q-2 83 -43.5 127t-116.5 44q-52 0 -92.5 -9.5t-83.5 -28.5v88q41 18 82 27t98 9zM155 214q1 -63 30.5 -102.5t91.5 -39.5q57 0 91.5 37
t40.5 105h-254z" />
    <glyph glyph-name="uni025A" unicode="&#x25a;" horiz-adv-x="800" 
d="M279 -10q-108 0 -169 66t-61 183l361 99q-27 125 -157 125q-52 0 -93 -9.5t-85 -28.5v88q42 18 83.5 27t98.5 9q96 0 163.5 -46.5t91.5 -136.5l109 30l16 -58q12 -45 26.5 -62.5t36.5 -17.5q20 0 40 7.5t37 19.5l23 -73q-24 -17 -54 -27.5t-62 -10.5q-43 0 -76 27.5
t-53 95.5l-32 -9q0 -90 -26 -157t-80 -104t-138 -37zM279 72q55 0 84.5 27t40.5 70t11 91l-258 -70q5 -50 33.5 -84t88.5 -34z" />
    <glyph glyph-name="uni025B" unicode="&#x25b;" horiz-adv-x="504" 
d="M371 321v-81h-75q-77 0 -113 -21.5t-36 -63.5t37.5 -61t101.5 -19q57 0 102.5 13t79.5 29v-90q-33 -16 -79.5 -26.5t-109.5 -10.5q-123 0 -180 44.5t-57 112.5q0 60 35.5 89.5t87.5 41.5v5q-48 14 -75 44.5t-27 79.5q0 47 28.5 78.5t77 47.5t110.5 16q57 0 103.5 -10.5
t86.5 -28.5l-36 -81q-34 15 -70 25.5t-84 10.5q-117 0 -117 -69q0 -40 39 -57.5t109 -17.5h61z" />
    <glyph glyph-name="uni025C" unicode="&#x25c;" horiz-adv-x="509" 
d="M241 549q91 0 149.5 -36.5t58.5 -105.5q0 -49 -28 -78t-75 -42v-4q33 -9 60 -24t43.5 -41t16.5 -67q0 -44 -25.5 -81t-79 -58.5t-136.5 -21.5q-123 0 -191 35v92q34 -16 81.5 -29t103.5 -13q60 0 101.5 18.5t41.5 63.5q0 83 -153 83h-68v81h57q70 0 111.5 16.5t41.5 58.5
q0 69 -119 69q-43 0 -80 -9t-77 -25l-35 80q44 18 93.5 28t107.5 10z" />
    <glyph glyph-name="uni025D" unicode="&#x25d;" horiz-adv-x="729" 
d="M241 549q74 0 128 -24.5t72 -71.5l109 29l16 -57q12 -45 26.5 -62.5t36.5 -17.5q20 0 40 7.5t37 19.5l23 -73q-24 -16 -54 -27t-62 -11q-43 0 -76 27.5t-53 95.5l-39 -11q-9 -33 -35 -54t-64 -32v-4q33 -9 60 -24t43.5 -41t16.5 -67q0 -44 -25.5 -81t-79 -58.5
t-136.5 -21.5q-123 0 -191 35v92q34 -16 81.5 -29t103.5 -13q60 0 101.5 18.5t41.5 63.5q0 83 -153 83h-68v81h57q70 0 111.5 16.5t41.5 58.5q0 69 -119 69q-43 0 -80 -9t-77 -25l-35 80q44 18 93.5 28t107.5 10z" />
    <glyph glyph-name="uni025E" unicode="&#x25e;" horiz-adv-x="609" 
d="M335 549q103 0 158.5 -39.5t55.5 -108.5q0 -51 -28 -78t-76 -40v-4q31 -5 58.5 -18.5t45 -39t17.5 -64.5q0 -72 -61.5 -119.5t-180.5 -47.5q-130 0 -201 73t-71 206q0 132 75 206t208 74zM333 464q-172 0 -172 -195q0 -103 44.5 -148.5t126.5 -45.5q57 0 93.5 21.5
t36.5 65.5q0 40 -36 57t-111 17h-36v81h25q69 0 107.5 15.5t38.5 59.5q0 31 -28.5 51.5t-88.5 20.5z" />
    <glyph glyph-name="uni025F" unicode="&#x25f;" horiz-adv-x="272" 
d="M26 -240q-26 0 -47.5 3.5t-36.5 8.5v85q16 -5 32 -7.5t36 -2.5q31 0 52 17.5t21 66.5v312h-76v78h76v218h106v-218h76v-78h-76v-317q0 -75 -38.5 -120.5t-124.5 -45.5z" />
    <glyph glyph-name="uni0260" unicode="&#x260;" horiz-adv-x="620" 
d="M568 766q22 0 41.5 -4.5t29.5 -9.5v-85q-7 3 -21.5 6.5t-31.5 3.5q-22 0 -35.5 -14t-13.5 -45v-625q0 -115 -62 -174t-188 -59q-58 0 -106.5 8t-89.5 25v93q85 -42 202 -42q66 0 102 37.5t36 105.5v18q0 13 1.5 36.5t1.5 29.5h-3q-28 -42 -69 -61.5t-94 -19.5
q-102 0 -159.5 73.5t-57.5 204.5q0 130 57.5 205.5t159.5 75.5q107 0 165 -81h6q-2 19 -5 46t-3 48v54q0 150 137 150zM291 461q-63 0 -97 -50t-34 -144t33.5 -143t99.5 -49q74 0 108 40.5t34 132.5v20q0 103 -34.5 148t-109.5 45z" />
    <glyph glyph-name="uni0261" unicode="&#x261;" horiz-adv-x="620" 
d="M269 549q107 0 165 -81h5l12 71h86v-546q0 -115 -61.5 -174t-187.5 -59q-59 0 -107.5 8t-89.5 25v93q86 -42 203 -42q66 0 102 37.5t36 105.5v18q0 13 1 34t2 32h-4q-27 -42 -68 -61.5t-94 -19.5q-102 0 -159.5 73.5t-57.5 204.5q0 130 57.5 205.5t159.5 75.5zM291 461
q-63 0 -96.5 -50t-33.5 -144t33.5 -143t98.5 -49q74 0 108.5 40.5t34.5 132.5v20q0 103 -35 148t-110 45z" />
    <glyph glyph-name="uni0262" unicode="&#x262;" horiz-adv-x="586" 
d="M332 549q105 0 171 -35l-35 -85q-30 15 -65 24.5t-68 9.5q-88 0 -131.5 -51t-43.5 -144q0 -92 37.5 -142t111.5 -50q32 0 55 3t47 9v134h-112v81h212v-276q-47 -17 -96 -26.5t-108 -9.5q-75 0 -131.5 29.5t-88 91t-31.5 156.5t35 157.5t97.5 93t143.5 30.5z" />
    <glyph glyph-name="uni0263" unicode="&#x263;" horiz-adv-x="526" 
d="M261 -239q-57 0 -90 37t-33 93q0 50 18.5 97t45.5 100l-202 451h112l101 -238q12 -29 26.5 -68.5t20.5 -69.5h4q7 28 22 68t27 70l101 238h112l-206 -454q30 -58 47 -105t17 -89q0 -55 -33 -92.5t-90 -37.5zM261 -161q15 0 25.5 12.5t10.5 40.5q0 21 -9 53.5t-27 64.5
q-19 -32 -27.5 -64t-8.5 -52q0 -29 10.5 -42t25.5 -13z" />
    <glyph glyph-name="uni0264" unicode="&#x264;" horiz-adv-x="526" 
d="M476 549q29 0 51 -10v-81q-6 2 -14 3.5t-16 1.5q-17 0 -31 -10t-36 -41l-109 -147q33 -45 49 -79t16 -77q0 -52 -33.5 -85.5t-90.5 -33.5q-56 0 -89 33t-33 87q0 44 16 78t46 76l-111 151q-19 25 -33.5 36t-30.5 12q-9 1 -16 -1t-13 -4v80q10 4 23.5 7.5t28.5 3.5
q34 0 58 -16.5t51 -53.5l54 -74q13 -18 26 -37.5t22 -37.5h4q21 36 49 75l54 75q23 33 47 51t61 18zM263 201q-17 -23 -26.5 -44t-9.5 -43q0 -23 10 -34.5t26 -11.5q15 0 25.5 12t10.5 34q0 24 -11 46t-25 41z" />
    <glyph glyph-name="uni0265" unicode="&#x265;" horiz-adv-x="630" 
d="M441 -18q0 26 1.5 50.5t3.5 40.5h-6q-26 -42 -69.5 -62t-95.5 -20q-95 0 -145.5 46.5t-50.5 150.5v351h106v-336q0 -126 110 -126q83 0 114.5 49.5t31.5 141.5v271h106v-760h-106v203z" />
    <glyph glyph-name="uni0266" unicode="&#x266;" horiz-adv-x="630" 
d="M83 616q0 75 35.5 112t102.5 37q20 0 39 -4.5t29 -9.5v-85q-7 3 -21.5 6.5t-30.5 3.5q-23 0 -35.5 -13t-12.5 -44v-72q0 -24 -2 -47.5t-4 -36.5h7q26 42 69.5 62t94.5 20q95 0 145.5 -46.5t50.5 -150.5v-348h-105v333q0 126 -111 126q-83 0 -114 -49.5t-31 -141.5v-268
h-106v616z" />
    <glyph glyph-name="uni0267" unicode="&#x267;" horiz-adv-x="630" 
d="M221 765q20 0 39 -4.5t29 -9.5v-85q-7 3 -21.5 6.5t-30.5 3.5q-23 0 -35.5 -13t-12.5 -44v-69q0 -24 -2 -47.5t-4 -36.5h7q25 41 68.5 61.5t96.5 20.5q94 0 144.5 -47t50.5 -150v-439q0 -71 -33 -111.5t-104 -40.5q-20 0 -40 4t-33 9v86q10 -4 24 -7t30 -3q23 0 37 14.5
t14 50.5v425q0 123 -111 123q-83 0 -114 -49.5t-31 -141.5v-271h-106v616q0 75 35.5 112t102.5 37z" />
    <glyph glyph-name="uni0268" unicode="&#x268;" horiz-adv-x="272" 
d="M137 744q24 0 42 -14t18 -47q0 -32 -18 -46.5t-42 -14.5q-26 0 -43.5 14.5t-17.5 46.5q0 33 17.5 47t43.5 14zM265 321v-78h-76v-243h-106v243h-76v78h76v218h106v-218h76z" />
    <glyph glyph-name="uni0269" unicode="&#x269;" horiz-adv-x="352" 
d="M244 -10q-86 0 -124.5 45.5t-38.5 120.5v383h106v-378q0 -49 21 -66.5t52 -17.5q20 0 36 2.5t31 7.5v-85q-14 -5 -35.5 -8.5t-47.5 -3.5z" />
    <glyph glyph-name="iotaserifed" unicode="&#x26a;" horiz-adv-x="328" 
d="M291 539v-58l-76 -21v-381l76 -20v-59h-255v59l77 20v381l-77 21v58h255z" />
    <glyph glyph-name="uni026B" unicode="&#x26b;" horiz-adv-x="395" 
d="M144 363q-8 3 -15.5 5t-15.5 2q-22 0 -34 -13.5t-18 -42.5h-57q4 64 35 99.5t79 35.5q13 0 26 -4v315h106v-359q8 -3 16.5 -5.5t15.5 -2.5q22 0 33.5 14t19.5 43h56q-5 -63 -34.5 -99t-78.5 -36q-13 0 -28 4v-319h-106v363z" />
    <glyph glyph-name="uni026C" unicode="&#x26c;" horiz-adv-x="366" 
d="M151 0v296h-40q-64 0 -92.5 29.5t-28.5 75.5q0 43 25.5 74.5t83.5 31.5q31 0 52 -18v271h106v-391h102v-73h-102v-296h-106zM117 369h34v12q0 24 -10 38.5t-33 14.5q-19 0 -27 -9.5t-8 -22.5q0 -18 12.5 -25.5t31.5 -7.5z" />
    <glyph glyph-name="uni026D" unicode="&#x26d;" horiz-adv-x="271" 
d="M239 -240q-74 0 -115 38.5t-41 131.5v830h105v-829q0 -85 70 -85q17 0 34 3t30 8v-81q-15 -7 -36 -11.5t-47 -4.5z" />
    <glyph glyph-name="uni026E" unicode="&#x26e;" horiz-adv-x="687" 
d="M377 -240q-60 0 -109 9.5t-85 26.5v94q37 -18 88 -30.5t106 -12.5q81 0 124.5 42.5t43.5 112.5q0 75 -51 112.5t-149 37.5h-58v75l212 226h-310v-453h-106v760h106v-221h437v-74l-218 -231q119 -10 181.5 -69.5t62.5 -163.5q0 -70 -32.5 -124.5t-94 -85.5t-148.5 -31z
" />
    <glyph glyph-name="uni026F" unicode="&#x26f;" horiz-adv-x="949" 
d="M262 -10q-91 0 -137 47t-46 151v351h106v-337q0 -125 101 -125q72 0 103 44.5t31 127.5v290h105v-337q0 -125 102 -125q75 0 104 49t29 141v272h106v-539h-84l-15 72h-6q-24 -42 -67 -62t-91 -20q-125 0 -165 87h-7q-26 -45 -72 -66t-97 -21z" />
    <glyph glyph-name="uni0270" unicode="&#x270;" horiz-adv-x="949" 
d="M760 -7q0 15 2 40t4 39h-7q-25 -42 -66.5 -62t-89.5 -20q-125 0 -165 87h-7q-26 -45 -72 -66t-97 -21q-91 0 -137 47t-46 151v351h106v-337q0 -125 101 -125q72 0 103 44.5t31 127.5v290h105v-337q0 -125 102 -125q75 0 104 49t29 141v272h106v-779h-106v233z" />
    <glyph glyph-name="uni0271" unicode="&#x271;" horiz-adv-x="949" 
d="M687 549q91 0 137 -47t46 -151v-439q0 -71 -33 -111.5t-105 -40.5q-20 0 -40 4t-32 9v86q9 -4 23 -7t31 -3q23 0 36.5 14.5t13.5 50.5v423q0 125 -101 125q-72 0 -103 -44.5t-31 -127.5v-290h-105v337q0 125 -102 125q-76 0 -104.5 -49t-28.5 -141v-272h-106v539h84
l15 -72h6q24 42 67 62t91 20q125 0 164 -87h8q26 45 72 66t97 21z" />
    <glyph glyph-name="uni0272" unicode="&#x272;" horiz-adv-x="630" 
d="M356 549q94 0 144 -47t50 -151v-351h-105v336q0 126 -111 126q-83 0 -114 -49t-31 -141v-341q0 -91 -39 -131t-105 -40q-48 0 -74 16v81q10 -4 24 -7.5t29 -3.5q29 0 44 17.5t15 67.5v608h84l15 -72h6q26 42 71.5 62t96.5 20z" />
    <glyph glyph-name="uni0273" unicode="&#x273;" horiz-adv-x="630" 
d="M550 -69q0 -50 15 -67.5t44 -17.5q14 0 28.5 3.5t25.5 7.5v-81q-13 -7 -33.5 -11.5t-43.5 -4.5q-64 0 -102.5 38.5t-38.5 131.5v406q0 126 -111 126q-83 0 -114 -49t-31 -141v-272h-106v539h84l15 -72h6q26 42 71.5 62t96.5 20q94 0 144 -47t50 -151v-420z" />
    <glyph glyph-name="uni0274" unicode="&#x274;" horiz-adv-x="650" 
d="M86 0v539h127l263 -421q-1 13 -2.5 37t-2.5 49t-1 42v293h94v-539h-128l-260 422q1 -13 1.5 -38.5t1 -52.5t1.5 -46v-285h-94z" />
    <glyph glyph-name="uni0275" unicode="&#x275;" horiz-adv-x="609" 
d="M558 270q0 -134 -69 -207t-186 -73q-73 0 -129.5 33t-89 95.5t-32.5 151.5q0 134 68 206.5t186 72.5q74 0 130.5 -32.5t89 -94.5t32.5 -152zM304 461q-67 0 -101 -36.5t-41 -108.5h285q-7 72 -42 108.5t-101 36.5zM305 77q68 0 102.5 40t39.5 117h-285q5 -77 40 -117
t103 -40z" />
    <glyph glyph-name="uni0276" unicode="&#x276;" horiz-adv-x="866" 
d="M305 549q86 0 144 -54v44h363v-85h-261v-132h245v-84h-245v-153h261v-85h-363v44q-58 -54 -147 -54q-72 0 -128.5 33t-89 95.5t-32.5 151.5q0 134 67.5 206.5t185.5 72.5zM304 461q-66 0 -104.5 -49.5t-38.5 -141.5q0 -91 34.5 -142t109.5 -51t109.5 51t34.5 142
q0 92 -35 141.5t-110 49.5z" />
    <glyph glyph-name="uni0277" unicode="&#x277;" horiz-adv-x="796" 
d="M400 549q111 0 187.5 -39.5t116 -111t39.5 -169.5q0 -108 -50.5 -173.5t-146.5 -65.5q-58 0 -93.5 24.5t-52.5 69.5h-5q-17 -45 -52 -69.5t-93 -24.5q-96 0 -146.5 65.5t-50.5 173.5q0 97 39.5 168.5t116.5 111.5t191 40zM399 462q-122 0 -182.5 -63t-60.5 -168
q0 -76 27 -115.5t74 -39.5q49 0 70 35t21 92v121h100v-121q0 -61 22.5 -94t67.5 -33q48 0 75 39.5t27 114.5q0 105 -59.5 168.5t-181.5 63.5z" />
    <glyph glyph-name="uni0278" unicode="&#x278;" horiz-adv-x="751" 
d="M426 545q126 -11 199.5 -83.5t73.5 -192.5q0 -119 -71 -192t-202 -84v-233h-101v233q-84 7 -145.5 42.5t-95 95t-33.5 138.5q0 121 71 194t205 82v215h99v-215zM327 461q-84 -9 -125 -58.5t-41 -133.5q0 -83 41 -133t125 -59v384zM426 77q83 10 123.5 59.5t40.5 132.5
t-41 132t-123 59v-383z" />
    <glyph glyph-name="uni0279" unicode="&#x279;" horiz-adv-x="425" 
d="M76 -10q-14 0 -30.5 1.5t-28.5 3.5l11 99q26 -7 54 -7q40 0 75.5 20t57 57.5t21.5 90.5v284h106v-539h-84l-13 96h-5q-25 -43 -66.5 -74.5t-97.5 -31.5z" />
    <glyph glyph-name="uni027A" unicode="&#x27a;" horiz-adv-x="425" 
d="M76 -10q-14 0 -30.5 1.5t-28.5 3.5l11 99q26 -7 54 -7q40 0 75.5 20t57 57.5t21.5 90.5v505h106v-760h-84l-13 96h-5q-25 -43 -66.5 -74.5t-97.5 -31.5z" />
    <glyph glyph-name="uni027B" unicode="&#x27b;" horiz-adv-x="425" 
d="M372 -240q-62 0 -99 38.5t-37 131.5v73q0 23 2 48.5t4 42.5h-4q-25 -43 -65.5 -73.5t-96.5 -30.5q-14 0 -30.5 1.5t-28.5 3.5l11 99q26 -7 54 -7q40 0 75.5 20t57 57.5t21.5 90.5v284h106v-608q0 -50 14 -67.5t41 -17.5q18 0 32.5 3.5t23.5 7.5v-81q-25 -16 -81 -16z" />
    <glyph glyph-name="uni027C" unicode="&#x27c;" horiz-adv-x="425" 
d="M349 549q14 0 30.5 -1.5t28.5 -3.5l-11 -99q-26 7 -54 7q-40 0 -75.5 -20t-57 -57.5t-21.5 -90.5v-524h-106v779h84l14 -96h4q26 43 67 74.5t97 31.5z" />
    <glyph glyph-name="uni027D" unicode="&#x27d;" horiz-adv-x="425" 
d="M349 549q14 0 30.5 -1.5t28.5 -3.5l-11 -99q-26 7 -54 7q-40 0 -75.5 -20t-57 -57.5t-21.5 -90.5v-353q0 -85 69 -85q17 0 31.5 3t27.5 8v-81q-15 -7 -33.5 -11.5t-44.5 -4.5q-74 0 -115 38.5t-41 131.5v609h84l14 -96h4q26 43 67 74.5t97 31.5z" />
    <glyph glyph-name="uni027E" unicode="&#x27e;" horiz-adv-x="361" 
d="M248 550q25 0 49.5 -5t44.5 -11l-12 -89q-14 4 -31.5 8.5t-42.5 4.5q-71 0 -71 -88v-370h-105v373q0 99 45 138t123 39z" />
    <glyph glyph-name="uni027F" unicode="&#x27f;" horiz-adv-x="361" 
d="M114 550q77 0 122 -39t45 -138v-613h-105v610q0 88 -71 88q-25 0 -42.5 -4.5t-30.5 -8.5l-13 89q20 6 45 11t50 5z" />
    <glyph glyph-name="uni0280" unicode="&#x280;" horiz-adv-x="560" 
d="M84 0v539h220q94 0 147.5 -40.5t53.5 -118.5q0 -44 -16.5 -74.5t-43.5 -49t-58 -27.5l157 -229h-116l-136 211h-106v-211h-102zM284 292q58 0 89.5 21t31.5 65q0 36 -25.5 57.5t-83.5 21.5h-110v-165h98z" />
    <glyph glyph-name="uni0281" unicode="&#x281;" horiz-adv-x="573" 
d="M84 539h102v-211h106l136 211h116l-157 -229q31 -9 58 -27.5t43.5 -49t16.5 -74.5q0 -78 -53.5 -118.5t-147.5 -40.5h-220v539zM284 247h-98v-165h110q58 0 83.5 21.5t25.5 57.5q0 44 -31.5 65t-89.5 21z" />
    <glyph glyph-name="uni0282" unicode="&#x282;" horiz-adv-x="484" 
d="M441 152q0 -79 -58 -120.5t-160 -41.5q-41 0 -74 6v-37q0 -45 17 -65t51 -20q16 0 30.5 3t26.5 8v-78q-14 -7 -32 -11t-43 -4q-69 0 -109 37t-40 129v158q35 -17 82.5 -30.5t92.5 -13.5q60 0 86.5 19t26.5 51q0 18 -10 32.5t-37.5 30t-80.5 35.5q-52 21 -87.5 41.5
t-54.5 49t-19 73.5q0 70 56.5 107.5t149.5 37.5q49 0 92.5 -10t84.5 -28l-35 -81q-35 15 -72 25.5t-75 10.5q-48 0 -73 -15t-25 -42q0 -19 12 -33t40.5 -28t78.5 -34q50 -19 85.5 -39t54 -49t18.5 -74z" />
    <glyph glyph-name="uni0283" unicode="&#x283;" horiz-adv-x="272" 
d="M227 766q24 0 44 -5t30 -11v-81q-8 4 -23 7.5t-29 3.5q-29 0 -44.5 -17.5t-15.5 -68.5v-663q0 -91 -39 -131t-105 -40q-48 0 -74 16v81q10 -4 24 -7.5t29 -3.5q29 0 44 17.5t15 67.5v666q0 64 18.5 101t51 52.5t74.5 15.5z" />
    <glyph glyph-name="uni0284" unicode="&#x284;" horiz-adv-x="272" 
d="M45 -240q-48 0 -74 16v81q10 -4 24 -7.5t29 -3.5q29 0 44 17.5t15 67.5v317h-76v83h76v266q0 64 18.5 101t51 52.5t74.5 15.5q24 0 44 -5t30 -11v-81q-8 4 -23 7.5t-29 3.5q-29 0 -44.5 -17.5t-15.5 -68.5v-263h76v-83h-76v-317q0 -91 -39 -131t-105 -40z" />
    <glyph glyph-name="uni0285" unicode="&#x285;" horiz-adv-x="272" 
d="M226 -240q-65 0 -104 39t-39 131v453q0 43 -14 61.5t-40 18.5q-13 0 -26.5 -3.5t-21.5 -7.5v81q10 6 29 11t42 5q60 0 98.5 -35.5t38.5 -126.5v-456q0 -50 15 -67.5t44 -17.5q15 0 29 3.5t24 7.5v-81q-27 -16 -75 -16z" />
    <glyph glyph-name="uni0286" unicode="&#x286;" horiz-adv-x="272" 
d="M39 -240q-67 0 -105 33.5t-38 84.5q0 54 34 88t110 34h43v597q0 64 18.5 101t51 52.5t74.5 15.5q24 0 44 -5t30 -11v-81q-8 4 -23 7.5t-29 3.5q-29 0 -44.5 -17.5t-15.5 -68.5v-594h73v-73h-73q-4 -92 -44.5 -129.5t-105.5 -37.5zM29 -165q24 0 39 16.5t15 55.5v20h-38
q-28 0 -46 -11t-18 -37q0 -18 10.5 -31t37.5 -13z" />
    <glyph glyph-name="uni0287" unicode="&#x287;" horiz-adv-x="383" 
d="M106 463q-21 0 -43 -3.5t-38 -9.5v80q17 8 46 13.5t58 5.5q44 0 80.5 -15t58.5 -52t22 -103v-298h74v-48l-78 -40l-37 -114h-65v121h-154v81h154v296q0 44 -22 65t-56 21z" />
    <glyph glyph-name="uni0288" unicode="&#x288;" horiz-adv-x="383" 
d="M277 -154q21 0 43 3.5t38 9.5v-80q-18 -8 -46.5 -13.5t-57.5 -5.5q-44 0 -81 15t-58.5 52t-21.5 103v528h-75v48l79 40l37 114h65v-121h154v-81h-154v-526q0 -44 21.5 -65t56.5 -21z" />
    <glyph glyph-name="uni0289" unicode="&#x289;" horiz-adv-x="630" 
d="M7 249v79h71v211h107v-211h256v211h106v-211h75v-79h-75v-249h-85l-15 71h-5q-26 -42 -72 -61.5t-97 -19.5q-95 0 -145 47t-50 149v63h-71zM185 202q0 -125 109 -125q79 0 111.5 44t34.5 128h-255v-47z" />
    <glyph glyph-name="uni028A" unicode="&#x28a;" horiz-adv-x="618" 
d="M308 -10q-76 0 -133.5 30t-90 86t-32.5 132t28 128.5t76 87.5h-127v85h243v-81q-49 -25 -82 -79.5t-33 -133.5q0 -78 38 -123.5t114 -45.5t114.5 45.5t38.5 124.5q0 72 -33.5 130t-83.5 82v81h244v-85h-126q49 -37 76 -90.5t27 -123.5q0 -116 -69.5 -183t-188.5 -67z" />
    <glyph glyph-name="uni028B" unicode="&#x28b;" horiz-adv-x="630" 
d="M399 549q76 0 115 -38.5t39 -129.5v-144q0 -117 -56 -182t-181 -65q-128 0 -182.5 63.5t-54.5 183.5v302h106v-301q0 -90 32 -125.5t101 -35.5q66 0 97.5 36t31.5 125v139q0 47 -15 65t-49 18q-28 0 -56 -9v86q15 6 36 9t36 3z" />
    <glyph glyph-name="uni028C" unicode="&#x28c;" horiz-adv-x="526" 
d="M322 539l204 -539h-112l-112 315q-11 31 -22 69.5t-14 63.5h-4q-4 -25 -16 -64t-22 -69l-112 -315h-112l205 539h117z" />
    <glyph glyph-name="uni028D" unicode="&#x28d;" horiz-adv-x="807" 
d="M360 269q7 -26 15.5 -60t16 -64.5t10.5 -46.5h4q3 16 10 47t15.5 65t16.5 60l81 268h118l149 -539h-108l-71 273q-10 42 -19.5 89.5t-13.5 76.5h-4q-3 -17 -8.5 -45t-12 -56.5t-12.5 -47.5l-87 -290h-116l-83 290q-6 21 -13 48.5t-12.5 54t-7.5 45.5h-4q-2 -16 -7.5 -44
t-12.5 -60t-15 -61l-72 -273h-106l151 539h120z" />
    <glyph glyph-name="uni028E" unicode="&#x28e;" horiz-adv-x="527" 
d="M527 0h-115l-112 306q-13 35 -22.5 67.5t-14.5 63.5h-4q-5 -26 -15.5 -61t-22.5 -71l-107 -305h-114l231 612q29 78 78 122.5t127 44.5q24 0 42.5 -2.5t31.5 -5.5v-84q-11 2 -26.5 4t-32.5 2q-46 0 -74.5 -26.5t-43.5 -69.5l-23 -58z" />
    <glyph glyph-name="uni028F" unicode="&#x28f;" horiz-adv-x="494" 
d="M489 539l-191 -321v-218h-101v217l-192 322h113l129 -234l129 234h113z" />
    </font>
</defs>
</svg>
