<?xml version="1.0" standalone="no"?>
<!DOCTYPE svg PUBLIC "-//W3C//DTD SVG 1.1//EN" "http://www.w3.org/Graphics/SVG/1.1/DTD/svg11.dtd" >
<svg xmlns="http://www.w3.org/2000/svg" xmlns:xlink="http://www.w3.org/1999/xlink" version="1.1">
<metadata>
Created by FontForge 20170731 at Mon Feb  7 20:28:36 2022
 By Aleksey,,,
Copyright 2015-2021 Google LLC. All Rights Reserved.
</metadata>
<defs>
<font id="NotoSans-SemiBold" horiz-adv-x="0" >
  <font-face 
    font-family="Noto Sans SemiBold"
    font-weight="600"
    font-stretch="normal"
    units-per-em="1000"
    panose-1="2 11 7 2 4 5 4 2 2 4"
    ascent="800"
    descent="-200"
    bbox="-623 -382 1463 1055"
    underline-thickness="50"
    underline-position="-175"
    unicode-range="U+000D-FE2F"
  />
<missing-glyph horiz-adv-x="600" 
d="M94 0v714h411v-714h-411zM145 51h309v612h-309v-612z" />
    <glyph glyph-name=".notdef" horiz-adv-x="600" 
d="M94 0v714h411v-714h-411zM145 51h309v612h-309v-612z" />
    <glyph glyph-name=".null" 
 />
    <glyph glyph-name="nonmarkingreturn" horiz-adv-x="333" 
 />
    <glyph glyph-name="NULL" 
 />
    <glyph glyph-name="NULL" 
 />
    <glyph glyph-name="CR" unicode="&#xd;" horiz-adv-x="260" 
 />
    <glyph glyph-name="space" unicode=" " horiz-adv-x="260" 
 />
    <glyph glyph-name="uni0460" unicode="&#x460;" horiz-adv-x="940" 
d="M236 -2q-43 68 -81 152.5t-67 178.5t-46.5 191.5t-18.5 192.5h133q6 -118 27.5 -226.5t50.5 -199.5t58 -155h5q6 35 18 77.5t25 82.5l74 213q-9 53 -15 103.5t-8 105.5h134q4 -105 24.5 -212t52 -204.5t66.5 -172.5h6q52 113 81 257t29 331h134q-2 -209 -48.5 -387.5
t-141.5 -327.5h-121q-29 47 -56 102.5t-50 113t-39 107.5l-103 -323h-123z" />
    <glyph glyph-name="uni0461" unicode="&#x461;" horiz-adv-x="849" 
d="M815 543q-4 -97 -24 -185.5t-58 -176t-97 -181.5h-114q-28 49 -57 106.5t-47 110.5l-109 -217h-112q-44 68 -84 156.5t-66.5 188t-27.5 198.5h126q4 -92 22 -173.5t41.5 -149t46.5 -115.5h4q7 25 23 53.5t30 56.5l64 127q-13 45 -19.5 98t-7.5 103h127
q5 -123 33.5 -230.5t65.5 -208.5h4q46 85 74 194t36 245h126z" />
    <glyph glyph-name="uni0462" unicode="&#x462;" horiz-adv-x="674" 
d="M139 0v519h-136v98h136v97h128v-97h191v-98h-191v-90h73q103 0 165.5 -27.5t91.5 -75.5t29 -108q0 -102 -67 -160t-215 -58h-205zM336 106q79 0 119.5 26t40.5 86q0 61 -44.5 82.5t-128.5 21.5h-56v-216h69z" />
    <glyph glyph-name="uni0463" unicode="&#x463;" horiz-adv-x="651" 
d="M252 644v-102h172v-97h-172v-118h122q120 0 178 -39t58 -118q0 -78 -54.5 -124t-178.5 -46h-251v445h-123v97h123v102h126zM369 236h-117v-145h119q50 0 81.5 17.5t31.5 58.5q0 38 -29 53.5t-86 15.5z" />
    <glyph glyph-name="uni0464" unicode="&#x464;" horiz-adv-x="939" 
d="M681 -10q-109 0 -181.5 40.5t-110.5 114t-44 172.5h-124v-317h-128v714h128v-288h128q12 89 56 156t117 104.5t175 37.5q56 0 110 -13t100 -35l-44 -106q-40 18 -82.5 32t-87.5 14q-90 0 -145.5 -49.5t-66.5 -140.5h314v-108h-315q5 -99 58.5 -159.5t153.5 -60.5
q47 0 92.5 9.5t95.5 25.5v-109q-47 -18 -93 -26t-106 -8z" />
    <glyph glyph-name="uni0465" unicode="&#x465;" horiz-adv-x="778" 
d="M583 -10q-110 0 -178.5 58.5t-78.5 181.5h-119v-230h-126v542h126v-215h119q9 83 43.5 132.5t88 71t119.5 21.5q48 0 91 -11t73 -24l-36 -91q-27 12 -59 20.5t-65 8.5q-116 0 -126 -128h224v-97h-225q5 -75 39 -109t95 -34q44 0 81 10.5t71 25.5v-101q-33 -16 -70 -24
t-87 -8z" />
    <glyph glyph-name="uni0466" unicode="&#x466;" horiz-adv-x="712" 
d="M430 716l282 -716h-127l-115 316h-57v-316h-114v316h-57l-115 -316h-127l282 716h148zM356 626q-3 -14 -13.5 -42.5t-22 -58t-18.5 -47.5l-25 -60h156l-25 64q-7 18 -17.5 45.5t-20 54t-14.5 44.5z" />
    <glyph glyph-name="uni0467" unicode="&#x467;" horiz-adv-x="614" 
d="M383 542l229 -542h-123l-83 217h-44v-217h-110v217h-45l-82 -217h-123l228 542h153zM304 466q-5 -16 -13 -36.5t-15.5 -39.5t-11.5 -30l-23 -53h132l-22 52q-5 11 -13.5 31.5l-17 41t-12.5 34.5h-4z" />
    <glyph glyph-name="uni0468" unicode="&#x468;" horiz-adv-x="976" 
d="M694 716l282 -716h-128l-115 317h-56v-317h-113v317h-57l-115 -317h-128l125 317h-168v-317h-128v714h128v-288h211l114 290h148zM620 626q-3 -16 -13 -43t-21.5 -55t-19.5 -48l-24 -61h154l-24 64q-8 19 -18.5 46.5t-20 53.5t-13.5 43z" />
    <glyph glyph-name="uni0469" unicode="&#x469;" horiz-adv-x="856" 
d="M624 542l230 -542h-123l-87 230h-40v-230h-111v230h-39l-88 -230h-123l97 230h-147v-230h-112v542h112v-215h188l91 215h152zM546 466q-5 -14 -13 -35.5t-16 -42t-12 -30.5l-16 -38h120l-17 41q-5 12 -13.5 31.5t-16.5 40t-12 33.5h-4z" />
    <glyph glyph-name="uni046A" unicode="&#x46a;" horiz-adv-x="776" 
d="M695 714v-67l-193 -233q77 -13 117.5 -60t68.5 -133l71 -221h-130l-62 200q-12 40 -26 64.5t-34.5 37t-54.5 16.5v-318h-127v318q-35 -4 -55.5 -16.5t-34 -37t-26.5 -64.5l-62 -200h-130l71 221q27 86 67 132.5t117 60.5l-189 233v67h612zM532 605h-288l144 -176z" />
    <glyph glyph-name="uni046B" unicode="&#x46b;" horiz-adv-x="629" 
d="M573 542v-51l-150 -177q57 -13 87 -50t51 -97l59 -167h-112l-52 151q-15 42 -32 59.5t-53 20.5v-231h-111v232q-39 -3 -55.5 -20.5t-31.5 -60.5l-53 -151h-112l60 167q21 61 51 98t88 49l-149 177v51h515zM421 452h-213l107 -125z" />
    <glyph glyph-name="uni046C" unicode="&#x46c;" horiz-adv-x="1039" 
d="M961 714v-67l-193 -234q77 -13 117.5 -59.5t68.5 -132.5l71 -221h-128l-63 200q-13 41 -27 65.5t-34.5 36.5t-54.5 15v-317h-127v317q-52 -5 -75 -31t-41 -86l-62 -200h-130l72 223q10 30 22 54.5t27 39.5h-183v-317h-128v714h128v-288h307l-179 221v67h612zM798 605
h-288l144 -177z" />
    <glyph glyph-name="uni046D" unicode="&#x46d;" horiz-adv-x="868" 
d="M813 542v-51l-151 -178q58 -12 87.5 -49t51.5 -97l59 -167h-112l-52 151q-15 42 -32.5 59.5t-52.5 20.5v-231h-111v231q-38 -2 -55.5 -19.5t-32.5 -60.5l-53 -151h-111l59 167q7 19 15.5 36.5t18.5 27.5h-148v-231h-112v542h112v-215h243l-138 164v51h515zM661 452h-213
l106 -124z" />
    <glyph glyph-name="uni046E" unicode="&#x46e;" horiz-adv-x="615" 
d="M451 862q21 0 35 -3t21 -5v-67q-14 6 -39 6q-24 0 -49 -21t-46 -54q84 -15 129.5 -61t45.5 -110q0 -72 -47.5 -115.5t-122.5 -55.5v-3q90 -11 140 -55t50 -115q0 -94 -74 -152t-224 -60q-51 -1 -77 -7t-34.5 -17t-8.5 -27q0 -20 16 -33t60 -13q59 0 98 2.5t81 2.5
q39 0 61 -5.5t32 -13.5v-102q-10 9 -35 15.5t-57 6.5q-38 0 -87 -2.5t-112 -2.5q-65 0 -105.5 20t-59 53t-18.5 73q0 45 21 78.5t72 52.5t140 22q95 2 138.5 29t43.5 87q0 58 -61.5 84t-164.5 26h-80v101h74q119 0 167 29t48 79q0 43 -36 67.5t-100 24.5q-57 0 -105 -16.5
t-90 -42.5l-58 86q39 25 83 43.5t101 26.5q-25 31 -57 65t-53 55v13h87q23 -16 51 -42.5t54 -52.5q18 23 40 47.5t49.5 41.5t62.5 17z" />
    <glyph glyph-name="uni046F" unicode="&#x46f;" horiz-adv-x="530" 
d="M413 670q21 0 34.5 -2.5t21.5 -4.5v-68q-15 6 -39 6q-21 0 -43 -16.5t-41 -42.5q56 -14 92 -47.5t36 -85.5q0 -49 -28 -78t-75 -42v-5q33 -8 60 -23t43 -40t16 -65q0 -45 -25.5 -82.5t-82.5 -59.5t-151 -23q-46 0 -69 -6t-31 -17t-8 -24q0 -25 18 -35.5t62 -10.5
q54 0 87.5 2.5t70.5 2.5q34 0 53.5 -5.5t26.5 -14.5v-98q-10 10 -32.5 15.5t-44.5 5.5q-33 0 -80 -2.5t-105 -2.5q-61 0 -97.5 18.5t-52 49.5t-15.5 70q0 44 19.5 77.5t66 53t126.5 19.5q68 0 104.5 18t36.5 56q0 74 -155 74h-63v91h56q73 0 113.5 14.5t40.5 52.5
q0 61 -115 61q-39 0 -81.5 -9t-82.5 -25l-39 91q29 11 59 19.5t64 13.5q-21 26 -46.5 54t-43.5 47v13h84q22 -16 48 -40.5t55 -53.5q18 23 40 47t49.5 40.5t62.5 16.5z" />
    <glyph glyph-name="uni0470" unicode="&#x470;" horiz-adv-x="849" 
d="M370 0v185q-142 2 -212.5 78.5t-70.5 212.5v238h123v-243q0 -69 20 -108.5t55.5 -56t84.5 -16.5v424h118v-424q45 0 81 16t57 55t21 108v245h123v-237q0 -139 -71.5 -214.5t-210.5 -77.5v-185h-118z" />
    <glyph glyph-name="uni0471" unicode="&#x471;" horiz-adv-x="808" 
d="M342 -240v231q-81 3 -140.5 28.5t-92 83.5t-32.5 158v281h118v-285q0 -64 15.5 -99t48 -50t83.5 -18v670h118v-669q82 7 120 49.5t38 140.5q0 67 -10 129t-27 132h119q18 -69 26.5 -131.5t8.5 -128.5q0 -103 -35.5 -165t-98 -91.5t-141.5 -34.5v-231h-118z" />
    <glyph glyph-name="uni0472" unicode="&#x472;" horiz-adv-x="791" 
d="M731 358q0 -111 -36.5 -193.5t-111.5 -128.5t-188 -46q-114 0 -188.5 46t-111 129t-36.5 194q0 110 36.5 192.5t111 128t189.5 45.5q113 0 187.5 -45.5t111 -128t36.5 -193.5zM396 617q-92 0 -141 -52.5t-60 -145.5h399q-11 93 -58.5 145.5t-139.5 52.5zM395 99
q96 0 144.5 56t56.5 156h-402q8 -100 57 -156t144 -56z" />
    <glyph glyph-name="uni0473" unicode="&#x473;" horiz-adv-x="614" 
d="M565 272q0 -135 -70 -208.5t-190 -73.5q-74 0 -132 33t-91 96t-33 153q0 135 69.5 207.5t189.5 72.5q75 0 133 -32.5t91 -95t33 -152.5zM306 450q-58 0 -88.5 -32.5t-38.5 -96.5h255q-14 129 -128 129zM307 92q60 0 90.5 34.5t36.5 102.5h-255q6 -68 37.5 -102.5
t90.5 -34.5z" />
    <glyph glyph-name="uni0474" unicode="&#x474;" horiz-adv-x="686" 
d="M641 614q-31 0 -47 -27t-34 -81l-171 -506h-141l-248 714h131l149 -449q14 -46 22.5 -80.5t15.5 -72.5q7 38 17 76t23 81l82 254q21 66 41.5 109.5t50.5 65.5t78 22q27 0 48 -5t33 -11v-101q-11 4 -23.5 7.5t-26.5 3.5z" />
    <glyph glyph-name="uni0475" unicode="&#x475;" horiz-adv-x="571" 
d="M517 547q12 0 29 -3t31 -8v-98q-9 4 -19 6t-18 2q-22 0 -34.5 -17t-21.5 -44l-140 -385h-139l-205 542h132l110 -324q12 -36 20.5 -67t10.5 -52h3q3 24 10.5 55.5t18.5 64.5l64 187q18 51 35 82t43 45t70 14z" />
    <glyph glyph-name="uni0476" unicode="&#x476;" horiz-adv-x="686" 
d="M641 614q-31 0 -47 -27t-34 -81l-171 -506h-141l-248 714h131l149 -449q14 -46 22.5 -80.5t15.5 -72.5q7 38 17 76t23 81l82 254q21 66 41.5 109.5t50.5 65.5t78 22q27 0 48 -5t33 -11v-101q-11 4 -23.5 7.5t-26.5 3.5zM388 938q16 -34 40 -76.5t45 -70.5v-13h-68
q-22 18 -52 46.5t-56.5 57.5t-36.5 46v10h128zM201 938q16 -34 40 -76.5t45 -70.5v-13h-68q-22 18 -52.5 46.5t-56.5 57.5t-36 46v10h128z" />
    <glyph glyph-name="uni0477" unicode="&#x477;" horiz-adv-x="571" 
d="M517 547q12 0 29 -3t31 -8v-98q-9 4 -19 6t-18 2q-22 0 -34.5 -17t-21.5 -44l-140 -385h-139l-205 542h132l110 -324q12 -36 20.5 -67t10.5 -52h3q3 24 10.5 55.5t18.5 64.5l64 187q18 51 35 82t43 45t70 14zM345 766q16 -34 40 -76.5t45 -70.5v-13h-68q-22 18 -52 46.5
t-56.5 57.5t-36.5 46v10h128zM158 766q16 -34 40 -76.5t45 -70.5v-13h-68q-22 18 -52.5 46.5t-56.5 57.5t-36 46v10h128z" />
    <glyph glyph-name="uni0478" unicode="&#x478;" horiz-adv-x="1282" 
d="M687 358q0 -111 -33 -193.5t-102.5 -128.5t-178.5 -46q-111 0 -180 46t-101.5 129t-32.5 194q0 110 32.5 192.5t102 128t180.5 45.5q109 0 178 -45.5t102 -128t33 -193.5zM192 358q0 -121 41 -190t140 -69q67 0 107 31t57 89t17 139q0 121 -40 190t-140 69t-141 -69
t-41 -190zM734 542h137l109 -307q20 -57 28 -114h3q4 26 12.5 55.5t18.5 59.5l103 306h135l-230 -614q-31 -81 -84.5 -124.5t-131.5 -43.5q-25 0 -43.5 2.5t-31.5 5.5v100q11 -2 26 -4t33 -2q46 0 74 27.5t43 68.5l16 44z" />
    <glyph glyph-name="uni0479" unicode="&#x479;" horiz-adv-x="1140" 
d="M565 272q0 -135 -70 -208.5t-190 -73.5q-74 0 -132 33t-91 96t-33 153q0 135 69.5 207.5t189.5 72.5q75 0 133 -32.5t91 -95t33 -152.5zM178 272q0 -86 30.5 -133t98.5 -47t98.5 47t30.5 133t-30.5 132t-99.5 46q-67 0 -97.5 -46t-30.5 -132zM594 542h137l108 -306
q11 -29 18 -57t10 -57h4q4 25 12 55t18 59l104 306h136l-231 -614q-31 -81 -84.5 -124.5t-131.5 -43.5q-25 0 -43 2.5t-32 5.5v100q11 -2 26.5 -4t32.5 -2q47 0 74.5 27.5t42.5 68.5l16 44z" />
    <glyph glyph-name="Omegaroundcy" unicode="&#x47a;" horiz-adv-x="830" 
d="M416 -60q-58 0 -71 55q-96 13 -159.5 61.5t-95 126t-31.5 176.5q0 148 71 244.5t215 116.5q8 31 26 42t45 11q26 0 44 -11t26 -42q142 -20 213.5 -117t71.5 -245t-71 -245t-212 -118q-15 -55 -72 -55zM347 106q10 22 27.5 30t41.5 8q23 0 40 -8.5t28 -29.5q78 19 116 85
t38 167t-37.5 166t-115.5 84q-9 -20 -27 -29.5t-42 -9.5q-51 0 -70 39q-78 -19 -116 -84t-38 -166t38.5 -167t116.5 -85z" />
    <glyph glyph-name="omegaroundcy" unicode="&#x47b;" horiz-adv-x="671" 
d="M623 272q0 -118 -59 -187.5t-164 -86.5q-9 -52 -64 -52q-57 0 -66 53q-99 17 -160 86t-61 187q0 117 59 187t165 86q5 24 21 33.5t42 9.5q23 0 40 -9.5t22 -33.5q100 -16 162.5 -86t62.5 -187zM494 272q0 68 -22.5 112.5t-70.5 60.5q-7 -22 -22 -33.5t-43 -11.5
q-29 0 -44 11.5t-23 33.5q-48 -16 -69.5 -60.5t-21.5 -112.5q0 -69 22.5 -115t71.5 -61q8 19 22.5 29t41.5 10q26 0 40.5 -10.5t22.5 -28.5q49 15 72 61t23 115z" />
    <glyph glyph-name="Omegatitlocy" unicode="&#x47c;" horiz-adv-x="1065" 
d="M351 933q0 52 18.5 78t48 35t61.5 9q37 0 74 -14.5t78 -29t92 -14.5h6v-83h-8q-50 0 -86 8t-63.5 19t-49 19t-41.5 8q-24 0 -35.5 -13.5t-14.5 -41.5h-80v20zM455 778q29 8 43 22t14 27q0 9 -8 13.5t-19 8t-19 10t-8 20.5q0 23 17 35.5t46 12.5q34 0 53.5 -20t19.5 -53
q0 -46 -40 -77.5t-99 -38.5v40zM355 -10q-101 0 -166.5 49.5t-97.5 135.5t-32 196q0 108 31.5 187t92 122t145.5 43q39 0 80 -14t70 -36l-46 -90q-19 13 -44 25t-54 12q-68 0 -107.5 -64.5t-39.5 -185.5q0 -124 46.5 -196t139.5 -72q27 0 50 10.5t43 27.5v201h128v-201
q43 -38 98 -38q93 0 139.5 72t46.5 196q0 121 -39.5 185.5t-107.5 64.5q-29 0 -54.5 -12t-44.5 -25l-46 90q30 22 71 36t79 14q86 0 146 -43t91.5 -122t31.5 -187q0 -110 -31.5 -196t-97 -135.5t-166.5 -49.5q-55 0 -98.5 17t-79.5 51q-37 -34 -80 -51t-97 -17z" />
    <glyph glyph-name="omegatitlocy" unicode="&#x47d;" horiz-adv-x="938" 
d="M398 902q38 0 74.5 -14.5t77.5 -29t92 -14.5h7v-83h-8q-50 0 -86.5 8t-63.5 19t-49 19t-42 8q-24 0 -35.5 -13t-14.5 -42h-80v21q0 51 19 77t48 35t61 9zM441 774q34 0 53 -20t19 -53q1 -46 -38 -77.5t-101 -38.5v40q29 8 43.5 22t14.5 27q0 10 -8.5 14t-19 8t-19 10.5
t-8.5 19.5q0 48 64 48zM304 -10q-117 0 -181.5 69t-64.5 209q0 145 62.5 215t166.5 70q41 0 71 -11t55 -27l-47 -90q-22 12 -41 18.5t-38 6.5q-100 0 -100 -181q0 -86 34.5 -131t94.5 -45q26 0 47.5 11t42.5 39v141h126v-138q22 -30 44.5 -41.5t49.5 -11.5q60 0 92.5 45
t32.5 131q0 181 -101 181q-18 0 -37.5 -7t-41.5 -18l-48 90q25 16 56 27t72 11q103 0 166 -70t63 -215q0 -140 -65 -209t-181 -69q-108 0 -165 83q-30 -44 -70 -63.5t-95 -19.5z" />
    <glyph glyph-name="Otcy" unicode="&#x47e;" horiz-adv-x="940" 
d="M681 895v-32l-40 -84h-23l-24 50h-81l-24 -50h-23l-24 50h-81l-24 -50h-23l-39 84v32h406zM236 -2q-43 68 -81 152.5t-67 178.5t-46.5 191.5t-18.5 192.5h133q6 -118 27.5 -226.5t50.5 -199.5t58 -155h5q6 35 18 77.5t25 82.5l74 213q-9 53 -15 103.5t-8 105.5h134
q4 -105 24.5 -212t52 -204.5t66.5 -172.5h6q52 113 81 257t29 331h134q-2 -209 -48.5 -387.5t-141.5 -327.5h-121q-29 47 -56 102.5t-50 113t-39 107.5l-103 -323h-123z" />
    <glyph glyph-name="otcy" unicode="&#x47f;" horiz-adv-x="849" 
d="M615 724v-33l-40 -84h-23l-24 50h-81l-24 -50h-23l-24 50h-81l-24 -50h-23l-39 84v33h406zM815 543q-4 -97 -24 -185.5t-58 -176t-97 -181.5h-114q-28 49 -57 106.5t-47 110.5l-109 -217h-112q-44 68 -84 156.5t-66.5 188t-27.5 198.5h126q4 -92 22 -173.5t41.5 -149
t46.5 -115.5h4q7 25 23 53.5t30 56.5l64 127q-13 45 -19.5 98t-7.5 103h127q5 -123 33.5 -230.5t65.5 -208.5h4q46 85 74 194t36 245h126z" />
    <glyph glyph-name="uni0480" unicode="&#x480;" horiz-adv-x="664" 
d="M416 724q56 0 111.5 -12.5t103.5 -34.5l-44 -106q-40 18 -84 31t-91 13q-105 0 -162.5 -69.5t-57.5 -190.5q0 -120 52.5 -188t168.5 -68q31 0 65 4.5t64 11.5v-355h-128v230q-124 0 -202.5 46.5t-115.5 129t-37 190.5t41.5 191t121 130t194.5 47z" />
    <glyph glyph-name="uni0481" unicode="&#x481;" horiz-adv-x="512" 
d="M316 552q43 0 86 -9.5t77 -25.5l-36 -98q-33 12 -66.5 20.5t-64.5 8.5q-69 0 -101.5 -44t-32.5 -135q0 -89 35.5 -132t100.5 -43q39 0 64.5 5.5t49.5 13.5v-353h-126v231q-119 6 -186 72t-67 205q0 106 34 168t94 89t139 27z" />
    <glyph glyph-name="uni0482" unicode="&#x482;" horiz-adv-x="609" 
d="M446 629l61 -35l-89 -154l140 -81l-35 -59l-138 81l-99 -170l139 -82l-34 -59l-139 81l-89 -154l-62 35l89 155l-139 80l34 59l140 -81l98 171l-140 80l35 60l139 -81z" />
    <glyph glyph-name="uni0483" unicode="&#x483;" 
d="M-365 610q-3 -22 -15 -34t-35 -12q-27 0 -38.5 15.5t-11.5 42.5q0 26 11.5 39.5t39.5 13.5h222q5 46 51 46q51 0 51 -54q0 -57 -52 -57h-223z" />
    <glyph glyph-name="uni0484" unicode="&#x484;" 
d="M-207 750q32 0 61.5 -9t48 -35.5t18.5 -77.5v-21h-79q-4 32 -16.5 44t-34.5 12q-20 0 -42 -8.5t-49 -19t-63.5 -18.5t-85.5 -8h-8v83h6q51 0 92 14.5t78 29t74 14.5z" />
    <glyph glyph-name="uni0485" unicode="&#x485;" 
d="M-349 714q0 33 19.5 53t53.5 20q30 0 46.5 -12.5t16.5 -35.5q0 -13 -8 -19.5t-19 -10t-19 -8t-8 -14.5q0 -13 14 -26.5t43 -21.5v-41q-60 8 -99.5 39t-39.5 77z" />
    <glyph glyph-name="uni0486" unicode="&#x486;" 
d="M-210 714q0 -46 -39.5 -77t-99.5 -39v41q29 8 43.5 21.5t14.5 26.5q0 10 -8.5 14.5t-19 8t-18.5 10t-8 19.5q0 23 16.5 35.5t46.5 12.5q34 0 53 -20t19 -53z" />
    <glyph glyph-name="uni0487" unicode="&#x487;" 
d="M-62 903q38 0 74.5 -15t77.5 -29.5t92 -14.5h7v-83h-8q-50 0 -86.5 8.5t-63.5 19t-49 18.5t-42 8q-24 0 -35.5 -13t-14.5 -42h-80v21q0 51 19 77t48 35.5t61 9.5z" />
    <glyph glyph-name="uni0488" unicode="&#x488;" 
d="M-129 667q3 53 32.5 83.5t89.5 30.5q58 0 89.5 -32t35.5 -82h-47q-3 34 -25.5 43t-52.5 9q-36 0 -55 -8.5t-23 -43.5h-44zM211 500q2 53 32 83.5t90 30.5q58 0 89.5 -31.5t35.5 -82.5h-47q-4 34 -26 43t-52 9q-36 0 -55 -8.5t-23 -43.5h-44zM-465 500q3 53 32.5 83.5
t89.5 30.5q58 0 89.5 -31.5t35.5 -82.5h-47q-3 34 -25.5 43t-52.5 9q-36 0 -55 -8.5t-23 -43.5h-44zM-569 215q2 52 32 83t90 31q58 0 89.5 -32t35.5 -82h-47q-4 33 -26 42t-52 9q-36 0 -55 -8t-23 -43h-44zM322 215q3 52 32.5 83t90.5 31q57 0 89 -32t35 -82h-46
q-4 33 -26.5 42t-51.5 9q-36 0 -55.5 -8t-22.5 -43h-45zM-465 -78q3 53 32.5 83.5t89.5 30.5q58 0 89.5 -32t35.5 -82h-47q-3 33 -25.5 42.5t-52.5 9.5q-36 0 -55 -8.5t-23 -43.5h-44zM211 -78q2 53 32 83.5t90 30.5q58 0 89.5 -32t35.5 -82h-47q-4 33 -26 42.5t-52 9.5
q-36 0 -55 -8.5t-23 -43.5h-44zM-129 -241q3 52 32.5 83t89.5 31q58 0 89.5 -32t35.5 -82h-47q-3 33 -25.5 42t-52.5 9q-36 0 -55 -8t-23 -43h-44z" />
    <glyph glyph-name="uni0489" unicode="&#x489;" 
d="M65 820q-12 -49 -23.5 -105.5t-17.5 -100.5h-82l-6 9q12 45 32 98t40 99h57zM-344 691q27 -43 58.5 -91t57.5 -83l-58 -57l-9 1q-23 41 -47 92t-42 97zM434 601q-43 -27 -91 -58.5t-83 -57.5l-57 57l1 10q41 23 92 47t98 42zM-550 334q50 -12 106.5 -23.5t99.5 -17.5v-82
l-9 -6q-45 12 -97.5 32t-99.5 40v57zM353 334q45 -12 98 -32t99 -40v-57q-49 12 -105.5 23.5t-100.5 17.5v82zM294 53q23 -40 47 -91.5t42 -98.5l-40 -41q-27 44 -58.5 92t-57.5 82l57 58zM-260 30l57 -58l-1 -9q-40 -23 -91.5 -47t-98.5 -42l-40 40q43 27 91 58.5t83 57.5z
M65 -83q-12 -45 -32 -97.5t-40 -99.5h-57q12 50 23.5 106.5t17.5 99.5h82z" />
    <glyph glyph-name="uni048A" unicode="&#x48a;" horiz-adv-x="867" 
d="M398 771q-80 0 -125 19.5t-65 56.5t-24 90h113q5 -55 28.5 -73t75.5 -18q43 0 70.5 20t32.5 71h115q-5 -51 -27.5 -88.5t-69.5 -57.5t-124 -20zM623 -200l86 200h-115v360q0 31 1.5 68.5t3.5 73.5t4 62h-4l-355 -564h-151v714h116v-363q0 -48 -2 -103.5t-5 -94.5h3
l354 561h150v-603h139l-82 -311h-143z" />
    <glyph glyph-name="uni048B" unicode="&#x48b;" horiz-adv-x="748" 
d="M346 606q-79 0 -124.5 19.5t-65.5 56.5t-24 90h114q4 -52 27.5 -71.5t75.5 -19.5q44 0 71 20t32 71h116q-5 -51 -27.5 -88.5t-69.5 -57.5t-125 -20zM545 -192l65 192h-121v255q0 23 1.5 52t3 56t3.5 44l-264 -407h-152v542h121v-252q0 -23 -1.5 -51.5t-3.5 -56.5t-4 -48
l265 408h152v-446h126l-68 -288h-123z" />
    <glyph glyph-name="uni048C" unicode="&#x48c;" horiz-adv-x="629" 
d="M221 714v-80h152v-107h-152v-98h71q103 0 167 -27t93.5 -75t29.5 -109q0 -103 -68.5 -160.5t-217.5 -57.5h-203v527h-70v107h70v80h128zM282 322h-61v-216h70q77 0 118.5 26t41.5 86q0 61 -44.5 82.5t-124.5 21.5z" />
    <glyph glyph-name="uni048D" unicode="&#x48d;" horiz-adv-x="606" 
d="M207 760v-113h170v-85h-170v-234h122q120 0 178 -39.5t58 -118.5q0 -78 -54.5 -124t-178.5 -46h-251v562h-76v85h76v113h126zM324 236h-117v-145h119q49 0 81 17.5t32 58.5q0 38 -29.5 53.5t-85.5 15.5z" />
    <glyph glyph-name="uni048E" unicode="&#x48e;" horiz-adv-x="622" 
d="M575 496q0 -57 -23 -107.5t-75 -82.5l48 -66l-65 -51l-62 85q-43 -11 -104 -11h-73v-263h-128v714h216q138 0 202 -58t64 -160zM288 369q11 0 21.5 0.5t19.5 1.5l-41 58l67 50l55 -75q34 29 34 87q0 117 -145 117h-78v-239h67z" />
    <glyph glyph-name="uni048F" unicode="&#x48f;" horiz-adv-x="626" 
d="M363 -10q-60 0 -97 22t-59 51h-8q3 -18 5.5 -43t2.5 -46v-214h-126v782h102l18 -72h7q22 34 59.5 58t98.5 24q95 0 153 -70.5t58 -209.5q0 -80 -20 -137t-57 -92l50 -66l-68 -52l-57 75q-29 -10 -62 -10zM330 450q-67 0 -94.5 -40t-28.5 -121v-16q0 -87 26.5 -133.5
t98.5 -46.5q15 0 26 3l-61 76l72 53l56 -70q23 42 23 119q0 176 -118 176z" />
    <glyph glyph-name="uni0492" unicode="&#x492;" horiz-adv-x="548" 
d="M527 714v-107h-306v-201h199v-106h-199v-300h-128v300h-70v106h70v308h434z" />
    <glyph glyph-name="uni0493" unicode="&#x493;" horiz-adv-x="470" 
d="M447 542v-103h-246v-127h164v-97h-164v-215h-126v215h-71v97h71v230h372z" />
    <glyph glyph-name="uni0494" unicode="&#x494;" horiz-adv-x="703" 
d="M306 282q-22 0 -46.5 -2.5t-38.5 -4.5v-275h-128v714h436v-107h-308v-218q24 3 55 5.5t62 2.5q64 0 121.5 -18.5t102 -58t70.5 -101.5t26 -148q0 -107 -36 -178.5t-96.5 -107t-132.5 -35.5q-51 0 -84.5 5.5t-66.5 17.5v113q31 -11 62 -17t66 -6q79 0 119.5 56t40.5 152
q0 106 -60 158.5t-164 52.5z" />
    <glyph glyph-name="uni0495" unicode="&#x495;" horiz-adv-x="576" 
d="M455 542v-103h-248v-133q17 3 35.5 4.5t35.5 1.5q77 0 137 -30.5t94 -93t34 -157.5q0 -96 -31.5 -157t-84 -90t-115.5 -29q-34 0 -64 6t-59 21v109q22 -13 51 -20.5t57 -7.5q55 0 89 40.5t34 129.5q0 81 -38 125.5t-123 44.5q-11 0 -25 -1t-27 -4v-198h-126v542h374z" />
    <glyph glyph-name="uni0496" unicode="&#x496;" horiz-adv-x="982" 
d="M897 714l-254 -344l187 -259h132v-311h-123v200h-70l-254 362v-362h-120v362l-255 -362h-140l267 369l-254 345h135l247 -346v346h120v-346l247 346h135z" />
    <glyph glyph-name="uni0497" unicode="&#x497;" horiz-adv-x="887" 
d="M806 542l-208 -261l150 -186h118v-287h-116v192h-61l-217 275v-275h-118v275l-217 -275h-137l228 281l-209 261h133l202 -263v263h118v-263l203 263h131z" />
    <glyph glyph-name="uni0498" unicode="&#x498;" horiz-adv-x="625" 
d="M293 -113q0 24 -16 49.5t-45 54.5q-112 6 -185 38v110q46 -22 106 -34.5t111 -12.5q95 0 140 30.5t45 86.5q0 58 -60.5 84.5t-164.5 26.5h-80v101h73q120 0 167.5 29t47.5 79q0 43 -35.5 67.5t-99.5 24.5q-60 0 -107 -16.5t-89 -42.5l-57 86q50 34 115 55t151 21
q119 0 184 -50t65 -127q0 -72 -49 -115.5t-128 -55.5v-3q95 -11 145.5 -55t50.5 -115q0 -89 -67 -147.5t-198 -64.5q29 -23 50.5 -51t21.5 -66q0 -48 -30.5 -77t-83.5 -29q-21 0 -38 2.5t-31 6.5v76q9 -3 22.5 -5.5t28.5 -2.5q17 0 28.5 10.5t11.5 31.5z" />
    <glyph glyph-name="uni0499" unicode="&#x499;" horiz-adv-x="530" 
d="M245 -113q0 24 -16 49.5t-46 55.5q-93 6 -147 32v107q34 -16 82.5 -29t103.5 -13q61 0 103 16t42 57q0 75 -155 75h-63v91h56q73 0 113.5 14.5t40.5 52.5q0 61 -115 61q-41 0 -82.5 -9t-81.5 -25l-39 91q45 18 97.5 28.5t119.5 10.5q60 0 109 -15.5t78 -47.5t29 -80
q0 -49 -29 -78t-77 -42v-5q33 -8 61 -23t44.5 -40.5t16.5 -65.5q0 -64 -55 -111t-170 -53q29 -23 50.5 -51t21.5 -66q0 -48 -30.5 -77t-83.5 -29q-21 0 -38 2.5t-31 6.5v76q9 -3 22.5 -5.5t28.5 -2.5q17 0 28.5 10.5t11.5 31.5z" />
    <glyph glyph-name="uni049A" unicode="&#x49a;" horiz-adv-x="724" 
d="M638 714l-279 -345l206 -258h140v-311h-123v200h-78l-283 362v-362h-128v714h128v-346l278 346h139z" />
    <glyph glyph-name="uni049B" unicode="&#x49b;" horiz-adv-x="624" 
d="M495 -192v192h-58l-230 275v-275h-126v542h126v-263l216 263h139l-221 -260l159 -186h110v-288h-115z" />
    <glyph glyph-name="uni049C" unicode="&#x49c;" horiz-adv-x="652" 
d="M345 111h-63v173l-61 78v-362h-128v714h128v-346l61 76v184h63v-105l154 191h139l-279 -345l293 -369h-148l-159 203v-92z" />
    <glyph glyph-name="uni049D" unicode="&#x49d;" horiz-adv-x="585" 
d="M320 495v-78l103 125h139l-221 -260l240 -282h-144l-117 140v-96h-68v177l-45 54v-275h-126v542h126v-263l45 55v161h68z" />
    <glyph glyph-name="uni049E" unicode="&#x49e;" horiz-adv-x="652" 
d="M19 534v107h61v73h128v-73h89v-107h-89v-166l278 346h139l-279 -345l293 -369h-148l-283 362v-362h-128v534h-61z" />
    <glyph glyph-name="uni049F" unicode="&#x49f;" horiz-adv-x="588" 
d="M207 760v-83h164v-85h-164v-313l216 263h139l-221 -260l240 -282h-144l-230 275v-275h-126v592h-76v85h76v83h126z" />
    <glyph glyph-name="uni04A0" unicode="&#x4a0;" horiz-adv-x="718" 
d="M709 714l-279 -345l293 -369h-148l-283 362v-362h-128v605h-161v109h289v-346l278 346h139z" />
    <glyph glyph-name="uni04A1" unicode="&#x4a1;" horiz-adv-x="668" 
d="M647 542l-221 -261l240 -281h-137l-230 275v-275h-119v445h-173v97h292v-263l217 263h131z" />
    <glyph glyph-name="uni04A2" unicode="&#x4a2;" horiz-adv-x="809" 
d="M663 -200v200h-128v317h-314v-317h-128v714h128v-288h314v288h128v-603h123v-311h-123z" />
    <glyph glyph-name="uni04A3" unicode="&#x4a3;" horiz-adv-x="711" 
d="M570 -192v192h-124v230h-239v-230h-126v542h126v-215h239v215h126v-446h114v-288h-116z" />
    <glyph glyph-name="uni04A4" unicode="&#x4a4;" horiz-adv-x="827" 
d="M93 0v714h128v-288h314v288h289v-109h-161v-605h-128v317h-314v-317h-128z" />
    <glyph glyph-name="uni04A5" unicode="&#x4a5;" horiz-adv-x="750" 
d="M81 0v542h126v-215h239v215h299v-97h-173v-445h-126v230h-239v-230h-126z" />
    <glyph glyph-name="uni04A6" unicode="&#x4a6;" horiz-adv-x="1099" 
d="M625 390q31 4 63.5 5.5t58.5 1.5q61 0 116 -19t98 -58t68 -101.5t25 -148.5q0 -107 -36 -178t-96 -106.5t-132 -35.5q-52 0 -85 6t-66 17v113q31 -11 61.5 -17t65.5 -6q74 0 117.5 56t43.5 151q0 63 -19 104t-50 64.5t-70.5 33t-80.5 9.5q-18 0 -41 -2t-41 -7v-272h-128
v605h-276v-605h-128v714h532v-324z" />
    <glyph glyph-name="uni04A7" unicode="&#x4a7;" horiz-adv-x="879" 
d="M544 309q12 1 24.5 2t24.5 1q69 0 127 -30t92 -92.5t34 -158.5t-30.5 -157t-81.5 -90t-113 -29q-33 0 -62.5 6t-58.5 21v109q22 -13 50 -20.5t56 -7.5q52 0 84.5 40.5t32.5 129.5q0 81 -35 125.5t-106 44.5q-20 0 -38 -4v-199h-126v445h-211v-445h-126v542h463v-233z" />
    <glyph glyph-name="uni04A8" unicode="&#x4a8;" horiz-adv-x="778" 
d="M722 331q0 -67 -18 -117t-43.5 -84.5t-49.5 -55.5q13 -4 29 -7.5t34 -3.5q19 0 36 3t33 8v-103q-15 -6 -38.5 -9t-43.5 -3q-85 0 -156 48q-26 -8 -58 -12.5t-64 -4.5q-104 0 -176.5 45t-110 125.5t-37.5 187.5q0 177 76 277t238 100q32 0 65 -6t51 -13l-32 -102
q-16 5 -38 9.5t-46 4.5q-97 0 -140 -70.5t-43 -194.5q0 -130 56.5 -192t146.5 -62q7 0 14 0.5t12 2.5q-31 37 -52.5 100t-21.5 134q0 119 51.5 173.5t135.5 54.5q51 0 94 -22.5t69.5 -74t26.5 -136.5zM603 327q0 64 -17 101.5t-52 37.5q-34 0 -52 -37.5t-18 -99.5
q0 -63 17 -112t43 -79q33 26 56 76.5t23 112.5z" />
    <glyph glyph-name="uni04A9" unicode="&#x4a9;" horiz-adv-x="651" 
d="M296 552q26 0 52 -5t44 -12l-28 -96q-12 4 -30.5 7.5t-38.5 3.5q-66 0 -92.5 -48.5t-26.5 -137.5q0 -84 32.5 -128t93.5 -44q10 0 17.5 1.5t10.5 2.5q-20 28 -33 64t-13 89q0 85 42.5 128.5t117.5 43.5q43 0 78.5 -18t57 -56t21.5 -100q0 -67 -25.5 -112t-60.5 -69
q8 -2 18.5 -4t23.5 -2q14 0 28.5 1.5t30.5 6.5v-91q-29 -10 -72 -10q-36 0 -70.5 11t-63.5 30q-22 -8 -48 -13t-63 -5q-78 0 -134 35.5t-86 98t-30 144.5q0 83 26.5 147t81 100.5t139.5 36.5zM444 328q-53 0 -53 -83q0 -39 13 -69t33 -50q26 17 42 47.5t16 73.5
q0 36 -12.5 58.5t-38.5 22.5z" />
    <glyph glyph-name="uni04AA" unicode="&#x4aa;" horiz-adv-x="635" 
d="M378 -113q0 26 -18 53t-48 56q-129 21 -191 117t-62 244q0 108 39 190.5t114.5 129.5t184.5 47q54 0 106.5 -12.5t98.5 -34.5l-44 -105q-38 17 -78.5 30.5t-82.5 13.5q-98 0 -151.5 -70t-53.5 -190q0 -121 50 -189.5t154 -68.5q45 0 88 9.5t90 25.5v-109
q-41 -17 -82.5 -25t-93.5 -9q29 -22 50 -50t21 -66q0 -48 -30 -77t-84 -29q-20 0 -37 2.5t-32 6.5v76q9 -3 23 -5.5t28 -2.5q18 0 29.5 10.5t11.5 31.5z" />
    <glyph glyph-name="uni04AB" unicode="&#x4ab;" horiz-adv-x="501" 
d="M301 -113q0 26 -18 53t-48 56q-88 16 -137 82.5t-49 189.5q0 100 33.5 162.5t92.5 92t135 29.5q51 0 91 -10t68 -24l-37 -99q-31 12 -62 20.5t-60 8.5q-132 0 -132 -179q0 -87 33.5 -131t96.5 -44q45 0 80 11t67 30v-109q-28 -16 -59 -25t-75 -11q29 -22 50 -50t21 -66
q0 -48 -30 -77t-83 -29q-21 0 -38 2.5t-31 6.5v76q8 -3 22 -5.5t29 -2.5q17 0 28.5 10.5t11.5 31.5z" />
    <glyph glyph-name="uni04AC" unicode="&#x4ac;" horiz-adv-x="570" 
d="M349 -200v200h-128v605h-205v109h538v-109h-205v-494h123v-311h-123z" />
    <glyph glyph-name="uni04AD" unicode="&#x4ad;" horiz-adv-x="522" 
d="M501 542v-97h-177v-350h113v-287h-115v192h-123v445h-177v97h479z" />
    <glyph glyph-name="uni04AE" unicode="&#x4ae;" horiz-adv-x="602" 
d="M301 399l163 315h138l-237 -436v-278h-128v273l-237 441h139z" />
    <glyph glyph-name="uni04AF" unicode="&#x4af;" horiz-adv-x="549" 
d="M338 -240h-127v239l-211 543h137l96 -264q12 -34 23 -75.5t16 -66.5h6q5 25 15.5 66.5t23.5 75.5l96 264h136l-211 -543v-239z" />
    <glyph glyph-name="uni04B2" unicode="&#x4b2;" horiz-adv-x="701" 
d="M559 -200v200h-70l-175 285l-176 -285h-136l237 370l-222 344h141l162 -266l161 266h137l-223 -349l166 -254h122v-311h-124z" />
    <glyph glyph-name="uni04B3" unicode="&#x4b3;" horiz-adv-x="607" 
d="M477 -192v192h-70l-127 197l-127 -197h-143l188 277l-179 265h143l118 -184l118 184h143l-181 -265l125 -181h107v-288h-115z" />
    <glyph glyph-name="uni04B4" unicode="&#x4b4;" horiz-adv-x="904" 
d="M760 -200v200h-555v605h-189v109h527v-109h-210v-496h298v605h128v-603h124v-311h-123z" />
    <glyph glyph-name="uni04B5" unicode="&#x4b5;" horiz-adv-x="766" 
d="M634 -192v192h-477v445h-135v97h416v-97h-155v-347h227v444h126v-447h114v-287h-116z" />
    <glyph glyph-name="uni04B6" unicode="&#x4b6;" horiz-adv-x="766" 
d="M624 714v-603h123v-311h-123v200h-128v282q-61 -21 -113 -32.5t-108 -11.5q-100 0 -156 48t-56 137v291h128v-260q0 -54 26.5 -81t87.5 -27q49 0 92.5 10t98.5 28v330h128z" />
    <glyph glyph-name="uni04B7" unicode="&#x4b7;" horiz-adv-x="686" 
d="M559 542v-446h113v-288h-116v192h-123v225q-39 -22 -83.5 -38t-102.5 -16q-84 0 -133 43.5t-49 125.5v202h126v-198q0 -79 80 -79q46 0 84.5 12t77.5 31v234h126z" />
    <glyph glyph-name="uni04B8" unicode="&#x4b8;" horiz-adv-x="717" 
d="M624 714v-714h-128v282q-33 -12 -64.5 -21.5t-62.5 -14.5v-155h-63v148q-72 0 -126.5 17t-85.5 57.5t-31 109.5v291h128v-260q0 -53 26.5 -80t88.5 -28v164h63v-159q31 4 62.5 12.5t64.5 19.5v331h128z" />
    <glyph glyph-name="uni04B9" unicode="&#x4b9;" horiz-adv-x="637" 
d="M556 542v-542h-126v225q-21 -13 -45 -24.5t-51 -18.5v-119h-60v109q-7 -1 -14 -1.5t-14 -0.5q-84 0 -132.5 44t-48.5 126v202h126v-198q0 -41 21 -60t62 -19v132h60v-126q24 6 48 15.5t48 21.5v234h126z" />
    <glyph glyph-name="uni04BA" unicode="&#x4ba;" horiz-adv-x="717" 
d="M93 714h128v-282q61 21 114 32.5t107 11.5q100 0 156 -48t56 -137v-291h-128v260q0 54 -26.5 81t-88.5 27q-48 0 -92 -10t-98 -28v-330h-128v714z" />
    <glyph glyph-name="uni04BB" unicode="&#x4bb;" horiz-adv-x="642" 
d="M207 579q0 -32 -2.5 -62.5t-4.5 -45.5h8q26 41 68 61t93 20q92 0 144 -47t52 -152v-353h-126v328q0 122 -100 122q-76 0 -104 -48t-28 -137v-265h-126v760h126v-181z" />
    <glyph glyph-name="uni04BC" unicode="&#x4bc;" horiz-adv-x="911" 
d="M516 725q116 0 187 -46.5t103 -129.5t32 -194v-41h-520q7 -102 60.5 -159t159.5 -57q51 0 100.5 10.5t91 25.5t68.5 29v-116q-43 -22 -105.5 -39.5t-159.5 -17.5q-160 0 -248 87.5t-100 236.5h-28q-70 0 -108.5 33t-38.5 90q0 25 6 47.5t16 39.5h99q-3 -6 -7.5 -23
t-4.5 -34q0 -20 11.5 -32.5t38.5 -12.5h19q18 144 101.5 223.5t226.5 79.5zM515 616q-84 0 -136.5 -50t-58.5 -144h384q0 91 -42.5 142.5t-146.5 51.5z" />
    <glyph glyph-name="uni04BD" unicode="&#x4bd;" horiz-adv-x="696" 
d="M411 552q111 0 175 -65t64 -181v-64h-365q2 -76 41.5 -115.5t109.5 -39.5q56 0 98.5 10.5t87.5 30.5v-101q-41 -19 -84.5 -28t-104.5 -9q-117 0 -192 63t-83 189q-71 0 -110.5 26t-39.5 83q0 20 5 39.5t13 33.5h89q-11 -24 -11 -53q0 -42 48 -42h9q16 113 84 168t166 55z
M411 459q-52 0 -85 -32t-38 -98h240q0 57 -29 93.5t-88 36.5z" />
    <glyph glyph-name="uni04BE" unicode="&#x4be;" horiz-adv-x="911" 
d="M516 725q116 0 187 -46.5t103 -129.5t32 -193v-42h-520q7 -102 60.5 -159t159.5 -57q51 0 100.5 10.5t91 25.5t68.5 29v-116q-38 -19 -88.5 -34.5t-124.5 -19.5v-193h-123v196q-127 18 -196.5 102.5t-80.5 215.5h-28q-70 0 -108.5 33t-38.5 90q0 25 6 47.5t16 39.5h99
q-3 -6 -7.5 -23t-4.5 -34q0 -20 11.5 -32.5t38.5 -12.5h19q17 144 101.5 223.5t226.5 79.5zM515 616q-84 0 -136.5 -50t-58.5 -144h384q0 91 -41.5 142.5t-147.5 51.5z" />
    <glyph glyph-name="uni04BF" unicode="&#x4bf;" horiz-adv-x="696" 
d="M356 -2q-86 17 -139 78t-59 166q-71 0 -110.5 26t-39.5 83q0 20 5 39.5t13 33.5h89q-11 -24 -11 -53q0 -42 48 -42h9q16 112 84 167.5t166 55.5q111 0 175 -65t64 -181v-64h-365q2 -76 41.5 -115.5t109.5 -39.5q56 0 98.5 10.5t87.5 30.5v-101q-34 -16 -69.5 -24.5
t-80.5 -10.5v-184h-116v190zM411 459q-52 0 -85 -32t-38 -98h240q0 57 -29 93.5t-88 36.5z" />
    <glyph glyph-name="uni04C0" unicode="&#x4c0;" horiz-adv-x="370" 
d="M335 0h-300v73l86 32v503l-86 33v73h300v-73l-86 -33v-503l86 -32v-73z" />
    <glyph glyph-name="uni04C1" unicode="&#x4c1;" horiz-adv-x="909" 
d="M677 944q-5 -51 -28 -88.5t-69.5 -57.5t-124.5 -20q-79 0 -124.5 19.5t-65.5 56.5t-24 90h114q4 -55 27.5 -73t75.5 -18q44 0 71 19.5t32 71.5h116zM267 369l-254 345h135l247 -346v346h120v-346l247 346h135l-254 -344l266 -370h-140l-254 362v-362h-120v362l-255 -362
h-140z" />
    <glyph glyph-name="uni04C2" unicode="&#x4c2;" horiz-adv-x="827" 
d="M633 772q-5 -51 -27.5 -88.5t-69.5 -57.5t-124 -20q-80 0 -125.5 19.5t-65.5 56.5t-24 90h114q5 -55 28 -73t75 -18q44 0 71 20t33 71h115zM806 542l-208 -261l227 -281h-136l-217 275v-275h-118v275l-217 -275h-137l228 281l-209 261h133l202 -263v263h118v-263l203 263
h131z" />
    <glyph glyph-name="uni04C3" unicode="&#x4c3;" horiz-adv-x="736" 
d="M355 378h16q61 0 117.5 -16.5t100.5 -53t70 -95.5t26 -143q0 -107 -36.5 -178t-97.5 -106.5t-134 -35.5q-51 0 -84.5 5.5t-65.5 17.5v113q30 -11 61.5 -17t68.5 -6q72 0 116.5 52t44.5 155q0 63 -20.5 103.5t-55.5 63.5t-77 32t-85 9q-26 0 -51 -3.5t-48 -9.5v-265h-128
v714h128v-347q19 26 40 54t43 54l198 239h145z" />
    <glyph glyph-name="uni04C4" unicode="&#x4c4;" horiz-adv-x="618" 
d="M579 36q0 -97 -32 -159t-85 -91.5t-116 -29.5q-39 0 -65 6t-50 17v107q22 -10 46 -17t54 -7q53 0 89.5 40t36.5 128q0 87 -42.5 131t-123.5 44q-25 0 -47.5 -4t-37.5 -8v-193h-125v542h125v-244l217 244h149l-233 -243q69 0 123 -28t85.5 -86t31.5 -149z" />
    <glyph glyph-name="uni04C5" unicode="&#x4c5;" horiz-adv-x="793" 
d="M638 111h139l-82 -311h-143l86 200h-128v606h-194q-6 -50 -13 -106.5t-15 -113t-16 -107t-16 -88.5q-13 -65 -33.5 -110t-56 -68t-91.5 -23q-38 0 -70 11v106q13 -5 26 -8t28 -3q35 0 51.5 38.5t30.5 111.5q7 34 18 104t24.5 164t26.5 200h428v-603z" />
    <glyph glyph-name="uni04C6" unicode="&#x4c6;" horiz-adv-x="674" 
d="M539 96h125l-68 -288h-122l65 192h-126v445h-146q-13 -163 -35 -263t-60 -145t-99 -45q-43 0 -70 12v99q19 -7 40 -7t38.5 22t32 73t26 137t20.5 214h379v-446z" />
    <glyph glyph-name="uni04C7" unicode="&#x4c7;" horiz-adv-x="752" 
d="M663 54q0 -95 -33 -163t-92.5 -104.5t-139.5 -36.5q-48 0 -83 5.5t-68 17.5v113q31 -12 63 -17.5t73 -5.5q74 0 113 52t39 149v253h-314v-317h-128v714h128v-288h314v288h128v-660z" />
    <glyph glyph-name="uni04C8" unicode="&#x4c8;" horiz-adv-x="647" 
d="M572 16q0 -90 -29.5 -148t-81 -85.5t-115.5 -27.5q-37 0 -65 6.5t-56 20.5v110q24 -13 52 -21t56 -8q52 0 81.5 37t31.5 123v207h-239v-230h-126v542h126v-215h239v215h126v-526z" />
    <glyph glyph-name="uni04C9" unicode="&#x4c9;" horiz-adv-x="820" 
d="M663 111h138l-81 -311h-144l87 200h-128v317h-314v-317h-128v714h128v-288h314v288h128v-603z" />
    <glyph glyph-name="uni04CA" unicode="&#x4ca;" horiz-adv-x="713" 
d="M81 0v542h126v-215h239v215h126v-446h126l-69 -288h-122l65 192h-126v230h-239v-230h-126z" />
    <glyph glyph-name="uni04CB" unicode="&#x4cb;" horiz-adv-x="717" 
d="M624 0h-111v-200h-124v311h107v171q-61 -21 -113 -32.5t-108 -11.5q-100 0 -156 48t-56 137v291h128v-260q0 -54 26.5 -81t87.5 -27q49 0 92.5 10t98.5 28v330h128v-714z" />
    <glyph glyph-name="uni04CC" unicode="&#x4cc;" horiz-adv-x="640" 
d="M559 542v-542h-109v-192h-116v288h99v129q-39 -22 -83.5 -38t-102.5 -16q-84 0 -133 43.5t-49 125.5v202h126v-198q0 -79 80 -79q46 0 84.5 12t77.5 31v234h126z" />
    <glyph glyph-name="uni04CD" unicode="&#x4cd;" horiz-adv-x="991" 
d="M400 0l-196 585h-4q2 -27 4 -68t3 -81t1 -63v-373h-115v714h178l189 -561h3l196 561h178v-603h138l-81 -311h-144l87 200h-122v379q0 19 1 47.5t2 59.5t2 57.5t2 40.5h-4l-204 -584h-114z" />
    <glyph glyph-name="uni04CE" unicode="&#x4ce;" horiz-adv-x="862" 
d="M852 96l-69 -288h-122l65 192h-116v296q0 67 5 126h-3l-160 -422h-97l-160 422h-3q2 -29 3.5 -61t1.5 -69v-292h-116v542h175l149 -393l150 393h171v-446h126z" />
    <glyph glyph-name="uni04CF" unicode="&#x4cf;" horiz-adv-x="370" 
d="M335 0h-300v73l86 32v503l-86 33v73h300v-73l-86 -33v-503l86 -32v-73z" />
    <glyph glyph-name="uni04D0" unicode="&#x4d0;" horiz-adv-x="671" 
d="M556 944q-5 -51 -27.5 -88.5t-69.5 -57.5t-124 -20q-80 0 -125.5 19.5t-65.5 56.5t-24 90h114q5 -55 28 -73t75 -18q44 0 71.5 19.5t32.5 71.5h115zM534 0l-65 189h-269l-64 -189h-136l262 717h146l262 -717h-136zM374 483q-4 14 -12 38t-15.5 49.5t-11.5 42.5
q-5 -20 -12.5 -46t-14.5 -49t-10 -35l-63 -184h201z" />
    <glyph glyph-name="uni04D1" unicode="&#x4d1;" horiz-adv-x="588" 
d="M515 772q-5 -51 -27.5 -88.5t-69 -57.5t-124.5 -20q-80 0 -125.5 19.5t-65.5 56.5t-23 90h113q5 -55 28.5 -73t75.5 -18q44 0 71 20t32 71h115zM297 552q105 0 159.5 -46t54.5 -142v-364h-89l-25 75h-4q-35 -44 -74 -64.5t-106 -20.5q-73 0 -121 41t-48 127
q0 84 61.5 126t186.5 47l94 3v27q0 51 -25 73.5t-70 22.5q-41 0 -78.5 -12t-74.5 -28l-40 88q40 21 91.5 34t107.5 13zM320 254q-83 -3 -115 -28.5t-32 -68.5q0 -39 22.5 -55.5t59.5 -16.5q55 0 93 31.5t38 93.5v46z" />
    <glyph glyph-name="uni04D2" unicode="&#x4d2;" horiz-adv-x="671" 
d="M534 0l-65 189h-269l-64 -189h-136l262 717h146l262 -717h-136zM374 483q-4 14 -12 38t-15.5 49.5t-11.5 42.5q-5 -20 -12.5 -46t-14.5 -49t-10 -35l-63 -184h201zM177 856q0 32 17.5 46t42.5 14q24 0 42.5 -14t18.5 -46q0 -30 -18.5 -44.5t-42.5 -14.5q-25 0 -42.5 14.5
t-17.5 44.5zM371 856q0 32 17.5 46t42.5 14q24 0 42.5 -14t18.5 -46q0 -30 -18.5 -44.5t-42.5 -14.5q-25 0 -42.5 14.5t-17.5 44.5z" />
    <glyph glyph-name="uni04D3" unicode="&#x4d3;" horiz-adv-x="588" 
d="M297 552q105 0 159.5 -46t54.5 -142v-364h-89l-25 75h-4q-35 -44 -74 -64.5t-106 -20.5q-73 0 -121 41t-48 127q0 84 61.5 126t186.5 47l94 3v27q0 51 -25 73.5t-70 22.5q-41 0 -78.5 -12t-74.5 -28l-40 88q40 21 91.5 34t107.5 13zM320 254q-83 -3 -115 -28.5t-32 -68.5
q0 -39 22.5 -55.5t59.5 -16.5q55 0 93 31.5t38 93.5v46zM136 684q0 32 17.5 46t42.5 14q24 0 42.5 -14t18.5 -46q0 -30 -18.5 -44.5t-42.5 -14.5q-25 0 -42.5 14.5t-17.5 44.5zM330 684q0 32 17.5 46t42.5 14q24 0 42.5 -14t18.5 -46q0 -30 -18.5 -44.5t-42.5 -14.5
q-25 0 -42.5 14.5t-17.5 44.5z" />
    <glyph glyph-name="uni04D4" unicode="&#x4d4;" horiz-adv-x="925" 
d="M866 0h-406v189h-244l-85 -189h-131l327 714h539v-107h-278v-182h259v-107h-259v-210h278v-108zM264 299h196v304h-60z" />
    <glyph glyph-name="uni04D5" unicode="&#x4d5;" horiz-adv-x="897" 
d="M627 552q101 0 162.5 -65t61.5 -180v-65h-349q2 -75 39 -115t104 -40q49 0 92 10.5t86 30.5v-101q-41 -19 -83 -28t-101 -9q-68 0 -121.5 26.5t-87.5 79.5q-27 -35 -55.5 -58.5t-66 -35.5t-92.5 -12q-48 0 -87 18t-62 55t-23 95q0 84 59.5 126t179.5 47l91 3v38
q0 46 -25 65.5t-67 19.5q-40 0 -77 -11t-73 -28l-40 87q40 21 92 34t106 13q116 0 166 -72q30 35 72 53.5t99 18.5zM624 459q-52 0 -83.5 -32t-36.5 -97h225q-1 57 -27 93t-78 36zM311 254q-78 -3 -108 -28.5t-30 -68.5q0 -39 21.5 -55.5t56.5 -16.5q52 0 87.5 31.5
t35.5 93.5v46z" />
    <glyph glyph-name="uni04D6" unicode="&#x4d6;" horiz-adv-x="558" 
d="M524 944q-5 -51 -27.5 -88.5t-69.5 -57.5t-124 -20q-80 0 -125.5 19.5t-65.5 56.5t-24 90h114q5 -55 28 -73t75 -18q44 0 71 19.5t33 71.5h115zM499 0h-406v714h406v-107h-278v-182h260v-107h-260v-210h278v-108z" />
    <glyph glyph-name="uni04D7" unicode="&#x4d7;" horiz-adv-x="581" 
d="M513 772q-5 -51 -27.5 -88.5t-69.5 -57.5t-124 -20q-80 0 -125.5 19.5t-65.5 56.5t-24 90h114q5 -55 28 -73t75 -18q44 0 71.5 20t32.5 71h115zM299 552q109 0 172.5 -65t63.5 -181v-64h-358q2 -74 41 -114.5t108 -40.5q52 0 94 10.5t86 30.5v-101q-40 -19 -83 -28
t-103 -9q-79 0 -140.5 30.5t-96 92.5t-34.5 154q0 139 69 212t181 73zM299 459q-51 0 -82.5 -32.5t-36.5 -96.5h233q-1 56 -28.5 92.5t-85.5 36.5z" />
    <glyph glyph-name="uni04D8" unicode="&#x4d8;" horiz-adv-x="788" 
d="M374 617q-56 0 -105.5 -11t-90 -26t-66.5 -28v113q44 22 105.5 41t158.5 19q115 0 193.5 -46t118.5 -129t40 -194q0 -112 -38.5 -194t-112.5 -127t-182 -45q-116 0 -187 46.5t-103.5 131.5t-32.5 198v35h522q-7 102 -60.5 159t-159.5 57zM395 98q85 0 138 50.5t60 144.5
h-387q0 -92 41.5 -143.5t147.5 -51.5z" />
    <glyph glyph-name="uni04D9" unicode="&#x4d9;" horiz-adv-x="581" 
d="M260 552q80 0 141.5 -30.5t96 -92t34.5 -154.5q0 -139 -69 -212t-181 -73q-109 0 -172.5 65t-63.5 181v65h358q-3 73 -41.5 113.5t-108.5 40.5q-51 0 -93 -10.5t-87 -30.5v101q41 19 83.5 28t102.5 9zM168 213q1 -57 28.5 -93.5t85.5 -36.5q51 0 82.5 32.5t36.5 97.5
h-233z" />
    <glyph glyph-name="uni04DA" unicode="&#x4da;" horiz-adv-x="788" 
d="M374 617q-56 0 -105.5 -11t-90 -26t-66.5 -28v113q44 22 105.5 41t158.5 19q115 0 193.5 -46t118.5 -129t40 -194q0 -112 -38.5 -194t-112.5 -127t-182 -45q-116 0 -187 46.5t-103.5 131.5t-32.5 198v35h522q-7 102 -60.5 159t-159.5 57zM395 98q85 0 138 50.5t60 144.5
h-387q0 -92 41.5 -143.5t147.5 -51.5zM231 856q0 32 17.5 46t42.5 14q24 0 42.5 -14t18.5 -46q0 -30 -18.5 -44.5t-42.5 -14.5q-25 0 -42.5 14.5t-17.5 44.5zM425 856q0 32 17.5 46t42.5 14q24 0 42.5 -14t18.5 -46q0 -30 -18.5 -44.5t-42.5 -14.5q-25 0 -42.5 14.5
t-17.5 44.5z" />
    <glyph glyph-name="uni04DB" unicode="&#x4db;" horiz-adv-x="581" 
d="M260 552q80 0 141.5 -30.5t96 -92t34.5 -154.5q0 -139 -69 -212t-181 -73q-109 0 -172.5 65t-63.5 181v65h358q-3 73 -41.5 113.5t-108.5 40.5q-51 0 -93 -10.5t-87 -30.5v101q41 19 83.5 28t102.5 9zM168 213q1 -57 28.5 -93.5t85.5 -36.5q51 0 82.5 32.5t36.5 97.5
h-233zM129 684q0 32 17.5 46t42.5 14q24 0 42.5 -14t18.5 -46q0 -30 -18.5 -44.5t-42.5 -14.5q-25 0 -42.5 14.5t-17.5 44.5zM323 684q0 32 17.5 46t42.5 14q24 0 42.5 -14t18.5 -46q0 -30 -18.5 -44.5t-42.5 -14.5q-25 0 -42.5 14.5t-17.5 44.5z" />
    <glyph glyph-name="uni04DC" unicode="&#x4dc;" horiz-adv-x="909" 
d="M267 369l-254 345h135l247 -346v346h120v-346l247 346h135l-254 -344l266 -370h-140l-254 362v-362h-120v362l-255 -362h-140zM298 856q0 32 17.5 46t42.5 14q24 0 42.5 -14t18.5 -46q0 -30 -18.5 -44.5t-42.5 -14.5q-25 0 -42.5 14.5t-17.5 44.5zM492 856q0 32 17.5 46
t42.5 14q24 0 42.5 -14t18.5 -46q0 -30 -18.5 -44.5t-42.5 -14.5q-25 0 -42.5 14.5t-17.5 44.5z" />
    <glyph glyph-name="uni04DD" unicode="&#x4dd;" horiz-adv-x="827" 
d="M806 542l-208 -261l227 -281h-136l-217 275v-275h-118v275l-217 -275h-137l228 281l-209 261h133l202 -263v263h118v-263l203 263h131zM254 684q0 32 17.5 46t42.5 14q24 0 42.5 -14t18.5 -46q0 -30 -18.5 -44.5t-42.5 -14.5q-25 0 -42.5 14.5t-17.5 44.5zM448 684
q0 32 17.5 46t42.5 14q24 0 42.5 -14t18.5 -46q0 -30 -18.5 -44.5t-42.5 -14.5q-25 0 -42.5 14.5t-17.5 44.5z" />
    <glyph glyph-name="uni04DE" unicode="&#x4de;" horiz-adv-x="625" 
d="M559 547q0 -72 -49 -115.5t-128 -55.5v-3q95 -11 145.5 -55t50.5 -115q0 -94 -75 -153.5t-221 -59.5t-235 39v110q46 -22 106 -34.5t111 -12.5q95 0 140 30.5t45 86.5q0 58 -60.5 84.5t-164.5 26.5h-80v101h73q120 0 167.5 29t47.5 79q0 43 -35.5 67.5t-99.5 24.5
q-60 0 -107 -16.5t-89 -42.5l-57 86q50 34 115 55t151 21q119 0 184 -50t65 -127zM152 856q0 32 17.5 46t42.5 14q24 0 42.5 -14t18.5 -46q0 -30 -18.5 -44.5t-42.5 -14.5q-25 0 -42.5 14.5t-17.5 44.5zM346 856q0 32 17.5 46t42.5 14q24 0 42.5 -14t18.5 -46
q0 -30 -18.5 -44.5t-42.5 -14.5q-25 0 -42.5 14.5t-17.5 44.5z" />
    <glyph glyph-name="uni04DF" unicode="&#x4df;" horiz-adv-x="530" 
d="M258 552q60 0 109 -15.5t78 -47.5t29 -80q0 -49 -29 -78t-77 -42v-5q33 -8 61 -23t44.5 -40.5t16.5 -65.5q0 -45 -27 -82.5t-83.5 -60t-143.5 -22.5q-129 0 -200 34v107q34 -16 82.5 -29t103.5 -13q61 0 103 16t42 57q0 75 -155 75h-63v91h56q73 0 113.5 14.5t40.5 52.5
q0 61 -115 61q-41 0 -82.5 -9t-81.5 -25l-39 91q45 18 97.5 28.5t119.5 10.5zM104 684q0 32 17.5 46t42.5 14q24 0 42.5 -14t18.5 -46q0 -30 -18.5 -44.5t-42.5 -14.5q-25 0 -42.5 14.5t-17.5 44.5zM298 684q0 32 17.5 46t42.5 14q24 0 42.5 -14t18.5 -46q0 -30 -18.5 -44.5
t-42.5 -14.5q-25 0 -42.5 14.5t-17.5 44.5z" />
    <glyph glyph-name="uni04E0" unicode="&#x4e0;" horiz-adv-x="588" 
d="M512 714v-87l-224 -214q124 -5 189.5 -58t65.5 -149q0 -62 -32 -111t-98 -77t-168 -28q-60 0 -114 9.5t-100 29.5v111q48 -23 104.5 -35t104.5 -12q95 0 134.5 32.5t39.5 86.5q0 53 -49.5 81t-159.5 28h-62v93l198 192h-288v108h459z" />
    <glyph glyph-name="uni04E1" unicode="&#x4e1;" horiz-adv-x="550" 
d="M489 542v-84l-217 -218q120 -12 180.5 -76t60.5 -163q0 -69 -32.5 -123.5t-96 -86t-157.5 -31.5q-120 0 -204 37v110q42 -20 95 -32.5t104 -12.5q85 0 124 41t39 102q0 65 -46 103t-151 38h-59v89l206 208h-295v99h449z" />
    <glyph glyph-name="uni04E2" unicode="&#x4e2;" horiz-adv-x="802" 
d="M93 714h116v-363q0 -33 -1 -74.5t-2.5 -76t-3.5 -46.5h4l354 560h150v-714h-116v360q0 36 2 79.5t4 78.5t3 47h-4l-355 -565h-151v714zM572 869v-91h-318v91h318z" />
    <glyph glyph-name="uni04E3" unicode="&#x4e3;" horiz-adv-x="691" 
d="M202 284q0 -18 -2 -49.5t-4 -60t-3 -40.5l265 408h152v-542h-121v255q0 22 1.5 52.5t3.5 58t3 41.5l-264 -407h-152v542h121v-258zM508 697v-91h-318v91h318z" />
    <glyph glyph-name="uni04E4" unicode="&#x4e4;" horiz-adv-x="802" 
d="M93 714h116v-363q0 -33 -1 -74.5t-2.5 -76t-3.5 -46.5h4l354 560h150v-714h-116v360q0 36 2 79.5t4 78.5t3 47h-4l-355 -565h-151v714zM255 856q0 32 17.5 46t42.5 14q24 0 42.5 -14t18.5 -46q0 -30 -18.5 -44.5t-42.5 -14.5q-25 0 -42.5 14.5t-17.5 44.5zM449 856
q0 32 17.5 46t42.5 14q24 0 42.5 -14t18.5 -46q0 -30 -18.5 -44.5t-42.5 -14.5q-25 0 -42.5 14.5t-17.5 44.5z" />
    <glyph glyph-name="uni04E5" unicode="&#x4e5;" horiz-adv-x="691" 
d="M202 284q0 -18 -2 -49.5t-4 -60t-3 -40.5l265 408h152v-542h-121v255q0 22 1.5 52.5t3.5 58t3 41.5l-264 -407h-152v542h121v-258zM191 684q0 32 17.5 46t42.5 14q24 0 42.5 -14t18.5 -46q0 -30 -18.5 -44.5t-42.5 -14.5q-25 0 -42.5 14.5t-17.5 44.5zM385 684
q0 32 17.5 46t42.5 14q24 0 42.5 -14t18.5 -46q0 -30 -18.5 -44.5t-42.5 -14.5q-25 0 -42.5 14.5t-17.5 44.5z" />
    <glyph glyph-name="uni04E6" unicode="&#x4e6;" horiz-adv-x="790" 
d="M731 358q0 -111 -36.5 -193.5t-111.5 -128.5t-188 -46q-114 0 -188.5 46t-111 129t-36.5 194q0 110 36.5 192.5t111 128t189.5 45.5q113 0 187.5 -45.5t111 -128t36.5 -193.5zM194 358q0 -121 48 -190t153 -69q106 0 153.5 69t47.5 190t-47 190t-153 69
q-105 0 -153.5 -69t-48.5 -190zM238 856q0 32 17.5 46t42.5 14q24 0 42.5 -14t18.5 -46q0 -30 -18.5 -44.5t-42.5 -14.5q-25 0 -42.5 14.5t-17.5 44.5zM432 856q0 32 17.5 46t42.5 14q24 0 42.5 -14t18.5 -46q0 -30 -18.5 -44.5t-42.5 -14.5q-25 0 -42.5 14.5t-17.5 44.5z
" />
    <glyph glyph-name="uni04E7" unicode="&#x4e7;" horiz-adv-x="614" 
d="M565 272q0 -135 -70 -208.5t-190 -73.5q-74 0 -132 33t-91 96t-33 153q0 135 69.5 207.5t189.5 72.5q75 0 133 -32.5t91 -95t33 -152.5zM178 272q0 -86 30.5 -133t98.5 -47t98.5 47t30.5 133t-30.5 132t-99.5 46q-67 0 -97.5 -46t-30.5 -132zM150 684q0 32 17.5 46
t42.5 14q24 0 42.5 -14t18.5 -46q0 -30 -18.5 -44.5t-42.5 -14.5q-25 0 -42.5 14.5t-17.5 44.5zM344 684q0 32 17.5 46t42.5 14q24 0 42.5 -14t18.5 -46q0 -30 -18.5 -44.5t-42.5 -14.5q-25 0 -42.5 14.5t-17.5 44.5z" />
    <glyph glyph-name="uni04E8" unicode="&#x4e8;" horiz-adv-x="791" 
d="M731 358q0 -111 -36.5 -193.5t-111.5 -128.5t-188 -46q-114 0 -188.5 46t-111 129t-36.5 194q0 110 36.5 192.5t111 128t189.5 45.5q113 0 187.5 -45.5t111 -128t36.5 -193.5zM396 617q-92 0 -141 -52.5t-60 -145.5h399q-11 93 -58.5 145.5t-139.5 52.5zM395 99
q96 0 144.5 56t56.5 156h-402q8 -100 57 -156t144 -56z" />
    <glyph glyph-name="uni04E9" unicode="&#x4e9;" horiz-adv-x="614" 
d="M565 272q0 -135 -70 -208.5t-190 -73.5q-74 0 -132 33t-91 96t-33 153q0 135 69.5 207.5t189.5 72.5q75 0 133 -32.5t91 -95t33 -152.5zM306 450q-58 0 -88.5 -32.5t-38.5 -96.5h255q-14 129 -128 129zM307 92q60 0 90.5 34.5t36.5 102.5h-255q6 -68 37.5 -102.5
t90.5 -34.5z" />
    <glyph glyph-name="uni04EA" unicode="&#x4ea;" horiz-adv-x="791" 
d="M731 358q0 -111 -36.5 -193.5t-111.5 -128.5t-188 -46q-114 0 -188.5 46t-111 129t-36.5 194q0 110 36.5 192.5t111 128t189.5 45.5q113 0 187.5 -45.5t111 -128t36.5 -193.5zM396 617q-92 0 -141 -52.5t-60 -145.5h399q-11 93 -58.5 145.5t-139.5 52.5zM395 99
q96 0 144.5 56t56.5 156h-402q8 -100 57 -156t144 -56zM239 849q0 32 17.5 46t42.5 14q24 0 42.5 -14t18.5 -46q0 -30 -18.5 -44.5t-42.5 -14.5q-25 0 -42.5 14.5t-17.5 44.5zM433 849q0 32 17.5 46t42.5 14q24 0 42.5 -14t18.5 -46q0 -30 -18.5 -44.5t-42.5 -14.5
q-25 0 -42.5 14.5t-17.5 44.5z" />
    <glyph glyph-name="uni04EB" unicode="&#x4eb;" horiz-adv-x="614" 
d="M565 272q0 -135 -70 -208.5t-190 -73.5q-74 0 -132 33t-91 96t-33 153q0 135 69.5 207.5t189.5 72.5q75 0 133 -32.5t91 -95t33 -152.5zM306 450q-58 0 -88.5 -32.5t-38.5 -96.5h255q-14 129 -128 129zM307 92q60 0 90.5 34.5t36.5 102.5h-255q6 -68 37.5 -102.5
t90.5 -34.5zM149 684q0 32 17.5 46t42.5 14q24 0 42.5 -14t18.5 -46q0 -30 -18.5 -44.5t-42.5 -14.5q-25 0 -42.5 14.5t-17.5 44.5zM343 684q0 32 17.5 46t42.5 14q24 0 42.5 -14t18.5 -46q0 -30 -18.5 -44.5t-42.5 -14.5q-25 0 -42.5 14.5t-17.5 44.5z" />
    <glyph glyph-name="uni04EC" unicode="&#x4ec;" horiz-adv-x="652" 
d="M256 616q-49 0 -94 -13t-85 -30l-44 104q48 22 105 34.5t120 12.5q109 0 183.5 -44.5t112.5 -126t38 -192.5q0 -113 -37 -196t-114 -129t-194 -46q-62 0 -109 8t-95 26v109q52 -16 98.5 -25.5t94.5 -9.5q105 0 161 54.5t60 159.5h-324v107h323q-5 93 -59 145t-141 52z
M102 856q0 32 17.5 46t42.5 14q24 0 42.5 -14t18.5 -46q0 -30 -18.5 -44.5t-42.5 -14.5q-25 0 -42.5 14.5t-17.5 44.5zM296 856q0 32 17.5 46t42.5 14q24 0 42.5 -14t18.5 -46q0 -30 -18.5 -44.5t-42.5 -14.5q-25 0 -42.5 14.5t-17.5 44.5z" />
    <glyph glyph-name="uni04ED" unicode="&#x4ed;" horiz-adv-x="505" 
d="M192 -10q-50 0 -88 8t-71 24v101q34 -15 72.5 -25.5t81.5 -10.5q62 0 98 34t41 110h-228v89h228q-10 135 -127 135q-33 0 -66 -9t-60 -20l-36 90q31 14 74.5 25t91.5 11q73 0 130 -26t90 -86.5t33 -164.5q0 -146 -71 -215.5t-193 -69.5zM61 684q0 32 17.5 46t42.5 14
q24 0 42.5 -14t18.5 -46q0 -30 -18.5 -44.5t-42.5 -14.5q-25 0 -42.5 14.5t-17.5 44.5zM255 684q0 32 17.5 46t42.5 14q24 0 42.5 -14t18.5 -46q0 -30 -18.5 -44.5t-42.5 -14.5q-25 0 -42.5 14.5t-17.5 44.5z" />
    <glyph glyph-name="uni04EE" unicode="&#x4ee;" horiz-adv-x="648" 
d="M425 207q-31 -70 -64 -118.5t-82 -73.5t-127 -25q-27 0 -55.5 4t-52.5 11v115q22 -10 49 -14.5t52 -4.5q52 0 78.5 24t44.5 69l-258 520h137l158 -341q6 -13 16.5 -36t15.5 -40h5q5 15 14.5 39t16.5 42l142 336h133zM493 869v-91h-318v91h318z" />
    <glyph glyph-name="uni04EF" unicode="&#x4ef;" horiz-adv-x="547" 
d="M0 542h137l108 -306q11 -29 18 -57t10 -57h4q4 25 12 55t18 59l104 306h136l-231 -614q-31 -81 -84.5 -124.5t-131.5 -43.5q-25 0 -43 2.5t-32 5.5v100q11 -2 26.5 -4t32.5 -2q47 0 74.5 27.5t42.5 68.5l16 44zM433 697v-91h-318v91h318z" />
    <glyph glyph-name="uni04F0" unicode="&#x4f0;" horiz-adv-x="648" 
d="M425 207q-31 -70 -64 -118.5t-82 -73.5t-127 -25q-27 0 -55.5 4t-52.5 11v115q22 -10 49 -14.5t52 -4.5q52 0 78.5 24t44.5 69l-258 520h137l158 -341q6 -13 16.5 -36t15.5 -40h5q5 15 14.5 39t16.5 42l142 336h133zM176 856q0 32 17.5 46t42.5 14q24 0 42.5 -14
t18.5 -46q0 -30 -18.5 -44.5t-42.5 -14.5q-25 0 -42.5 14.5t-17.5 44.5zM370 856q0 32 17.5 46t42.5 14q24 0 42.5 -14t18.5 -46q0 -30 -18.5 -44.5t-42.5 -14.5q-25 0 -42.5 14.5t-17.5 44.5z" />
    <glyph glyph-name="uni04F1" unicode="&#x4f1;" horiz-adv-x="547" 
d="M0 542h137l108 -306q11 -29 18 -57t10 -57h4q4 25 12 55t18 59l104 306h136l-231 -614q-31 -81 -84.5 -124.5t-131.5 -43.5q-25 0 -43 2.5t-32 5.5v100q11 -2 26.5 -4t32.5 -2q47 0 74.5 27.5t42.5 68.5l16 44zM116 684q0 32 17.5 46t42.5 14q24 0 42.5 -14t18.5 -46
q0 -30 -18.5 -44.5t-42.5 -14.5q-25 0 -42.5 14.5t-17.5 44.5zM310 684q0 32 17.5 46t42.5 14q24 0 42.5 -14t18.5 -46q0 -30 -18.5 -44.5t-42.5 -14.5q-25 0 -42.5 14.5t-17.5 44.5z" />
    <glyph glyph-name="uni04F2" unicode="&#x4f2;" horiz-adv-x="648" 
d="M425 207q-31 -70 -64 -118.5t-82 -73.5t-127 -25q-27 0 -55.5 4t-52.5 11v115q22 -10 49 -14.5t52 -4.5q52 0 78.5 24t44.5 69l-258 520h137l158 -341q6 -13 16.5 -36t15.5 -40h5q5 15 14.5 39t16.5 42l142 336h133zM605 928q-8 -13 -25.5 -33t-40 -42t-45.5 -41.5
t-41 -33.5h-68v13q14 19 31.5 44.5t33.5 53t27 49.5h128v-10zM418 928q-8 -13 -26 -33t-40.5 -42t-45 -41.5t-40.5 -33.5h-68v13q14 19 31 44.5t33 53t28 49.5h128v-10z" />
    <glyph glyph-name="uni04F3" unicode="&#x4f3;" horiz-adv-x="547" 
d="M0 542h137l108 -306q11 -29 18 -57t10 -57h4q4 25 12 55t18 59l104 306h136l-231 -614q-31 -81 -84.5 -124.5t-131.5 -43.5q-25 0 -43 2.5t-32 5.5v100q11 -2 26.5 -4t32.5 -2q47 0 74.5 27.5t42.5 68.5l16 44zM545 756q-8 -13 -25.5 -33t-40 -42t-45.5 -41.5t-41 -33.5
h-68v13q14 19 31.5 44.5t33.5 53t27 49.5h128v-10zM358 756q-8 -13 -26 -33t-40.5 -42t-45 -41.5t-40.5 -33.5h-68v13q14 19 31 44.5t33 53t28 49.5h128v-10z" />
    <glyph glyph-name="uni04F4" unicode="&#x4f4;" horiz-adv-x="717" 
d="M624 0h-128v282q-61 -21 -113 -32.5t-108 -11.5q-100 0 -156 48t-56 137v291h128v-260q0 -54 26.5 -81t87.5 -27q49 0 92.5 10t98.5 28v330h128v-714zM184 856q0 32 17.5 46t42.5 14q24 0 42.5 -14t18.5 -46q0 -30 -18.5 -44.5t-42.5 -14.5q-25 0 -42.5 14.5t-17.5 44.5z
M378 856q0 32 17.5 46t42.5 14q24 0 42.5 -14t18.5 -46q0 -30 -18.5 -44.5t-42.5 -14.5q-25 0 -42.5 14.5t-17.5 44.5z" />
    <glyph glyph-name="uni04F5" unicode="&#x4f5;" horiz-adv-x="640" 
d="M191 344q0 -79 80 -79q46 0 84.5 12t77.5 31v234h126v-542h-126v225q-39 -22 -83.5 -38t-102.5 -16q-84 0 -133 43.5t-49 125.5v202h126v-198zM155 684q0 32 17.5 46t42.5 14q24 0 42.5 -14t18.5 -46q0 -30 -18.5 -44.5t-42.5 -14.5q-25 0 -42.5 14.5t-17.5 44.5z
M349 684q0 32 17.5 46t42.5 14q24 0 42.5 -14t18.5 -46q0 -30 -18.5 -44.5t-42.5 -14.5q-25 0 -42.5 14.5t-17.5 44.5z" />
    <glyph glyph-name="uni04F6" unicode="&#x4f6;" horiz-adv-x="549" 
d="M528 714v-108h-307v-495h123v-311h-123v200h-128v714h435z" />
    <glyph glyph-name="uni04F7" unicode="&#x4f7;" horiz-adv-x="461" 
d="M438 542v-97h-231v-350h113v-287h-116v192h-123v542h357z" />
    <glyph glyph-name="uni04F8" unicode="&#x4f8;" horiz-adv-x="888" 
d="M93 0v714h128v-285h72q99 0 160.5 -27.5t90 -75.5t28.5 -108q0 -102 -66.5 -160t-211.5 -58h-201zM667 0v714h128v-714h-128zM288 106q74 0 113.5 26t39.5 86q0 61 -41 82.5t-121 21.5h-58v-216h67zM286 856q0 32 17.5 46t42.5 14q24 0 42.5 -14t18.5 -46
q0 -30 -18.5 -44.5t-42.5 -14.5q-25 0 -42.5 14.5t-17.5 44.5zM480 856q0 32 17.5 46t42.5 14q24 0 42.5 -14t18.5 -46q0 -30 -18.5 -44.5t-42.5 -14.5q-25 0 -42.5 14.5t-17.5 44.5z" />
    <glyph glyph-name="uni04F9" unicode="&#x4f9;" horiz-adv-x="823" 
d="M81 0v542h126v-214h97q117 0 173 -39.5t56 -118.5q0 -78 -53 -124t-174 -46h-225zM616 0v542h126v-542h-126zM298 91q48 0 79 17t31 59q0 38 -28.5 53.5t-82.5 15.5h-90v-145h91zM253 684q0 32 17.5 46t42.5 14q24 0 42.5 -14t18.5 -46q0 -30 -18.5 -44.5t-42.5 -14.5
q-25 0 -42.5 14.5t-17.5 44.5zM447 684q0 32 17.5 46t42.5 14q24 0 42.5 -14t18.5 -46q0 -30 -18.5 -44.5t-42.5 -14.5q-25 0 -42.5 14.5t-17.5 44.5z" />
    <glyph glyph-name="uni04FA" unicode="&#x4fa;" horiz-adv-x="548" 
d="M188 -224q-21 0 -42.5 3.5t-35.5 8.5v100q12 -4 25.5 -6.5t29.5 -2.5q24 0 39.5 15.5t15.5 56.5v49h-127v300h-70v106h70v308h434v-107h-306v-201h199v-106h-199v-192h119v-169q0 -71 -35.5 -117t-116.5 -46z" />
    <glyph glyph-name="uni04FB" unicode="&#x4fb;" horiz-adv-x="470" 
d="M174 -218q-21 0 -39.5 4t-32.5 9v92q10 -3 22.5 -6t26.5 -3q24 0 36.5 12.5t12.5 43.5v66h-125v215h-71v97h71v230h372v-103h-246v-127h164v-97h-164v-121h106v-158q0 -154 -133 -154z" />
    <glyph glyph-name="uni04FC" unicode="&#x4fc;" horiz-adv-x="694" 
d="M522 -224q-22 0 -43.5 3.5t-35.5 8.5v100q13 -4 26 -6.5t29 -2.5q24 0 40 15.5t16 56.5v49h-65l-175 285l-176 -285h-136l237 370l-222 344h141l162 -266l161 266h137l-223 -349l168 -257h110v-169q0 -71 -35.5 -117t-115.5 -46z" />
    <glyph glyph-name="uni04FD" unicode="&#x4fd;" horiz-adv-x="609" 
d="M450 -218q-22 0 -40.5 4t-32.5 9v92q10 -3 22.5 -6t26.5 -3q24 0 36.5 12.5t12.5 43.5v66h-68l-127 197l-127 -197h-143l188 277l-179 265h143l118 -184l118 184h143l-181 -265l126 -183h96v-158q0 -154 -132 -154z" />
    <glyph glyph-name="uni04FE" unicode="&#x4fe;" horiz-adv-x="636" 
d="M57 423h147l-187 291h141l162 -266l160 266h138l-186 -291h147v-107h-151l207 -316h-146l-175 285l-176 -285h-137l202 316h-146v107z" />
    <glyph glyph-name="uni04FF" unicode="&#x4ff;" horiz-adv-x="560" 
d="M52 324h115l-148 218h143l118 -184l118 184h143l-150 -218h117v-96h-115l157 -228h-143l-127 197l-127 -197h-143l156 228h-114v96z" />
    <glyph glyph-name="uni0500" unicode="&#x500;" horiz-adv-x="629" 
d="M334 0q-150 0 -216.5 56t-66.5 157q0 61 29 110t91.5 77.5t162.5 28.5h79v285h128v-714h-207zM343 106h70v217h-63q-82 0 -125 -24t-43 -83t40.5 -84.5t120.5 -25.5z" />
    <glyph glyph-name="uni0501" unicode="&#x501;" horiz-adv-x="626" 
d="M260 -10q-95 0 -153 71t-58 209q0 140 59 211t155 71q60 0 98.5 -23t61.5 -56h6q-3 14 -6 43t-3 54v190h126v-760h-98l-23 71h-5q-23 -34 -61 -57.5t-99 -23.5zM298 92q70 0 98.5 40t29.5 121v16q0 87 -27.5 133.5t-102.5 46.5q-58 0 -88.5 -47.5t-30.5 -133.5t31 -131
t90 -45z" />
    <glyph glyph-name="uni0502" unicode="&#x502;" horiz-adv-x="917" 
d="M520 179q2 -82 92 -82q91 0 91 108v209h127v-231q0 -95 -58.5 -144t-160.5 -49q-55 0 -99 20t-65 53q-23 -33 -64.5 -52.5t-102.5 -19.5q-114 0 -171.5 56t-57.5 161q0 63 29.5 113t91.5 79t159 29h61v285h128v-535zM344 322q-78 0 -120 -25t-42 -91q0 -56 28.5 -82.5
t78.5 -26.5q51 0 77 22t26 57v146h-48z" />
    <glyph glyph-name="uni0503" unicode="&#x503;" horiz-adv-x="914" 
d="M530 192q0 -47 20.5 -72t71.5 -25q47 0 68.5 28t21.5 86v133h125v-157q0 -101 -57 -148t-158 -47q-67 0 -102.5 20t-60.5 58q-26 -34 -72.5 -56t-99.5 -22q-111 0 -175 71t-64 209q0 139 57 210.5t149 71.5q58 0 95 -23t59 -56h5q-3 17 -5.5 47t-2.5 50v190h125v-568z
M289 449q-58 0 -85 -46.5t-27 -134.5t27.5 -132t85.5 -44q66 0 93 40t28 121v16q0 87 -26 133.5t-96 46.5z" />
    <glyph glyph-name="uni0504" unicode="&#x504;" horiz-adv-x="910" 
d="M256 724q110 0 173.5 -46.5t63.5 -125.5q0 -74 -45 -118t-112 -58v-3q85 -11 130 -53.5t45 -114.5q1 -49 20 -78t73 -29q49 0 71 26.5t22 84.5v205h126v-229q0 -101 -59 -148t-160 -47q-105 0 -163.5 53t-58.5 159q0 56 -46 87t-147 31h-88v94h86q98 0 138.5 32.5
t40.5 80.5q0 45 -30.5 69t-87.5 24q-54 0 -93.5 -16.5t-69.5 -36.5l-64 85q41 31 100 51.5t135 20.5z" />
    <glyph glyph-name="uni0505" unicode="&#x505;" horiz-adv-x="847" 
d="M241 552q57 0 104.5 -15.5t76 -47.5t28.5 -80q0 -49 -27 -78t-73 -42v-5q53 -9 83.5 -37t31.5 -77q0 -34 21.5 -54t70.5 -20q46 0 67 27.5t21 85.5v133h125v-157q0 -101 -56 -148t-157 -47q-99 0 -157.5 38t-59.5 112q-1 51 -38 74t-103 23h-72v91h65q68 0 105.5 14.5
t37.5 52.5q0 61 -109 61q-37 0 -77.5 -9t-78.5 -25l-38 91q44 18 92.5 28.5t116.5 10.5z" />
    <glyph glyph-name="uni0506" unicode="&#x506;" horiz-adv-x="675" 
d="M265 724q114 0 180 -46.5t66 -125.5q0 -74 -45.5 -117.5t-114.5 -58.5v-3q87 -11 132.5 -53.5t45.5 -113.5v-95h125v-311h-123v200h-129v206q0 53 -50 83.5t-159 30.5h-93v94h94q104 0 147.5 32.5t43.5 80.5q0 44 -32.5 68.5t-93.5 24.5q-57 0 -99.5 -16.5t-74.5 -36.5
l-64 85q43 31 104 51.5t140 20.5z" />
    <glyph glyph-name="uni0507" unicode="&#x507;" horiz-adv-x="614" 
d="M254 552q59 0 108 -16t78 -48t29 -80q0 -49 -27.5 -77.5t-73.5 -41.5v-5q32 -9 58.5 -23.5t42.5 -40t16 -66.5v-59h114v-287h-115v192h-121v155q0 81 -152 81h-78v92h70q72 0 112.5 14.5t40.5 51.5q0 62 -114 62q-40 0 -83 -9t-82 -26l-39 91q45 19 97.5 29.5t118.5 10.5
z" />
    <glyph glyph-name="uni0508" unicode="&#x508;" horiz-adv-x="1015" 
d="M619 185q1 -46 23 -66.5t69 -20.5t69 27t22 84v205h126v-229q0 -101 -59 -148t-158 -47q-65 0 -114.5 19t-77.5 62t-28 113v421h-175q-6 -49 -13.5 -105.5l-15 -113t-15.5 -107.5t-16 -89q-13 -64 -34 -109t-56 -68t-91 -23q-19 0 -37 3t-33 8v106q12 -6 25 -9t29 -3
q35 0 51 38.5t31 112.5q7 35 18 105t24.5 163.5t26.5 199.5h409v-529z" />
    <glyph glyph-name="uni0509" unicode="&#x509;" horiz-adv-x="906" 
d="M526 186q0 -47 22 -68.5t69 -21.5q46 0 67 27.5t21 85.5v133h124v-157q0 -101 -56 -148t-155 -47t-158.5 45.5t-59.5 148.5v261h-133q-13 -163 -35 -263t-60 -145t-99 -45q-43 0 -70 12v99q19 -7 40 -7t38.5 22t32 73t26 137t20.5 214h366v-356z" />
    <glyph glyph-name="uni050A" unicode="&#x50a;" horiz-adv-x="1032" 
d="M643 188q0 -47 21 -68.5t67 -21.5t67.5 26.5t21.5 84.5v205h126v-229q0 -101 -58.5 -148t-156.5 -47q-63 0 -111.5 19t-76 62t-28.5 113v133h-294v-317h-128v714h128v-288h294v288h128v-526z" />
    <glyph glyph-name="uni050B" unicode="&#x50b;" horiz-adv-x="939" 
d="M207 542v-215h229v215h126v-357q0 -89 89 -89q44 0 65 27.5t21 85.5v133h125v-157q0 -101 -56 -148t-155 -47q-97 0 -156 45.5t-59 148.5v46h-229v-230h-126v542h126z" />
    <glyph glyph-name="uni050C" unicode="&#x50c;" horiz-adv-x="785" 
d="M409 389h319v-53q0 -103 -31 -180.5t-100 -121.5t-185 -44q-167 0 -260 96t-93 272q0 111 42.5 193.5t123.5 127.5t196 45q72 0 130.5 -13.5t105.5 -35.5l-46 -105q-35 16 -83 31t-114 15q-74 0 -123.5 -33.5t-74 -92t-24.5 -134.5t23.5 -134t72.5 -91t127 -33
q68 0 107.5 26t55.5 68t15 89h-184v108z" />
    <glyph glyph-name="uni050D" unicode="&#x50d;" horiz-adv-x="655" 
d="M328 309h279v-41q0 -79 -25.5 -142t-85 -99.5t-161.5 -36.5q-136 0 -211 72.5t-75 205.5q0 135 78.5 209.5t224.5 74.5q57 0 108.5 -11t91.5 -30l-39 -97q-29 14 -73 25t-89 11q-95 0 -134.5 -50.5t-39.5 -132.5q0 -78 35.5 -127t120.5 -49q79 0 112.5 36t33.5 86h-151
v96z" />
    <glyph glyph-name="uni050E" unicode="&#x50e;" horiz-adv-x="742" 
d="M551 714v-109h-205v-418q0 -47 22 -68.5t69 -21.5t69 27t22 85v205h127v-229q0 -101 -59 -148t-158 -47q-64 0 -113.5 19t-78 61.5t-28.5 112.5v422h-202v109h535z" />
    <glyph glyph-name="uni050F" unicode="&#x50f;" horiz-adv-x="705" 
d="M499 542v-97h-176v-258q0 -47 22 -69t70 -22q45 0 66.5 27t21.5 85v134h124v-157q0 -101 -56 -148t-156 -47q-98 0 -158 45.5t-60 148.5v261h-175v97h477z" />
    <glyph glyph-name="uni0510" unicode="&#x510;" horiz-adv-x="626" 
d="M326 724q86 0 145.5 -18.5t110.5 -52.5l-59 -94q-42 27 -88.5 42.5t-104.5 15.5q-65 0 -100 -23t-35 -66q0 -50 47 -78.5t164 -28.5h76v-101h-80q-104 0 -165 -27t-61 -84q0 -112 172 -112q62 0 122.5 12t106.5 34v-114q-45 -19 -104 -29t-134 -10q-142 0 -217 58
t-75 152q0 72 50 117.5t140 55.5v3q-75 11 -121.5 54.5t-46.5 115.5q0 52 31 92t89 63t137 23z" />
    <glyph glyph-name="uni0511" unicode="&#x511;" horiz-adv-x="528" 
d="M389 328v-91h-78q-77 0 -111.5 -19.5t-34.5 -57.5q0 -71 135 -71q59 0 108 13t83 29v-103q-35 -17 -85 -27.5t-115 -10.5q-131 0 -191 44t-60 115q0 60 36 89.5t92 41.5v5q-103 26 -103 125q0 49 30 80.5t81 46.5t115 15q57 0 108.5 -10.5t92.5 -29.5l-41 -93
q-35 15 -72 26t-86 11q-113 0 -113 -60q0 -37 36 -52.5t105 -15.5h68z" />
    <glyph glyph-name="uni0512" unicode="&#x512;" horiz-adv-x="778" 
d="M606 -224q-22 0 -43.5 3.5t-35.5 8.5v100q12 -4 25.5 -6.5t29.5 -2.5q24 0 39.5 15.5t15.5 56.5v49h-127v606h-194q-6 -50 -13 -106.5t-15 -113t-16 -107t-16 -88.5q-13 -65 -33.5 -110t-56 -68t-91.5 -23q-38 0 -70 11v106q13 -5 26 -8t28 -3q35 0 51.5 38.5t30.5 111.5
q7 34 18 104t24.5 164t26.5 200h428v-606h119v-169q0 -71 -35.5 -117t-115.5 -46z" />
    <glyph glyph-name="uni0513" unicode="&#x513;" horiz-adv-x="672" 
d="M513 -218q-22 0 -40.5 4t-32.5 9v92q10 -3 22.5 -6t26.5 -3q24 0 36.5 12.5t12.5 43.5v66h-125v445h-145q-14 -163 -36 -263t-60 -145.5t-99 -45.5q-44 0 -70 13v99q18 -8 40 -8q21 0 38.5 22t32 73t26 137.5t20.5 214.5h379v-448h106v-158q0 -154 -132 -154z" />
    <glyph glyph-name="uni0514" unicode="&#x514;" horiz-adv-x="990" 
d="M75 -10q-19 0 -37 3t-33 8v106q12 -6 25 -9t29 -3q35 0 51 38.5t31 112.5q7 35 18 105t24.5 163.5t26.5 199.5h302l162 -266l160 266h138l-223 -349l240 -365h-147l-174 285l-176 -285h-137l237 370l-152 235h-124q-6 -49 -13.5 -105.5l-15 -113t-15.5 -107.5t-16 -89
q-13 -64 -34 -109t-56 -68t-91 -23z" />
    <glyph glyph-name="uni0515" unicode="&#x515;" horiz-adv-x="854" 
d="M73 -8q-43 0 -70 12v99q19 -7 40 -7t38.5 22t32 73t26 137t20.5 214h296l118 -184l119 184h142l-180 -265l189 -277h-143l-127 197l-127 -197h-143l189 277l-114 168h-112q-13 -164 -35 -263.5t-60 -144.5t-99 -45z" />
    <glyph glyph-name="uni0516" unicode="&#x516;" horiz-adv-x="844" 
d="M93 0v714h213q132 0 194 -51.5t69 -147.5l122 199h137l-225 -349l239 -365h-146l-196 324q-33 -28 -84.5 -44.5t-123.5 -16.5h-71v-263h-128zM279 369q78 0 120.5 28.5t42.5 93.5q0 59 -35 88t-109 29h-77v-239h58z" />
    <glyph glyph-name="uni0517" unicode="&#x517;" horiz-adv-x="845" 
d="M81 -240v782h102l18 -72h6q22 34 60 58t99 24q78 0 131.5 -47.5t71.5 -141.5l115 179h142l-181 -265l190 -277h-143l-122 189q-17 -98 -72 -148.5t-135 -50.5q-60 0 -97 22t-59 51h-8q2 -18 5 -43t3 -39v-221h-126zM332 93q59 0 87.5 48.5t28.5 132.5t-28.5 130t-89.5 46
q-67 0 -94.5 -40t-28.5 -121v-16q0 -87 26.5 -133.5t98.5 -46.5z" />
    <glyph glyph-name="uni0518" unicode="&#x518;" horiz-adv-x="896" 
d="M207 313q-32 12 -63 35.5t-50.5 63t-19.5 100.5q0 98 69 150t200 52h494v-107h-279v-182h261v-107h-261v-210h279v-108h-402v282h-112l-174 -282h-144zM351 388h84v220h-88q-69 0 -106 -24.5t-37 -80.5q0 -54 36 -84.5t111 -30.5z" />
    <glyph glyph-name="uni0519" unicode="&#x519;" horiz-adv-x="896" 
d="M635 -10q-106 0 -176.5 54t-86.5 163h-99l-128 -207h-139l149 219q-29 10 -55 30t-42 51.5t-16 76.5q0 80 58 122.5t151 42.5h234v-47q25 28 62.5 42.5t78.5 14.5q67 0 117 -29t78.5 -84t28.5 -133v-64h-358q2 -74 41 -114.5t108 -40.5q52 0 94 10.5t86 30.5v-101
q-41 -19 -83.5 -28t-102.5 -9zM728 330q-1 56 -28.5 92.5t-85.5 36.5q-51 0 -82.5 -32.5t-36.5 -96.5h233zM274 297h96v152h-114q-48 0 -69.5 -21t-21.5 -52q0 -39 29.5 -59t79.5 -20z" />
    <glyph glyph-name="uni051A" unicode="&#x51a;" horiz-adv-x="790" 
d="M731 358q0 -124 -46.5 -213.5t-141.5 -127.5l172 -187h-170l-133 160h-8.5h-8.5q-114 0 -188.5 46t-111 129t-36.5 194q0 110 36.5 192.5t111 128t189.5 45.5q113 0 187.5 -45.5t111 -128t36.5 -193.5zM194 358q0 -121 48 -190t153 -69q106 0 153.5 69t47.5 190t-47 190
t-153 69q-105 0 -153.5 -69t-48.5 -190z" />
    <glyph glyph-name="uni051B" unicode="&#x51b;" horiz-adv-x="626" 
d="M420 -11q0 19 1 41t4 41h-6q-22 -34 -60 -57.5t-100 -23.5q-94 0 -152 71t-58 209q0 139 59 210.5t154 71.5q61 0 99.5 -23.5t62.5 -57.5h4l13 71h105v-782h-126v229zM299 90q69 0 97.5 40t29.5 121v18q0 88 -28 134t-101 46q-61 0 -90 -47.5t-29 -133.5
q0 -87 29.5 -132.5t91.5 -45.5z" />
    <glyph glyph-name="uni051C" unicode="&#x51c;" horiz-adv-x="953" 
d="M948 714l-185 -714h-141l-113 410q-6 20 -13 51.5t-13 61.5t-8 44q-2 -14 -7.5 -43.5t-13 -61.5t-13.5 -54l-110 -408h-142l-184 714h128l98 -407q7 -26 13.5 -59t12.5 -65.5t9 -56.5q3 25 9 58t13 64.5t13 53.5l112 412h124l114 -413q7 -22 14 -54.5t13 -64.5t9 -56
q3 25 8.5 57t12.5 65t14 59l98 407h128z" />
    <glyph glyph-name="uni051D" unicode="&#x51d;" horiz-adv-x="830" 
d="M465 233q-5 19 -12 47.5t-14.5 59.5t-13.5 57t-9 40h-4q-3 -14 -9 -40t-13 -57.5t-14.5 -60l-12.5 -47.5l-63 -232h-138l-152 543h127l67 -259q7 -27 13.5 -59.5t11 -63t7.5 -49.5h4q2 18 7.5 49t11.5 60.5t10 44.5l78 277h138l75 -277q4 -18 10.5 -47t11.5 -58.5
t6 -47.5h4q2 16 7 46t12 64t15 61l68 259h125l-154 -543h-140z" />
    <glyph glyph-name="uni051E" unicode="&#x51e;" horiz-adv-x="652" 
d="M652 0h-148l-283 362v-362h-128v714h128v-346l154 191l-92 94l64 62l84 -86l68 85h139l-131 -162l106 -107l-65 -62l-98 99l-91 -113z" />
    <glyph glyph-name="uni051F" unicode="&#x51f;" horiz-adv-x="585" 
d="M262 496l59 56l60 -62l42 52h139l-108 -127l79 -81l-59 -57l-73 76l-60 -71l240 -282h-144l-230 275v-275h-126v542h126v-263l122 148z" />
    <glyph glyph-name="uni0520" unicode="&#x520;" horiz-adv-x="1075" 
d="M766 -250q-52 0 -85 6t-66 17v113q31 -11 62 -17t65 -6q79 0 120 56t41 151q0 63 -19.5 104t-53 64.5t-74.5 33t-83 9.5q-17 0 -37.5 -1.5t-36.5 -4.5v-275h-128v606h-154q-6 -50 -13.5 -106.5t-15.5 -113t-16 -107t-16 -88.5q-13 -65 -33.5 -110t-56 -68t-91.5 -23
q-37 0 -70 11v106q13 -5 26 -8t28 -3q35 0 51.5 38t30.5 112q7 35 18 105t24.5 163.5t26.5 199.5h389v-323q29 3 59.5 4.5t55.5 1.5q62 0 119 -19t101.5 -58t70 -101.5t25.5 -148.5q0 -107 -36 -178t-96 -106.5t-132 -35.5z" />
    <glyph glyph-name="uni0521" unicode="&#x521;" horiz-adv-x="854" 
d="M590 -245q-34 0 -64 6t-59 21v109q22 -13 51 -20.5t57 -7.5q55 0 89 40.5t34 129.5q0 81 -36.5 125.5t-114.5 44.5q-18 0 -34 -3v-200h-126v445h-120q-13 -164 -35 -263.5t-60 -145t-99 -45.5q-44 0 -70 13v98q19 -7 39 -7q22 0 39.5 22t32 73t26 137.5t20.5 214.5h353
v-233q12 1 24.5 2t25.5 1q75 0 133.5 -30.5t91.5 -93t33 -157.5q0 -96 -31.5 -157t-84 -90t-115.5 -29z" />
    <glyph glyph-name="uni0522" unicode="&#x522;" horiz-adv-x="1130" 
d="M654 391q28 3 58.5 4.5t56.5 1.5q62 0 118.5 -19t101 -58t70.5 -101.5t26 -148.5q0 -107 -36 -178t-96 -106.5t-133 -35.5q-51 0 -84.5 6t-66.5 17v113q31 -11 62 -17t66 -6q79 0 119.5 56t40.5 151q0 63 -19.5 104t-52.5 64.5t-74 33t-84 9.5q-16 0 -36.5 -1.5
t-36.5 -4.5v-275h-128v317h-305v-317h-128v714h128v-288h305v288h128v-323z" />
    <glyph glyph-name="uni0523" unicode="&#x523;" horiz-adv-x="899" 
d="M633 -245q-34 0 -64 6t-59 21v109q22 -13 51.5 -20.5t57.5 -7.5q55 0 89 40.5t34 129.5q0 81 -37 125.5t-114 44.5q-19 0 -35 -3v-200h-126v230h-223v-230h-126v542h126v-215h223v215h126v-233q13 1 25.5 2t25.5 1q75 0 133 -30.5t91.5 -93t33.5 -157.5q0 -96 -31.5 -157
t-84 -90t-116.5 -29z" />
    <glyph glyph-name="uni0524" unicode="&#x524;" horiz-adv-x="792" 
d="M647 -200v200h-128v606h-298v-606h-128v714h554v-603h123v-311h-123z" />
    <glyph glyph-name="uni0525" unicode="&#x525;" horiz-adv-x="692" 
d="M674 96v-288h-117v192h-123v444h-227v-444h-126v542h479v-446h114z" />
    <glyph glyph-name="uni0526" unicode="&#x526;" horiz-adv-x="799" 
d="M653 -200v200h-127v260q0 54 -26.5 81t-88.5 27q-48 0 -92 -10t-98 -28v-330h-128v714h128v-282q61 21 114 32.5t107 11.5q100 0 155.5 -48t55.5 -137v-180h124v-311h-124z" />
    <glyph glyph-name="uni0527" unicode="&#x527;" horiz-adv-x="697" 
d="M562 -192v192h-123v328q0 122 -100 122q-76 0 -104 -48t-28 -137v-265h-126v760h126v-181q0 -32 -2 -60t-5 -48h8q26 41 68 61t93 20q92 0 144 -47t52 -152v-257h113v-288h-116z" />
    <glyph glyph-name="Enlefthookcy" unicode="&#x528;" horiz-adv-x="744" 
d="M88 -61v775h128v-289h313v289h128v-714h-128v318h-313v-380q0 -86 -44 -125.5t-120 -39.5q-24 0 -44 4.5t-31 9.5v99q9 -3 24 -6.5t31 -3.5q25 0 40.5 16t15.5 47z" />
    <glyph glyph-name="uni0529" unicode="&#x529;" horiz-adv-x="640" 
d="M40 -240q-23 0 -43.5 4t-34.5 9v100q14 -5 27 -7.5t30 -2.5q57 0 57 71v609h126v-215h236v215h126v-543h-126v232h-236v-296q0 -50 -15.5 -90t-51 -63t-95.5 -23z" />
    <glyph glyph-name="uni052A" unicode="&#x52a;" horiz-adv-x="1463" 
d="M622 714v-297h282v297h128v-346l278 346h139l-279 -345l293 -369h-148l-283 362v-362h-128v318h-282v-209h94v-309h-124v200h-463v-200h-124v309h55q63 116 111.5 269t67.5 336h383zM343 605q-6 -54 -19.5 -118t-33.5 -131t-44 -130.5t-51 -116.5h300v496h-152z" />
    <glyph glyph-name="uni052B" unicode="&#x52b;" horiz-adv-x="1257" 
d="M537 542v-216h216v216h126v-263l217 263h138l-221 -260l240 -282h-144l-230 275v-275h-126v237h-216v-141h79v-288h-116v192h-369v-192h-115v288h45q59 87 90.5 205t38.5 241h347zM297 446q-10 -95 -36 -187t-69 -163h220v350h-115z" />
    <glyph glyph-name="uni052C" unicode="&#x52c;" horiz-adv-x="737" 
d="M5 -203v310h109q19 31 36 67t32 75q-70 15 -107.5 59t-37.5 117v289h119v-262q0 -76 68 -97q27 87 44 179.5t22 179.5h340v-607h86v-310h-123v203h-464v-203h-124zM334 342q46 2 84 11t83 25v229h-116q-4 -63 -18 -131t-33 -134zM241 107h261v178q-109 -40 -202 -45
q-13 -36 -28 -70t-31 -63z" />
    <glyph glyph-name="uni052D" unicode="&#x52d;" horiz-adv-x="642" 
d="M16 -192v290h88q28 40 49 90q-68 14 -99.5 58.5t-31.5 123.5v173h104v-165q0 -39 13.5 -63.5t46.5 -34.5q18 59 29 125.5t15 137.5h318v-445h77v-290h-113v192h-384v-192h-112zM289 272q69 5 134 47v126h-105q-3 -46 -10.5 -89.5t-18.5 -83.5zM221 98h201v137
q-33 -22 -73.5 -35t-85.5 -16q-9 -22 -19.5 -44t-22.5 -42z" />
    <glyph glyph-name="uni052E" unicode="&#x52e;" horiz-adv-x="764" 
d="M744 107v-310h-124v203h-110v606h-194q-6 -50 -13 -106.5t-15 -113t-16 -107t-16 -88.5q-13 -65 -33.5 -110t-56 -68t-91.5 -23q-38 0 -70 11v106q13 -5 26 -8t28 -3q35 0 51.5 38.5t30.5 111.5q7 34 18 104t24.5 164t26.5 200h428v-607h106z" />
    <glyph glyph-name="uni052F" unicode="&#x52f;" horiz-adv-x="651" 
d="M635 93v-285h-112v192h-110v445h-145q-14 -163 -36 -263t-60 -145.5t-99 -45.5q-44 0 -70 13v99q18 -8 40 -8q21 0 38.5 22t32 73t26 137.5t20.5 214.5h379v-449h96z" />
    <glyph glyph-name="veroundedcy" unicode="&#x1c80;" horiz-adv-x="577" 
d="M534 157q0 -47 -22.5 -85t-69 -60t-117.5 -22q-134 0 -205.5 99.5t-71.5 282.5q0 118 38.5 207.5t108 139t162.5 49.5q80 0 121 -38t41 -92q0 -66 -49.5 -99.5t-121.5 -33.5q-80 0 -151 25q-22 -72 -23 -156q1 -47 6 -88q32 15 77 24.5t84 9.5q91 0 142 -43.5t51 -119.5z
M358 693q-41 0 -74.5 -25t-56.5 -67q29 -12 61 -17t58 -5q82 0 82 59q0 26 -18 40.5t-52 14.5zM325 232q-29 0 -65 -8.5t-61 -22.5q19 -53 50.5 -83t76.5 -30q52 0 74 19.5t22 50.5q0 35 -23.5 54.5t-73.5 19.5z" />
    <glyph glyph-name="delongleggedcy" unicode="&#x1c81;" horiz-adv-x="633" 
d="M537 542v-406h79v-376h-116v280h-369v-280h-115v376h45q59 79 90.5 186.5t38.5 219.5h347zM297 446q-10 -84 -36 -164.5t-69 -145.5h220v310h-115z" />
    <glyph glyph-name="onarrowcy" unicode="&#x1c82;" horiz-adv-x="477" 
d="M428 272q0 -103 -23.5 -165t-66 -89.5t-101.5 -27.5q-55 0 -97.5 27t-66.5 88.5t-24 166.5q0 103 23 164.5t65.5 88.5t102.5 27q54 0 96.5 -26.5t67 -88t24.5 -165.5zM178 272q0 -101 14.5 -140.5t46.5 -39.5q31 0 45.5 39.5t14.5 140.5t-14.5 139.5t-46.5 38.5
t-46 -38.5t-14 -139.5z" />
    <glyph glyph-name="eswidecy" unicode="&#x1c83;" horiz-adv-x="625" 
d="M374 -10q-153 0 -239 67t-86 211q0 100 40.5 162.5t114 92t170.5 29.5q68 0 123 -9.5t96 -24.5l-37 -99q-46 17 -92.5 23t-82.5 6q-106 0 -154.5 -45t-48.5 -134q0 -87 48 -131t140 -44q65 0 114 11t95 30v-109q-41 -18 -87 -27t-114 -9z" />
    <glyph glyph-name="tetallcy" unicode="&#x1c84;" horiz-adv-x="422" 
d="M374 714l-122 -714h-126l106 616h-301v98h443z" />
    <glyph glyph-name="tethreeleggedcy" unicode="&#x1c85;" horiz-adv-x="942" 
d="M81 0v542h780v-542h-126v445h-201v-445h-126v445h-201v-445h-126z" />
    <glyph glyph-name="hardsigntallcy" unicode="&#x1c86;" horiz-adv-x="651" 
d="M252 760v-432h121q120 0 178 -39.5t58 -118.5q0 -78 -54 -124t-178 -46h-251v662h-173v98h299zM370 236h-118v-145h121q49 0 79.5 17.5t30.5 58.5q0 38 -28 53.5t-85 15.5z" />
    <glyph glyph-name="yattallcy" unicode="&#x1c87;" horiz-adv-x="651" 
d="M252 760v-218h172v-97h-172v-118h122q120 0 178 -39t58 -118q0 -78 -54.5 -124t-178.5 -46h-251v445h-123v97h123v218h126zM369 236h-117v-145h119q50 0 81.5 17.5t31.5 58.5q0 38 -29 53.5t-86 15.5z" />
    <glyph glyph-name="ukunblendedcy" unicode="&#x1c88;" horiz-adv-x="631" 
d="M316 500l137 260h133l-173 -283q86 -23 128.5 -86t42.5 -151q0 -73 -29.5 -129.5t-89 -88.5t-149.5 -32q-91 0 -150.5 32t-88.5 88.5t-29 129.5q0 87 41 150t126 86l-170 284h133zM177 244q0 -69 33 -110.5t106 -41.5t106 41.5t33 110.5t-33.5 109.5t-104.5 40.5
q-74 0 -107 -41.5t-33 -108.5z" />
    <glyph glyph-name="uni20B4" unicode="&#x20b4;" horiz-adv-x="563" 
d="M293 -10q-120 0 -181.5 51t-61.5 147q0 33 9 59h-49v71h86q18 18 46 34t56 28t44 21h-232v70h352q12 13 17 28t5 37q0 37 -26.5 58.5t-79.5 21.5q-44 0 -85.5 -12t-85.5 -30l-37 103q46 21 102 34t115 13q103 0 163.5 -47t60.5 -139q0 -38 -10 -67h52v-70h-91
q-17 -19 -47.5 -34.5t-60.5 -28t-48 -20.5h247v-71h-360q-17 -23 -17 -57q0 -93 126 -93q55 0 107.5 13.5t98.5 32.5v-109q-40 -19 -96.5 -31.5t-118.5 -12.5z" />
    <glyph glyph-name="becombcy" unicode="&#x2de0;" 
d="M-106 750q0 72 28.5 111.5t92.5 50.5q26 4 51.5 7.5t51.5 6.5l7 -44q-23 -3 -53 -6.5t-51 -6.5q-32 -5 -49 -22t-19 -59h3q8 12 27 23t48 11q45 0 70 -25t25 -71q0 -55 -32.5 -82.5t-83.5 -27.5q-53 0 -84.5 34.5t-31.5 99.5zM13 657q25 0 40 14.5t15 50.5q0 28 -11.5 45
t-37.5 17q-25 0 -43.5 -14t-23.5 -23q0 -34 12.5 -62t48.5 -28z" />
    <glyph glyph-name="vecombcy" unicode="&#x2de1;" 
d="M118 781q0 -38 -49 -46v-2q24 -3 40 -15t16 -34q0 -28 -24 -46t-80 -18h-112v217h112q41 0 69 -12.5t28 -43.5zM60 776q0 24 -42 24h-52v-49h45q49 0 49 25zM67 686q0 28 -52 28h-49v-58h50q23 0 37 7t14 23z" />
    <glyph glyph-name="ghecombcy" unicode="&#x2de2;" 
d="M104 837v-39h-105v-178h-57v217h162z" />
    <glyph glyph-name="decombcy" unicode="&#x2de3;" 
d="M109 837v-179h36v-115h-52v77h-166v-77h-52v115h20q27 35 41 82.5t17 96.5h156zM1 799q-4 -38 -15.5 -75t-31.5 -66h99v141h-52z" />
    <glyph glyph-name="zhecombcy" unicode="&#x2de4;" 
d="M187 837l-94 -105l103 -112h-62l-98 110v-110h-52v110l-98 -110h-62l103 112l-94 105h59l92 -105v105h52v-105l92 105h59z" />
    <glyph glyph-name="zecombcy" unicode="&#x2de5;" 
d="M7 841q40 0 68.5 -14.5t28.5 -43.5q0 -19 -13 -30.5t-35 -16.5v-2q23 -5 39 -16.5t16 -35.5q0 -27 -27.5 -46.5t-86.5 -19.5q-58 0 -90 14v42q15 -6 37 -11t47 -5q27 0 46 6.5t19 22.5q0 30 -70 30h-28v36h25q33 0 51 6t18 21q0 24 -52 24q-35 0 -73 -13l-18 36
q21 7 44.5 11.5t53.5 4.5z" />
    <glyph glyph-name="kacombcy" unicode="&#x2de6;" 
d="M69 837h62l-99 -104l108 -113h-65l-103 110v-110h-57v217h57v-105z" />
    <glyph glyph-name="elcombcy" unicode="&#x2de7;" 
d="M113 620h-57v178h-65q-9 -98 -27.5 -140t-60.5 -42q-19 0 -31 5v40q8 -3 18 -3q19 0 32 38t21 141h170v-217z" />
    <glyph glyph-name="emcombcy" unicode="&#x2de8;" 
d="M155 837v-217h-52v118q0 27 2 51h-1l-72 -169h-44l-72 169h-2q3 -22 3 -52v-117h-52v217h79l66 -157l68 157h77z" />
    <glyph glyph-name="encombcy" unicode="&#x2de9;" 
d="M-44 837v-86h108v86h57v-217h-57v92h-108v-92h-56v217h56z" />
    <glyph glyph-name="ocombcy" unicode="&#x2dea;" 
d="M127 729q0 -54 -32 -83.5t-85 -29.5q-51 0 -83.5 29.5t-32.5 83.5t31.5 83t85.5 29q51 0 83.5 -29t32.5 -83zM-48 729q0 -35 14 -53.5t44 -18.5q58 0 58 72q0 71 -58 71t-58 -71z" />
    <glyph glyph-name="pecombcy" unicode="&#x2deb;" 
d="M118 837v-217h-57v178h-102v-178h-57v217h216z" />
    <glyph glyph-name="ercombcy" unicode="&#x2dec;" 
d="M34 941q43 0 69 -28.5t26 -83.5q0 -56 -26.5 -84.5t-69.5 -28.5q-27 0 -43.5 9t-27.5 20h-3q2 -7 2.5 -16t0.5 -17v-88h-56v313h46l8 -29h2q11 14 28 23.5t44 9.5zM18 900q-30 0 -42.5 -16t-13.5 -48v-7q0 -35 12.5 -53.5t44.5 -18.5q27 0 39.5 19.5t12.5 52.5
q0 71 -53 71z" />
    <glyph glyph-name="escombcy" unicode="&#x2ded;" 
d="M32 616q-52 0 -82.5 26.5t-30.5 84.5q0 60 33 87t85 27q22 0 40.5 -4t30.5 -10l-17 -39q-14 5 -28 8t-27 3q-59 0 -59 -71q0 -70 58 -70q21 0 37 4t30 12v-43q-14 -8 -30 -11.5t-40 -3.5z" />
    <glyph glyph-name="tecombcy" unicode="&#x2dee;" 
d="M118 798h-80v-178h-56v178h-80v39h216v-39z" />
    <glyph glyph-name="hacombcy" unicode="&#x2def;" 
d="M-27 731l-80 106h64l53 -74l53 74h65l-82 -106l85 -111h-64l-57 79l-57 -79h-64z" />
    <glyph glyph-name="tsecombcy" unicode="&#x2df0;" 
d="M153 543h-52v77h-205v217h57v-178h108v178h57v-179h35v-115z" />
    <glyph glyph-name="checombcy" unicode="&#x2df1;" 
d="M-48 758q0 -32 36 -32q20 0 37.5 5t35.5 12v94h56v-217h-56v90q-18 -9 -38 -15.5t-46 -6.5q-38 0 -60 17.5t-22 50.5v81h57v-79z" />
    <glyph glyph-name="shacombcy" unicode="&#x2df2;" 
d="M186 837v-217h-352v217h57v-178h91v178h56v-178h91v178h57z" />
    <glyph glyph-name="shchacombcy" unicode="&#x2df3;" 
d="M182 837v-179h36v-115h-53v77h-334v217h57v-178h90v178h57v-178h91v178h56z" />
    <glyph glyph-name="fitacombcy" unicode="&#x2df4;" 
d="M127 729q0 -54 -32 -83.5t-85 -29.5q-51 0 -83.5 29.5t-32.5 83.5t31.5 83t85.5 29q51 0 83.5 -29t32.5 -83zM10 800q-51 0 -57 -52h114q-6 52 -57 52zM10 657q52 0 57 55h-114q5 -55 57 -55z" />
    <glyph glyph-name="estecombcy" unicode="&#x2df5;" 
d="M-98 616q-52 0 -82.5 26.5t-30.5 84.5t33 84t85 26h276v-39h-80v-178h-56v178h-140q-59 0 -59 -71q0 -70 58 -70q21 0 36.5 4.5t30.5 12.5v-44q-15 -7 -31 -10.5t-40 -3.5z" />
    <glyph glyph-name="acombcy" unicode="&#x2df6;" 
d="M11 841q97 0 97 -75v-146h-41l-11 30h-1q-16 -18 -33.5 -26t-48.5 -8q-32 0 -54 16.5t-22 50.5q0 66 112 69l42 1v11q0 39 -42 39q-19 0 -36 -5t-33 -11l-18 35q18 8 41 13.5t48 5.5zM22 722q-38 -2 -52 -12t-14 -27q0 -16 10 -22.5t26 -6.5q25 0 42 12.5t17 37.5v19z
" />
    <glyph glyph-name="iecombcy" unicode="&#x2df7;" 
d="M14 841q49 0 77.5 -26t28.5 -72v-26h-161q2 -62 67 -62q23 0 42 4t39 12v-40q-18 -8 -37.5 -11.5t-46.5 -3.5q-53 0 -87.5 27.5t-34.5 83.5q0 55 31 84.5t82 29.5zM14 804q-49 0 -54 -52h105q0 23 -12.5 37.5t-38.5 14.5z" />
    <glyph glyph-name="djervcombcy" unicode="&#x2df8;" 
d="M-75 775v34h56v28h57v-28h56v-34h-56v-23q37 -5 59.5 -26.5t22.5 -61.5v-44h-56v42q0 51 -54 51t-54 -51v-42h-56v44q0 39 22 60.5t59 27.5v23h-56z" />
    <glyph glyph-name="monographukcombcy" unicode="&#x2df9;" 
d="M11 616q-39 0 -60.5 18t-21.5 46q0 21 13 40.5t36 43.5q-26 24 -40.5 42t-19.5 37t-5 45h56q0 -29 8 -46.5t34 -42.5q23 25 35 54t12 71h59q0 -46 -21 -83.5t-53 -71.5q28 -24 39 -43.5t11 -42.5q0 -27 -20.5 -47t-61.5 -20zM11 651q13 0 23 7.5t10 21.5q0 16 -8.5 28
t-25.5 27q-33 -31 -33 -52q0 -14 9.5 -23t24.5 -9z" />
    <glyph glyph-name="yatcombcy" unicode="&#x2dfa;" 
d="M-24 924v-87h78v-39h-78v-47h56q106 0 106 -63q0 -31 -24.5 -49.5t-80.5 -18.5h-113v178h-55v39h55v87h56zM29 714h-53v-58h54q22 0 36.5 7t14.5 24q0 27 -52 27z" />
    <glyph glyph-name="yucombcy" unicode="&#x2dfb;" 
d="M182 729q0 -54 -30 -83.5t-82 -29.5q-46 0 -75.5 24t-34.5 72h-51v-92h-56v217h56v-86h52q6 44 35 67t75 23q49 0 80 -29t31 -83zM17 729q0 -72 54 -72q53 0 53 72q0 71 -53 71q-54 0 -54 -71z" />
    <glyph glyph-name="iotifiedacombcy" unicode="&#x2dfc;" 
d="M45 616q-34 0 -55 16.5t-21 48.5q0 19 11 33h-81v-94h-56v217h56v-85h224v12q0 39 -43 39q-18 0 -35 -4t-34 -12l-19 35q20 9 43 14t47 5q97 0 97 -76v-145h-40l-11 31h-2q-16 -19 -34 -27t-47 -8zM64 654q26 0 42.5 13t16.5 37v19l-30 -1q-66 -2 -66 -39q0 -29 37 -29z
" />
    <glyph glyph-name="littleyuscombcy" unicode="&#x2dfd;" 
d="M44 837l103 -217h-55l-38 87h-19v-87h-50v87h-20l-37 -87h-56l103 217h69zM8 807q-3 -10 -9 -23.5t-9 -19.5l-10 -21h59l-10 21q-3 6 -9.5 20t-9.5 23h-2z" />
    <glyph glyph-name="bigyuscombcy" unicode="&#x2dfe;" 
d="M126 837v-21l-67 -70q26 -6 39 -20.5t23 -38.5l27 -67h-51l-23 60q-7 17 -14.5 24t-23.5 8v-92h-50v93q-18 -1 -25.5 -8t-14.5 -25l-24 -60h-50l27 67q9 24 23 39t40 20l-67 70v21h231zM58 801h-96l48 -50z" />
    <glyph glyph-name="iotifiedbigyuscombcy" unicode="&#x2dff;" 
d="M180 837v-21l-67 -71q26 -5 39 -19.5t23 -38.5l27 -67h-51l-23 60q-7 17 -14.5 24t-23.5 8v-92h-50v93q-18 -2 -25.5 -8.5t-14.5 -24.5l-24 -60h-50l27 67q3 7 7 14t8 11h-66v-92h-51v217h51v-86h109l-62 65v21h231zM112 801h-96l48 -50z" />
    <glyph glyph-name="uniA640" unicode="&#xa640;" horiz-adv-x="578" 
d="M73 -120q10 8 39 14.5t83 6.5q31 0 64 -3t86 -3q55 0 75.5 15t20.5 38q0 18 -10 29.5t-38 17t-80 5.5h-285v84l359 523h-348v107h502v-84l-359 -523h146q92 0 144 -20t73 -55.5t21 -82.5q0 -64 -48.5 -107t-145.5 -43q-56 0 -105 2.5t-77 2.5q-32 0 -67.5 -5.5
t-49.5 -15.5v97z" />
    <glyph glyph-name="uniA641" unicode="&#xa641;" horiz-adv-x="482" 
d="M49 -120q7 9 26 14.5t55 5.5q24 0 43 -1t41.5 -2.5t57.5 -1.5q43 0 72 11.5t29 40.5q0 16 -9 28t-34.5 18.5t-73.5 6.5h-226v75l267 370h-250v98h395v-82l-261 -363h75q84 0 133.5 -18.5t70.5 -53.5t21 -84q0 -65 -44.5 -104t-137.5 -39q-59 0 -100 2.5t-74 2.5
q-20 0 -43 -5t-33 -15v96z" />
    <glyph glyph-name="uniA642" unicode="&#xa642;" horiz-adv-x="578" 
d="M73 -120q10 8 39 14.5t83 6.5q31 0 64 -3t86 -3q55 0 75.5 15t20.5 38q0 18 -10 29.5t-38 17t-80 5.5h-285v84l148 215h-115v106h188l138 202h-348v107h502v-84l-154 -225h119v-106h-192l-132 -192h146q92 0 144 -20t73 -55.5t21 -82.5q0 -64 -48.5 -107t-145.5 -43
q-56 0 -105 2.5t-77 2.5q-32 0 -67.5 -5.5t-49.5 -15.5v97z" />
    <glyph glyph-name="uniA643" unicode="&#xa643;" horiz-adv-x="482" 
d="M49 -120q7 9 26 14.5t55 5.5q24 0 43 -1t41.5 -2.5t57.5 -1.5q43 0 72 11.5t29 40.5q0 16 -9 28t-34.5 18.5t-73.5 6.5h-226v75l116 161h-88v85h149l90 124h-250v98h395v-82l-101 -140h85v-85h-145l-100 -138h75q84 0 133.5 -18.5t70.5 -53.5t21 -84q0 -65 -44.5 -104
t-137.5 -39q-59 0 -100 2.5t-74 2.5q-20 0 -43 -5t-33 -15v96z" />
    <glyph glyph-name="Dzereversedcy" unicode="&#xa644;" horiz-adv-x="549" 
d="M42 195q0 56 21.5 94t62 65t98.5 52q50 22 81.5 39t46.5 37t15 50q0 37 -27.5 60.5t-79.5 23.5q-42 0 -83 -11t-86 -30l-41 103q50 22 100 34t107 12q107 0 171.5 -51.5t64.5 -143.5q0 -62 -25.5 -102t-65.5 -66t-84 -45q-73 -31 -111.5 -57t-38.5 -71q0 -41 30 -66
t95 -25q55 0 109 16.5t100 36.5v-120q-82 -40 -200 -40q-123 0 -191.5 55t-68.5 150z" />
    <glyph glyph-name="dzereversedcy" unicode="&#xa645;" horiz-adv-x="490" 
d="M41 157q0 46 18.5 76t53.5 50.5t83 39.5q49 19 76 32.5t37 25.5t10 29q0 47 -83 47q-37 0 -73.5 -11t-74.5 -27l-39 93q44 20 88.5 30t95.5 10q95 0 152.5 -37.5t57.5 -110.5q0 -46 -17.5 -75t-52 -50.5t-85.5 -41.5q-53 -22 -79.5 -37t-35.5 -27.5t-9 -28.5
q0 -27 23 -43t76 -16q42 0 91 13t88 32v-107q-37 -17 -78 -25t-98 -8q-109 0 -167 42.5t-58 124.5z" />
    <glyph glyph-name="uniA646" unicode="&#xa646;" horiz-adv-x="427" 
d="M121 166v441l-84 33v74h295v-74l-83 -33v-440q0 -75 72 -75q22 0 42.5 4t42.5 11v-95q-20 -9 -50.5 -15.5t-63.5 -6.5q-51 0 -89.5 16t-60 54.5t-21.5 105.5z" />
    <glyph glyph-name="uniA647" unicode="&#xa647;" horiz-adv-x="384" 
d="M257 -10q-95 0 -136 49t-41 124v379h126v-366q0 -50 20.5 -67t51.5 -17q20 0 36 2.5t33 7.5v-100q-17 -5 -41 -8.5t-49 -3.5z" />
    <glyph glyph-name="uniA648" unicode="&#xa648;" horiz-adv-x="748" 
d="M155 526v106h156v82h127v-82h155v-106h-155v-84q111 -17 167 -87t56 -171v-184h-128v165q0 88 -39 131t-120 43q-78 0 -118.5 -40.5t-40.5 -131.5v-167h-128v184q0 106 57.5 174.5t166.5 84.5v83h-156z" />
    <glyph glyph-name="uniA649" unicode="&#xa649;" horiz-adv-x="644" 
d="M134 388v85h124v70h126v-70h124v-85h-124v-58q84 -14 133.5 -67.5t49.5 -152.5v-110h-126v106q0 126 -118 126q-120 0 -120 -126v-106h-126v110q0 98 49 151.5t132 67.5v59h-124z" />
    <glyph glyph-name="Ukmonographcy" unicode="&#xa64a;" horiz-adv-x="789" 
d="M730 219q0 -103 -82.5 -166t-253.5 -63q-170 0 -252.5 63t-82.5 166q0 83 53 140t162 77l-177 278h140l161 -267h1l162 267h138l-180 -278q107 -21 159 -78t52 -139zM194 223q0 -58 48 -91t153 -33t152 33t47 91q0 48 -32 78.5t-100 40.5v-132h-128v132q-72 -9 -106 -40
t-34 -79z" />
    <glyph glyph-name="ukmonographcy" unicode="&#xa64b;" horiz-adv-x="477" 
d="M241 -10q-87 0 -134.5 45t-47.5 116q0 51 29 99.5t80 108.5q-45 46 -73.5 82t-44.5 70t-22 72t-6 87h126q0 -48 7.5 -82t27.5 -66t58 -74q50 62 77 134.5t27 177.5h132q-1 -115 -47.5 -209t-117.5 -180q62 -58 86 -107.5t24 -107.5q0 -43 -20 -81t-60.5 -61.5
t-100.5 -23.5zM240 78q29 0 51 19t22 54q0 39 -18.5 69t-56.5 68q-38 -42 -55 -71.5t-17 -58.5q0 -36 20.5 -58t53.5 -22z" />
    <glyph glyph-name="Omegabroadcy" unicode="&#xa64c;" horiz-adv-x="1065" 
d="M355 -10q-101 0 -166.5 49.5t-97.5 135.5t-32 196q0 108 31.5 187t92 122t145.5 43q39 0 80 -14t70 -36l-46 -90q-19 13 -44 25t-54 12q-68 0 -107.5 -64.5t-39.5 -185.5q0 -124 46.5 -196t139.5 -72q27 0 50 10.5t43 27.5v201h128v-201q43 -38 98 -38q93 0 139.5 72
t46.5 196q0 121 -39.5 185.5t-107.5 64.5q-29 0 -54.5 -12t-44.5 -25l-46 90q30 22 71 36t79 14q86 0 146 -43t91.5 -122t31.5 -187q0 -110 -31.5 -196t-97 -135.5t-166.5 -49.5q-55 0 -98.5 17t-79.5 51q-37 -34 -80 -51t-97 -17z" />
    <glyph glyph-name="omegabroadcy" unicode="&#xa64d;" horiz-adv-x="927" 
d="M304 -10q-117 0 -181.5 69t-64.5 209q0 145 62.5 215t166.5 70q41 0 71 -11t55 -27l-47 -90q-22 12 -41 18.5t-38 6.5q-100 0 -100 -181q0 -86 34.5 -131t94.5 -45q26 0 47.5 11t42.5 39v141h126v-138q22 -30 44.5 -41.5t49.5 -11.5q60 0 92.5 45t32.5 131
q0 181 -101 181q-18 0 -37.5 -7t-41.5 -18l-48 90q25 16 56 27t72 11q103 0 166 -70t63 -215q0 -140 -65 -209t-181 -69q-108 0 -165 83q-30 -44 -70 -63.5t-95 -19.5z" />
    <glyph glyph-name="Yerneutralcy" unicode="&#xa64e;" horiz-adv-x="650" 
d="M145 538q0 39 -16 62t-54 23q-24 0 -43 -4.5t-37 -9.5l-32 95q22 9 54.5 15t71.5 6q87 0 135.5 -39.5t48.5 -142.5v-112h78q144 0 212.5 -58t68.5 -154q0 -104 -68.5 -161.5t-212.5 -57.5h-206v538zM344 106q76 0 117 26t41 87q0 64 -45 85t-124 21h-60v-219h71z" />
    <glyph glyph-name="yerneutralcy" unicode="&#xa64f;" horiz-adv-x="700" 
d="M179 374q0 35 -15 57t-52 22q-23 0 -42.5 -4t-36.5 -10l-32 94q22 8 54 14t70 6q85 0 132.5 -37.5t47.5 -137.5v-49h121q118 0 175.5 -39.5t57.5 -118.5t-55 -125t-177 -46h-248v374zM532 170q0 38 -28.5 53.5t-82.5 15.5h-116v-149h118q50 0 79.5 19t29.5 61z" />
    <glyph glyph-name="Yerubackyercy" unicode="&#xa650;" horiz-adv-x="967" 
d="M177 0v606h-176v108h304v-283h70q143 0 211 -58t68 -154q0 -104 -68 -161.5t-212 -57.5h-197zM742 0v714h128v-714h-128zM369 106q74 0 114 26t40 87q0 64 -42 85t-120 21h-56v-219h64z" />
    <glyph glyph-name="yerubackyercy" unicode="&#xa651;" horiz-adv-x="917" 
d="M177 0v446h-172v97h298v-214h94q118 0 175 -39.5t57 -118.5t-55.5 -125t-176.5 -46h-220zM711 0v543h126v-543h-126zM393 90q49 0 79 18.5t30 60.5q0 38 -28.5 54t-82.5 16h-88v-149h90z" />
    <glyph glyph-name="Yatiotifiedcy" unicode="&#xa652;" horiz-adv-x="882" 
d="M93 0v714h128v-84h137v84h128v-84h232v-105h-232v-94h71q143 0 210.5 -58t67.5 -154q0 -104 -67.5 -161.5t-211.5 -57.5h-198v525h-137v-525h-128zM551 106q73 0 113.5 26t40.5 87q0 64 -42.5 85t-119.5 21h-57v-219h65z" />
    <glyph glyph-name="yatiotifiedcy" unicode="&#xa653;" horiz-adv-x="838" 
d="M81 0v641h126v-98h134v98h126v-98h180v-96h-180v-118h98q118 0 175 -39.5t57 -118.5t-55 -125t-176 -46h-225v447h-134v-447h-126zM561 90q50 0 80 19t30 60q0 38 -29 54t-83 16h-92v-149h94z" />
    <glyph glyph-name="Yureversedcy" unicode="&#xa654;" horiz-adv-x="1061" 
d="M59 358q0 110 34.5 192.5t104 128.5t175.5 46q143 0 220.5 -81.5t92.5 -217.5h154v288h128v-714h-128v318h-152q-6 -99 -42 -172.5t-104 -114.5t-168 -41q-106 0 -176 46t-104.5 129t-34.5 193zM556 358q0 119 -44 189t-140 70q-94 0 -137 -70t-43 -189q0 -120 43 -189.5
t139 -69.5q94 0 138 70t44 189z" />
    <glyph glyph-name="yureversedcy" unicode="&#xa655;" horiz-adv-x="862" 
d="M49 272q0 90 31.5 152.5t87 95t127.5 32.5q102 0 167.5 -58t78.5 -167h114v215h126v-542h-126v230h-112q-12 -120 -78 -180t-167 -60q-115 0 -182 73.5t-67 208.5zM415 272q0 88 -28 133t-90 45q-63 0 -91 -45t-28 -133q0 -89 28 -134.5t90 -45.5q63 0 91 45.5t28 134.5z
" />
    <glyph glyph-name="Iotifiedacy" unicode="&#xa656;" horiz-adv-x="1041" 
d="M93 0v714h128v-296h280l115 299h150l275 -717h-127l-109 310h-229l-109 -310h-127l119 310h-238v-310h-128zM610 418h159l-27 70q-6 16 -16.5 43.5t-20.5 55t-14 42.5q-3 -14 -13.5 -41.5t-22 -55.5t-17.5 -45z" />
    <glyph glyph-name="uniA657" unicode="&#xa657;" horiz-adv-x="905" 
d="M529 -10q-74 0 -121 41t-47 121q0 48 25 82h-179v-234h-126v543h126v-214h496v31q0 99 -95 99q-39 0 -77 -11.5t-77 -29.5l-41 88q43 22 94.5 34.5t105.5 12.5q105 0 160 -47t55 -145v-361h-88l-26 76h-4q-36 -45 -75 -65.5t-106 -20.5zM573 84q57 0 93.5 33t36.5 93v47
l-66 -3q-76 -2 -111 -26.5t-35 -70.5q0 -38 22.5 -55.5t59.5 -17.5z" />
    <glyph glyph-name="Yusclosedlittlecy" unicode="&#xa658;" horiz-adv-x="700" 
d="M426 717l274 -717h-700l275 717h151zM351 638q-4 -16 -13.5 -45l-19 -58t-15.5 -45l-40 -111h175l-40 111q-6 16 -15.5 45t-18.5 57.5t-13 45.5zM225 272l-59 -164h369l-59 164h-251z" />
    <glyph glyph-name="yusclosedlittlecy" unicode="&#xa659;" horiz-adv-x="599" 
d="M0 0l224 543h150l225 -543h-599zM234 293h130l-22 58l-12 30t-16.5 42.5t-13.5 39.5h-4q-5 -16 -13.5 -39t-17 -44t-12.5 -31zM201 205l-46 -120h289l-46 120h-197z" />
    <glyph glyph-name="Yusblendedcy" unicode="&#xa65a;" horiz-adv-x="779" 
d="M591 146h-145v-146h-112v146h-146l-41 -146h-129l73 221q28 87 69 133.5t114 59.5l-190 238v62h613v-62l-193 -238q73 -13 114 -59t69 -132l74 -223h-129zM389 420l143 186h-285zM364 336q-66 0 -98 -24t-53 -79h351q-20 55 -52 79t-91 24h-57z" />
    <glyph glyph-name="yusblendedcy" unicode="&#xa65b;" horiz-adv-x="619" 
d="M470 108h-111v-108h-95v108h-114l-32 -108h-109l58 167q21 63 52.5 98t84.5 48l-147 180v50h508v-50l-148 -181q50 -13 81 -46.5t54 -98.5l58 -167h-109zM204 455l106 -137l106 137h-212zM287 247q-53 0 -77 -15.5t-40 -52.5h278q-15 37 -39.5 53t-75.5 15h-46z" />
    <glyph glyph-name="Yusiotifiedclosedlittlecy" unicode="&#xa65c;" horiz-adv-x="1041" 
d="M93 0v714h128v-296h280l115 299h150l275 -717h-701l119 310h-238v-310h-128zM610 418h159l-27 70q-6 16 -16.5 43.5t-20.5 55t-14 42.5q-3 -14 -13.5 -41.5t-22 -55.5t-17.5 -45zM576 310l-71 -202h371l-71 202h-229z" />
    <glyph glyph-name="yusiotifiedclosedlittlecy" unicode="&#xa65d;" horiz-adv-x="918" 
d="M206 543v-225h245l93 225h149l225 -543h-599l92 223h-205v-223h-126v543h126zM615 465q-5 -16 -13.5 -39t-16.5 -44.5t-12 -31.5l-15 -39h120l-16 41l-12 30t-17 43t-14 40h-4zM525 223l-52 -138h291l-53 138h-186z" />
    <glyph glyph-name="uniA65E" unicode="&#xa65e;" horiz-adv-x="701" 
d="M701 0h-131l-77 255q-12 47 -20.5 88t-14.5 92h-13v-565h-126v565h-13q-5 -51 -14.5 -101t-19.5 -84l-20 -60q-19 -60 -38.5 -104t-47.5 -68t-74 -24q-28 0 -48.5 5t-31.5 11v102q10 -4 22 -7t25 -3q31 0 47 26.5t34 80.5l176 505h138z" />
    <glyph glyph-name="uniA65F" unicode="&#xa65f;" horiz-adv-x="581" 
d="M581 0h-132l-48 183q-9 33 -16 63.5t-10 52.5h-13l6 -539h-126l5 539h-12q-4 -21 -9.5 -48t-13.5 -58l-15 -54q-18 -71 -46.5 -108t-86.5 -37q-10 0 -28 3t-34 9v99q11 -5 20.5 -6.5t17.5 -1.5q23 0 35 19t21 42l146 385h131z" />
    <glyph glyph-name="Tsereversedcy" unicode="&#xa660;" horiz-adv-x="766" 
d="M20 105h99v609h128v-605h298v605h128v-714h-529v-200h-124v305z" />
    <glyph glyph-name="tsereversedcy" unicode="&#xa661;" horiz-adv-x="667" 
d="M16 -192v287h78v447h126v-444h240v444h126v-542h-455v-192h-115z" />
    <glyph glyph-name="Desoftcy" unicode="&#xa662;" horiz-adv-x="923" 
d="M901 714v-107h-278v-498h93v-309h-124v200h-463v-200h-124v309h55q63 116 111.5 269t67.5 336h662zM343 605q-6 -54 -19.5 -118t-33.5 -131t-44 -130.5t-51 -116.5h300v496h-152z" />
    <glyph glyph-name="desoftcy" unicode="&#xa663;" horiz-adv-x="779" 
d="M757 543v-97h-220v-350h79v-288h-116v192h-369v-192h-115v288h45q59 87 90.5 205t38.5 241h220v1h347zM297 446q-10 -95 -36 -187t-69 -163h218v350h-113z" />
    <glyph glyph-name="Elsoftcy" unicode="&#xa664;" horiz-adv-x="937" 
d="M638 0h-129v606h-193q-6 -50 -13 -106.5t-15 -113t-16 -107t-16 -88.5q-13 -65 -33.5 -110t-56 -68t-91.5 -23q-38 0 -70 11v106q13 -5 26 -8t28 -3q35 0 51.5 38.5t30.5 111.5q7 34 18 104t24.5 164t26.5 200h706v-107h-278v-607z" />
    <glyph glyph-name="elsoftcy" unicode="&#xa665;" horiz-adv-x="785" 
d="M763 543v-97h-221v-446h-129v445h-145q-14 -163 -36 -263t-60 -145.5t-99 -45.5q-44 0 -70 13v99q18 -8 40 -8q21 0 38.5 22t32 73t26 137.5t20.5 214.5h256v1h347z" />
    <glyph glyph-name="Emsoftcy" unicode="&#xa666;" horiz-adv-x="1123" 
d="M400 0l-196 585h-4q1 -20 3 -56.5t3.5 -79t1.5 -79.5v-370h-115v714h178l188 -561h4l196 561h446v-107h-268v-607h-122v376q0 34 1.5 74.5t3 76.5t2.5 57h-4l-204 -584h-114z" />
    <glyph glyph-name="emsoftcy" unicode="&#xa667;" horiz-adv-x="969" 
d="M947 543v-97h-221v-446h-116v296q0 67 5 126h-3l-160 -422h-97l-160 422h-3q2 -29 3.5 -61t1.5 -69v-292h-116v542h175l149 -393l150 393h30l-1 1h363z" />
    <glyph glyph-name="Omonocularcy" unicode="&#xa668;" horiz-adv-x="790" 
d="M731 358q0 -111 -36.5 -193.5t-111.5 -128.5t-188 -46q-114 0 -188.5 46t-111 129t-36.5 194q0 110 36.5 192.5t111 128t189.5 45.5q113 0 187.5 -45.5t111 -128t36.5 -193.5zM194 358q0 -121 48 -190t153 -69q106 0 153.5 69t47.5 190t-47 190t-153 69
q-105 0 -153.5 -69t-48.5 -190zM321 361q0 42 22 59.5t54 17.5q31 0 54 -17.5t23 -59.5q0 -41 -23 -59t-54 -18q-32 0 -54 18t-22 59z" />
    <glyph glyph-name="omonocularcy" unicode="&#xa669;" horiz-adv-x="614" 
d="M305 -10q-74 0 -132 33t-91 96t-33 153q0 135 69.5 207.5t189.5 72.5q75 0 133 -32.5t91 -95t33 -152.5q0 -135 -70 -208.5t-190 -73.5zM307 92q74 0 108 47t34 133t-34 132t-109 46q-74 0 -107.5 -46t-33.5 -132t34 -133t108 -47zM309 204q-26 0 -44.5 15t-18.5 52
t18.5 51.5t44.5 14.5t45 -14.5t19 -51.5t-19 -52t-45 -15z" />
    <glyph glyph-name="Obinocularcy" unicode="&#xa66a;" horiz-adv-x="789" 
d="M395 -10q-114 0 -188.5 46t-111 129t-36.5 194q0 110 36.5 192.5t111 128t189.5 45.5q113 0 187.5 -45.5t111 -128t36.5 -193.5t-36.5 -193.5t-111.5 -128.5t-188 -46zM395 99q106 0 153.5 69t47.5 190t-47 190t-153 69q-105 0 -153.5 -69t-48.5 -190t48 -190t153 -69z
M302 295q-26 0 -43.5 15t-17.5 46q0 32 17.5 47t43.5 15t44.5 -15t18.5 -47q0 -31 -18.5 -46t-44.5 -15zM485 295q-27 0 -44.5 15t-17.5 46q0 32 17.5 47t44.5 15q26 0 44 -15t18 -47q0 -31 -18 -46t-44 -15z" />
    <glyph glyph-name="obinocularcy" unicode="&#xa66b;" horiz-adv-x="673" 
d="M625 272q0 -133 -77 -207.5t-213 -74.5q-84 0 -148.5 33.5t-101.5 96.5t-37 152q0 133 76.5 207t213.5 74q86 0 150.5 -33.5t100.5 -96t36 -151.5zM165 272q0 -86 41 -132.5t131 -46.5t130.5 47t40.5 132q0 86 -41 132t-131 46q-88 0 -129.5 -45t-41.5 -133zM198 278
q0 32 16.5 47t42.5 15q24 0 41 -15t17 -47q0 -31 -17 -46t-41 -15q-26 0 -42.5 15t-16.5 46zM358 278q0 32 16.5 47t41.5 15t42.5 -15t17.5 -47q0 -31 -17.5 -46t-42.5 -15t-41.5 15t-16.5 46z" />
    <glyph glyph-name="Odoublemonocularcy" unicode="&#xa66c;" horiz-adv-x="1324" 
d="M1266 358q0 -111 -36.5 -193.5t-111.5 -128.5t-188 -46q-114 0 -188.5 46t-111 129t-36.5 194q0 110 36.5 192.5t111 128t189.5 45.5q113 0 187.5 -45.5t111 -128t36.5 -193.5zM729 358q0 -121 48 -190t153 -69q106 0 153.5 69t47.5 190t-47 190t-153 69
q-105 0 -153.5 -69t-48.5 -190zM856 361q0 42 22 59.5t54 17.5q31 0 54 -17.5t23 -59.5q0 -41 -23 -59t-54 -18q-32 0 -54 18t-22 59zM731 358q0 -111 -36.5 -193.5t-111.5 -128.5t-188 -46q-114 0 -188.5 46t-111 129t-36.5 194q0 110 36.5 192.5t111 128t189.5 45.5
q113 0 187.5 -45.5t111 -128t36.5 -193.5zM194 358q0 -121 48 -190t153 -69q106 0 153.5 69t47.5 190t-47 190t-153 69q-105 0 -153.5 -69t-48.5 -190zM321 361q0 42 22 59.5t54 17.5q31 0 54 -17.5t23 -59.5q0 -41 -23 -59t-54 -18q-32 0 -54 18t-22 59z" />
    <glyph glyph-name="odoublemonocularcy" unicode="&#xa66d;" horiz-adv-x="1015" 
d="M706 -10q-74 0 -132 33t-91 96t-33 153q0 135 69.5 207.5t189.5 72.5q75 0 133 -32.5t91 -95t33 -152.5q0 -135 -70 -208.5t-190 -73.5zM708 92q74 0 108 47t34 133t-34 132t-109 46q-74 0 -107.5 -46t-33.5 -132t34 -133t108 -47zM710 204q-26 0 -44.5 15t-18.5 52
t18.5 51.5t44.5 14.5t45 -14.5t19 -51.5t-19 -52t-45 -15zM305 -10q-74 0 -132 33t-91 96t-33 153q0 135 69.5 207.5t189.5 72.5q75 0 133 -32.5t91 -95t33 -152.5q0 -135 -70 -208.5t-190 -73.5zM307 92q74 0 108 47t34 133t-34 132t-109 46q-74 0 -107.5 -46t-33.5 -132
t34 -133t108 -47zM309 204q-26 0 -44.5 15t-18.5 52t18.5 51.5t44.5 14.5t45 -14.5t19 -51.5t-19 -52t-45 -15z" />
    <glyph glyph-name="uniA66E" unicode="&#xa66e;" horiz-adv-x="866" 
d="M703 52q0 -73 -36.5 -118t-112.5 -45q-42 0 -71.5 14t-47.5 39q-19 -25 -48.5 -39t-70.5 -14q-77 0 -113.5 45t-36.5 119q0 53 19 91q-72 2 -106 47t-34 116t34 115.5t106 47.5q-19 37 -19 91q0 74 36.5 118.5t113.5 44.5q41 0 70.5 -14t48.5 -39q18 25 48 39t72 14
q75 0 111.5 -44.5t36.5 -118.5q0 -54 -19 -92q70 -3 104 -47t34 -115t-34 -115.5t-104 -47.5q19 -38 19 -92zM465 561q0 -54 21.5 -84.5t67.5 -30.5q47 0 68 30.5t21 84.5t-21 84.5t-67 30.5q-47 0 -68.5 -30.5t-21.5 -84.5zM226 561q0 -54 21.5 -84.5t68.5 -30.5t68 30.5
t21 84.5t-21 84.5t-68 30.5t-68.5 -30.5t-21.5 -84.5zM521 562q0 19 10 26.5t24 7.5t24 -7.5t10 -26.5q0 -18 -10 -26t-24 -8t-24 8t-10 26zM282 562q0 19 10 26.5t24 7.5t24.5 -7.5t10.5 -26.5q0 -18 -10.5 -26t-24.5 -8t-24 8t-10 26zM583 307q0 -54 21.5 -84.5
t68.5 -30.5t68 30.5t21 84.5t-21 84.5t-68 30.5t-68.5 -30.5t-21.5 -84.5zM105 307q0 -54 21 -84.5t68 -30.5t68 30.5t21 84.5t-21 84.5t-68 30.5q-46 0 -67.5 -30.5t-21.5 -84.5zM344 307q0 -54 21.5 -84.5t67.5 -30.5q47 0 68 30.5t21 84.5t-21 84.5t-67 30.5
q-47 0 -68.5 -30.5t-21.5 -84.5zM640 308q0 19 9.5 26.5t24.5 7.5q13 0 23.5 -7.5t10.5 -26.5q0 -18 -10.5 -26t-23.5 -8q-15 0 -24.5 8t-9.5 26zM161 308q0 19 10 26.5t24 7.5t24 -7.5t10 -26.5q0 -18 -10 -26t-24 -8t-24 8t-10 26zM400 308q0 19 10 26.5t24 7.5t24 -7.5
t10 -26.5q0 -18 -10 -26t-24 -8t-24 8t-10 26zM465 52q0 -53 21.5 -84t67.5 -31q47 0 68 31t21 84q0 54 -21 84.5t-67 30.5q-47 0 -68.5 -30.5t-21.5 -84.5zM226 52q0 -53 21.5 -84t68.5 -31t68 31t21 84q0 54 -21 84.5t-68 30.5t-68.5 -30.5t-21.5 -84.5zM521 53
q0 19 10 27t24 8t24 -8t10 -27q0 -18 -10 -26t-24 -8t-24 8t-10 26zM282 53q0 19 10 27t24 8t24.5 -8t10.5 -27q0 -18 -10.5 -26t-24.5 -8t-24 8t-10 26z" />
    <glyph glyph-name="uniA66F" unicode="&#xa66f;" 
d="M-184 612q-4 -46 -48 -46q-48 0 -48 53q0 26 12 42t37 16h461q25 0 37 -16t12 -42q0 -53 -48 -53q-44 0 -48 46h-367z" />
    <glyph glyph-name="uniA670" unicode="&#xa670;" 
d="M96 625h-43l-52 84l-52 -84h-40l70 109l-66 102h42l48 -78l48 78h40l-66 -103zM-230 527h-43l-52 84l-52 -84h-40l70 109l-66 102h42l48 -78l48 78h40l-66 -103zM411 527h-43l-52 84l-52 -84h-40l70 109l-66 102h42l48 -78l48 78h40l-66 -103zM-371 175h-43l-52 84
l-52 -84h-40l70 109l-66 102h42l48 -78l48 78h40l-66 -103zM556 175h-43l-52 84l-52 -84h-40l70 109l-66 102h42l48 -78l48 78h40l-66 -103zM-230 -187h-43l-52 84l-52 -84h-40l70 109l-66 102h42l48 -78l48 78h40l-66 -103zM411 -187h-43l-52 84l-52 -84h-40l70 109
l-66 102h42l48 -78l48 78h40l-66 -103zM96 -297h-43l-52 84l-52 -84h-40l70 109l-66 102h42l48 -78l48 78h40l-66 -103z" />
    <glyph glyph-name="uniA671" unicode="&#xa671;" 
d="M436 587h-91v120h-690v-120h-91v231h872v-231zM436 -64v-231h-872v231h91v-120h690v120h91z" />
    <glyph glyph-name="uniA672" unicode="&#xa672;" 
d="M28 773h129v-62h-129v-130h-62v130h-128v62h128v132h62v-132zM-623 424v62h319v-62h-319zM303 424v62h319v-62h-319zM-623 239v62h319v-62h-319zM303 239v62h319v-62h-319zM-623 54v62h319v-62h-319zM303 54v62h319v-62h-319zM151 -63h62v-319h-62v319zM-218 -63h62v-319
h-62v319zM-34 -63h62v-319h-62v319z" />
    <glyph glyph-name="uniA673" unicode="&#xa673;" horiz-adv-x="547" 
d="M274 285l-68 117h-139l69 120l-69 121h139l68 117l67 -117h139l-70 -121l70 -120h-139zM274 362l45 78h95l-48 82l48 83h-95l-45 78l-45 -78h-96l48 -83l-48 -82h96z" />
    <glyph glyph-name="uniA674" unicode="&#xa674;" 
d="M37 616q-54 0 -87 26.5t-33 84.5q0 64 33.5 89t86.5 25q40 0 74 -13l-17 -38q-15 5 -30 8.5t-29 3.5q-53 0 -60 -54h103v-35h-103q5 -58 59 -58q21 0 37.5 4t33.5 10v-40q-30 -13 -68 -13z" />
    <glyph glyph-name="uniA675" unicode="&#xa675;" 
d="M-55 734q0 -11 -1.5 -32t-2.5 -28l119 163h69v-217h-54v102q0 13 1 32.5t2 28.5l-119 -163h-68v217h54v-103z" />
    <glyph glyph-name="uniA676" unicode="&#xa676;" 
d="M-61 894q0 12 8 17.5t19 5.5t19 -5.5t8 -17.5t-8 -18t-19 -6t-19 6t-8 18zM26 894q0 12 8 17.5t19 5.5t19.5 -5.5t8.5 -17.5t-8.5 -18t-19.5 -6t-19 6t-8 18zM38 620h-57v217h57v-217z" />
    <glyph glyph-name="uniA677" unicode="&#xa677;" 
d="M-113 937h62l48 -123q10 -24 13 -45h1q2 10 6 22l8 24l47 122h61l-104 -246q-28 -67 -97 -67q-11 0 -19.5 1t-14.5 2v40q5 -1 12 -1.5t15 -0.5q21 0 33.5 11t18.5 27l8 18z" />
    <glyph glyph-name="uniA678" unicode="&#xa678;" 
d="M-11 837v-86h54q106 0 106 -63q0 -31 -24 -49.5t-80 -18.5h-113v178h-78v39h135zM42 714h-53v-58h54q22 0 36 7t14 24q0 27 -51 27z" />
    </font>
</defs>
</svg>
